  0
SECTION
  2
HEADER
  9
$ACADVER
  1
AC1015
  9
$ACADMAINTVER
 70
    20
  9
$DWGCODEPAGE
  3
ANSI_932
  9
$INSBASE
 10
0.0
 20
0.0
 30
0.0
  9
$EXTMIN
 10
-77.38058762686932
 20
-96.74490201444292
 30
0.0
  9
$EXTMAX
 10
99.76748629599621
 20
53.31445755610513
 30
0.0
  9
$LIMMIN
 10
-95.0
 20
-138.5
  9
$LIMMAX
 10
95.0
 20
138.5
  9
$ORTHOMODE
 70
     1
  9
$REGENMODE
 70
     1
  9
$FILLMODE
 70
     1
  9
$QTEXTMODE
 70
     0
  9
$MIRRTEXT
 70
     1
  9
$LTSCALE
 40
1.0
  9
$ATTMODE
 70
     1
  9
$TEXTSIZE
 40
4.1656
  9
$TRACEWID
 40
0.05
  9
$TEXTSTYLE
  7
MX_NOTE_STANDARD
  9
$CLAYER
  8
0
  9
$CELTYPE
  6
CONTINUOUS
  9
$CECOLOR
 62
     1
  9
$CELTSCALE
 40
1.0
  9
$DISPSILH
 70
     0
  9
$DIMSCALE
 40
1.0
  9
$DIMASZ
 40
3.0
  9
$DIMEXO
 40
1.0
  9
$DIMDLI
 40
0.0
  9
$DIMRND
 40
0.0
  9
$DIMDLE
 40
0.0
  9
$DIMEXE
 40
1.0
  9
$DIMTP
 40
0.0
  9
$DIMTM
 40
0.0
  9
$DIMTXT
 40
3.0
  9
$DIMCEN
 40
0.0
  9
$DIMTSZ
 40
0.0
  9
$DIMTOL
 70
     0
  9
$DIMLIM
 70
     0
  9
$DIMTIH
 70
     0
  9
$DIMTOH
 70
     1
  9
$DIMSE1
 70
     0
  9
$DIMSE2
 70
     0
  9
$DIMTAD
 70
     1
  9
$DIMZIN
 70
     8
  9
$DIMBLK
  1
OPEN30
  9
$DIMASO
 70
     1
  9
$DIMSHO
 70
     1
  9
$DIMPOST
  1

  9
$DIMAPOST
  1

  9
$DIMALT
 70
     0
  9
$DIMALTD
 70
     4
  9
$DIMALTF
 40
0.0394
  9
$DIMLFAC
 40
1.0
  9
$DIMTOFL
 70
     1
  9
$DIMTVP
 40
0.0
  9
$DIMTIX
 70
     0
  9
$DIMSOXD
 70
     0
  9
$DIMSAH
 70
     0
  9
$DIMBLK1
  1

  9
$DIMBLK2
  1

  9
$DIMSTYLE
  2
ARTICS2
  9
$DIMCLRD
 70
   256
  9
$DIMCLRE
 70
     0
  9
$DIMCLRT
 70
     6
  9
$DIMTFAC
 40
1.0
  9
$DIMGAP
 40
1.0
  9
$DIMJUST
 70
     0
  9
$DIMSD1
 70
     0
  9
$DIMSD2
 70
     0
  9
$DIMTOLJ
 70
     1
  9
$DIMTZIN
 70
     0
  9
$DIMALTZ
 70
     0
  9
$DIMALTTZ
 70
     0
  9
$DIMUPT
 70
     1
  9
$DIMDEC
 70
     1
  9
$DIMTDEC
 70
     1
  9
$DIMALTU
 70
     8
  9
$DIMALTTD
 70
     4
  9
$DIMTXSTY
  7
Standard
  9
$DIMAUNIT
 70
     0
  9
$DIMADEC
 70
     0
  9
$DIMALTRND
 40
0.0
  9
$DIMAZIN
 70
     0
  9
$DIMDSEP
 70
    46
  9
$DIMATFIT
 70
     3
  9
$DIMFRAC
 70
     0
  9
$DIMLDRBLK
  1
OPEN30
  9
$DIMLUNIT
 70
     2
  9
$DIMLWD
 70
    13
  9
$DIMLWE
 70
    13
  9
$DIMTMOVE
 70
     0
  9
$LUNITS
 70
     2
  9
$LUPREC
 70
     4
  9
$SKETCHINC
 40
0.1
  9
$FILLETRAD
 40
0.0
  9
$AUNITS
 70
     0
  9
$AUPREC
 70
     0
  9
$MENU
  1
acad
  9
$ELEVATION
 40
0.0
  9
$PELEVATION
 40
0.0
  9
$THICKNESS
 40
0.0
  9
$LIMCHECK
 70
     0
  9
$CHAMFERA
 40
0.0
  9
$CHAMFERB
 40
0.0
  9
$CHAMFERC
 40
0.0
  9
$CHAMFERD
 40
0.0
  9
$SKPOLY
 70
     0
  9
$TDCREATE
 40
2453927.640358796
  9
$TDUCREATE
 40
2453927.265358796
  9
$TDUPDATE
 40
2456841.494964178
  9
$TDUUPDATE
 40
2456841.119964178
  9
$TDINDWG
 40
0.2856303472
  9
$TDUSRTIMER
 40
0.2856303125
  9
$USRTIMER
 70
     1
  9
$ANGBASE
 50
0.0
  9
$ANGDIR
 70
     0
  9
$PDMODE
 70
     0
  9
$PDSIZE
 40
0.0
  9
$PLINEWID
 40
0.0
  9
$SPLFRAME
 70
     0
  9
$SPLINETYPE
 70
     6
  9
$SPLINESEGS
 70
     8
  9
$HANDSEED
  5
852
  9
$SURFTAB1
 70
     6
  9
$SURFTAB2
 70
     6
  9
$SURFTYPE
 70
     6
  9
$SURFU
 70
     6
  9
$SURFV
 70
     6
  9
$UCSBASE
  2

  9
$UCSNAME
  2

  9
$UCSORG
 10
0.0
 20
0.0
 30
0.0
  9
$UCSXDIR
 10
1.0
 20
0.0
 30
0.0
  9
$UCSYDIR
 10
0.0
 20
1.0
 30
0.0
  9
$UCSORTHOREF
  2

  9
$UCSORTHOVIEW
 70
     0
  9
$UCSORGTOP
 10
0.0
 20
0.0
 30
0.0
  9
$UCSORGBOTTOM
 10
0.0
 20
0.0
 30
0.0
  9
$UCSORGLEFT
 10
0.0
 20
0.0
 30
0.0
  9
$UCSORGRIGHT
 10
0.0
 20
0.0
 30
0.0
  9
$UCSORGFRONT
 10
0.0
 20
0.0
 30
0.0
  9
$UCSORGBACK
 10
0.0
 20
0.0
 30
0.0
  9
$PUCSBASE
  2

  9
$PUCSNAME
  2

  9
$PUCSORG
 10
0.0
 20
0.0
 30
0.0
  9
$PUCSXDIR
 10
1.0
 20
0.0
 30
0.0
  9
$PUCSYDIR
 10
0.0
 20
1.0
 30
0.0
  9
$PUCSORTHOREF
  2

  9
$PUCSORTHOVIEW
 70
     0
  9
$PUCSORGTOP
 10
0.0
 20
0.0
 30
0.0
  9
$PUCSORGBOTTOM
 10
0.0
 20
0.0
 30
0.0
  9
$PUCSORGLEFT
 10
0.0
 20
0.0
 30
0.0
  9
$PUCSORGRIGHT
 10
0.0
 20
0.0
 30
0.0
  9
$PUCSORGFRONT
 10
0.0
 20
0.0
 30
0.0
  9
$PUCSORGBACK
 10
0.0
 20
0.0
 30
0.0
  9
$USERI1
 70
     0
  9
$USERI2
 70
     0
  9
$USERI3
 70
     0
  9
$USERI4
 70
     0
  9
$USERI5
 70
     0
  9
$USERR1
 40
0.0
  9
$USERR2
 40
0.0
  9
$USERR3
 40
0.0
  9
$USERR4
 40
0.0
  9
$USERR5
 40
0.0
  9
$WORLDVIEW
 70
     1
  9
$SHADEDGE
 70
     3
  9
$SHADEDIF
 70
    70
  9
$TILEMODE
 70
     1
  9
$MAXACTVP
 70
    16
  9
$PINSBASE
 10
0.0
 20
0.0
 30
0.0
  9
$PLIMCHECK
 70
     0
  9
$PEXTMIN
 10
3.455073238793048
 20
3.517014609140488
 30
0.0
  9
$PEXTMAX
 10
193.4805167108548
 20
280.5170146091405
 30
0.0
  9
$PLIMMIN
 10
-3.174999952316283
 20
-3.174999952316283
  9
$PLIMMAX
 10
206.7348358631134
 20
293.856829881668
  9
$UNITMODE
 70
     0
  9
$VISRETAIN
 70
     0
  9
$PLINEGEN
 70
     1
  9
$PSLTSCALE
 70
     0
  9
$TREEDEPTH
 70
  3020
  9
$CMLSTYLE
  2
STANDARD
  9
$CMLJUST
 70
     0
  9
$CMLSCALE
 40
1.0
  9
$PROXYGRAPHICS
 70
     0
  9
$MEASUREMENT
 70
     1
  9
$CELWEIGHT
370
    -1
  9
$ENDCAPS
280
     0
  9
$JOINSTYLE
280
     0
  9
$LWDISPLAY
290
     0
  9
$INSUNITS
 70
     0
  9
$HYPERLINKBASE
  1

  9
$STYLESHEET
  1
BLACK.CTB
  9
$XEDIT
290
     1
  9
$CEPSNTYPE
380
     0
  9
$PSTYLEMODE
290
     1
  9
$FINGERPRINTGUID
  2
{088BA8DB-539B-447F-A89B-FF2030CABBF1}
  9
$VERSIONGUID
  2
{7DE2F15F-80A5-4925-BD6A-1407AEAEE16A}
  9
$EXTNAMES
290
     1
  9
$PSVPSCALE
 40
0.0
  9
$OLESTARTUP
290
     0
  0
ENDSEC
  0
SECTION
  2
CLASSES
  0
CLASS
  1
IMAGE
  2
AcDbRasterImage
  3
ISM
 90
    34943
280
     0
281
     1
  0
CLASS
  1
DICTIONARYVAR
  2
AcDbDictionaryVar
  3
ObjectDBX Classes
 90
        0
280
     0
281
     0
  0
CLASS
  1
RASTERVARIABLES
  2
AcDbRasterVariables
  3
ISM
 90
    32768
280
     0
281
     0
  0
CLASS
  1
IMAGEDEF
  2
AcDbRasterImageDef
  3
ISM
 90
    32768
280
     0
281
     0
  0
CLASS
  1
IMAGEDEF_REACTOR
  2
AcDbRasterImageDefReactor
  3
ISM
 90
    32769
280
     0
281
     0
  0
CLASS
  1
IDBUFFER
  2
AcDbIdBuffer
  3
ObjectDBX Classes
 90
    32768
280
     0
281
     0
  0
CLASS
  1
SPATIAL_FILTER
  2
AcDbSpatialFilter
  3
ObjectDBX Classes
 90
    32768
280
     0
281
     0
  0
CLASS
  1
SORTENTSTABLE
  2
AcDbSortentsTable
  3
ObjectDBX Classes
 90
    32768
280
     0
281
     0
  0
CLASS
  1
LAYER_INDEX
  2
AcDbLayerIndex
  3
ObjectDBX Classes
 90
    32768
280
     0
281
     0
  0
CLASS
  1
SPATIAL_INDEX
  2
AcDbSpatialIndex
  3
ObjectDBX Classes
 90
    32768
280
     0
281
     0
  0
CLASS
  1
OBJECT_PTR
  2
CAseDLPNTableRecord
  3
"ASE-LPNTableRecord"
 90
    32769
280
     0
281
     0
  0
CLASS
  1
LAYOUT
  2
AcDbLayout
  3
ObjectDBX Classes
 90
        0
280
     0
281
     0
  0
CLASS
  1
PLOTSETTINGS
  2
AcDbPlotSettings
  3
ObjectDBX Classes
 90
    32768
280
     0
281
     0
  0
CLASS
  1
ACDBDICTIONARYWDFLT
  2
AcDbDictionaryWithDefault
  3
ObjectDBX Classes
 90
        0
280
     0
281
     0
  0
CLASS
  1
ACDBPLACEHOLDER
  2
AcDbPlaceHolder
  3
ObjectDBX Classes
 90
        0
280
     0
281
     0
  0
CLASS
  1
VBA_PROJECT
  2
AcDbVbaProject
  3
acad
 90
    32768
280
     0
281
     0
  0
CLASS
  1
WIPEOUT
  2
AcDbWipeout
  3
WipeOut|Product Desc: Object Enabler for WipeOut entity | Company: Autodesk, Inc. | WEB Address: www.autodesk.com
 90
    34943
280
     0
281
     1
  0
CLASS
  1
WIPEOUTVARIABLES
  2
AcDbWipeoutVariables
  3
"WipeOut|Product Desc:     WipeOut Dbx Application|Company:          Autodesk, Inc.|WEB Address:      www.autodesk.com"
 90
    32768
280
     0
281
     0
  0
CLASS
  1
RTEXT
  2
RText
  3
RText|AutoCAD Express Tool|expresstools@autodesk.com
 90
    32768
280
     0
281
     1
  0
CLASS
  1
ARCALIGNEDTEXT
  2
AcDbArcAlignedText
  3
ATEXT|AutoCAD Express Tool|expresstools@autodesk.com
 90
    32768
280
     0
281
     1
  0
CLASS
  1
MATERIAL
  2
AcDbMaterial
  3
ObjectDBX Classes
 90
     1153
280
     0
281
     0
  0
CLASS
  1
VISUALSTYLE
  2
AcDbVisualStyle
  3
ObjectDBX Classes
 90
     4095
280
     0
281
     0
  0
CLASS
  1
TABLESTYLE
  2
AcDbTableStyle
  3
ObjectDBX Classes
 90
     4095
280
     0
281
     0
  0
CLASS
  1
SCALE
  2
AcDbScale
  3
ObjectDBX Classes
 90
     1153
280
     0
281
     0
  0
CLASS
  1
MLEADERSTYLE
  2
AcDbMLeaderStyle
  3
ACDB_MLEADERSTYLE_CLASS
 90
     4095
280
     0
281
     0
  0
CLASS
  1
ACDBSECTIONVIEWSTYLE
  2
AcDbSectionViewStyle
  3
ObjectDBX Classes
 90
     1025
280
     0
281
     0
  0
CLASS
  1
ACDBDETAILVIEWSTYLE
  2
AcDbDetailViewStyle
  3
ObjectDBX Classes
 90
     1025
280
     0
281
     0
  0
CLASS
  1
CELLSTYLEMAP
  2
AcDbCellStyleMap
  3
ObjectDBX Classes
 90
     1152
280
     0
281
     0
  0
ENDSEC
  0
SECTION
  2
TABLES
  0
TABLE
  2
VPORT
  5
7
330
0
100
AcDbSymbolTable
 70
     1
  0
VPORT
  5
795
330
7
100
AcDbSymbolTableRecord
100
AcDbViewportTableRecord
  2
*Active
 70
     0
 10
0.0
 20
0.0
 11
1.0
 21
1.0
 12
75.62713164174138
 22
-24.76893009141747
 13
0.0
 23
0.0
 14
1.0
 24
1.0
 15
0.0
 25
0.0
 16
0.0
 26
0.0
 36
1.0
 17
0.0
 27
0.0
 37
0.0
 40
184.0285175764877
 41
2.239255014326647
 42
50.0
 43
0.0
 44
0.0
 50
0.0
 51
0.0
 71
     0
 72
   100
 73
     1
 74
     1
 75
     0
 76
     0
 77
     0
 78
     0
281
     0
 65
     1
110
0.0
120
0.0
130
0.0
111
1.0
121
0.0
131
0.0
112
0.0
122
1.0
132
0.0
 79
     0
146
0.0
1001
ACAD_NAV_VCDISPLAY
1070
     3
  0
ENDTAB
  0
TABLE
  2
LTYPE
  5
4
330
0
100
AcDbSymbolTable
 70
     3
  0
LTYPE
  5
11
330
4
100
AcDbSymbolTableRecord
100
AcDbLinetypeTableRecord
  2
BYBLOCK
 70
     0
  3

 72
    65
 73
     0
 40
0.0
  0
LTYPE
  5
12
330
4
100
AcDbSymbolTableRecord
100
AcDbLinetypeTableRecord
  2
BYLAYER
 70
     0
  3

 72
    65
 73
     0
 40
0.0
  0
LTYPE
  5
13
330
4
100
AcDbSymbolTableRecord
100
AcDbLinetypeTableRecord
  2
CONTINUOUS
 70
     0
  3
Solid line
 72
    65
 73
     0
 40
0.0
  0
LTYPE
  5
88
330
4
100
AcDbSymbolTableRecord
100
AcDbLinetypeTableRecord
  2
CENTER
 70
     0
  3
Center ____ _ ____ _ ____ _ ____ _ ____ _ ____
 72
    65
 73
     4
 40
50.8
 49
31.75
 74
     0
 49
-6.349999999999998
 74
     0
 49
6.349999999999998
 74
     0
 49
-6.349999999999998
 74
     0
  0
LTYPE
  5
12E
330
4
100
AcDbSymbolTableRecord
100
AcDbLinetypeTableRecord
  2
DASHED
 70
     0
  3
Dashed __ __ __ __ __ __ __ __ __ __ __ __ __ _
 72
    65
 73
     2
 40
19.04999999999999
 49
12.7
 74
     0
 49
-6.349999999999998
 74
     0
  0
ENDTAB
  0
TABLE
  2
LAYER
  5
2
102
{ACAD_XDICTIONARY
360
7F1
102
}
330
0
100
AcDbSymbolTable
 70
     4
  0
LAYER
  5
14
102
{ACAD_XDICTIONARY
360
7F7
102
}
330
2
100
AcDbSymbolTableRecord
100
AcDbLayerTableRecord
  2
0
 70
     0
 62
     7
  6
CONTINUOUS
370
    -3
390
11F
  0
LAYER
  5
1D
102
{ACAD_XDICTIONARY
360
7F9
102
}
330
2
100
AcDbSymbolTableRecord
100
AcDbLayerTableRecord
  2
1
 70
     0
 62
     7
  6
CONTINUOUS
370
    -3
390
11F
  0
LAYER
  5
1E
330
2
100
AcDbSymbolTableRecord
100
AcDbLayerTableRecord
  2
DEFPOINTS
 70
     0
 62
     7
  6
CONTINUOUS
290
     0
370
    -3
390
11F
  0
LAYER
  5
376
102
{ACAD_XDICTIONARY
360
7FB
102
}
330
2
100
AcDbSymbolTableRecord
100
AcDbLayerTableRecord
  2
基板
 70
     0
 62
     7
  6
CONTINUOUS
370
    -3
390
11F
  0
ENDTAB
  0
TABLE
  2
STYLE
  5
3
330
0
100
AcDbSymbolTable
 70
     8
  0
STYLE
  5
17
330
3
100
AcDbSymbolTableRecord
100
AcDbTextStyleTableRecord
  2
MX_NOTE_STANDARD
 70
     0
 40
4.1656
 41
1.0
 50
0.0
 71
     0
 42
4.1656
  3
txt.shx
  4
extfont.shx
  0
STYLE
  5
11D
330
3
100
AcDbSymbolTableRecord
100
AcDbTextStyleTableRecord
  2
Standard
 70
     0
 40
0.0
 41
1.0
 50
0.0
 71
     0
 42
0.2
  3

  4

  0
STYLE
  5
1D5
330
3
100
AcDbSymbolTableRecord
100
AcDbTextStyleTableRecord
  2
傾斜 高さ8
 70
     0
 40
8.0
 41
1.0
 50
7.0
 71
     0
 42
2.299999999999998
  3
txt.shx
  4
bigfont.shx
  0
STYLE
  5
1D6
330
3
100
AcDbSymbolTableRecord
100
AcDbTextStyleTableRecord
  2
傾斜15高さ4
 70
     0
 40
4.0
 41
1.0
 50
15.0
 71
     0
 42
4.1656
  3
txt.shx
  4
bigfont.shx
  0
STYLE
  5
1D7
330
3
100
AcDbSymbolTableRecord
100
AcDbTextStyleTableRecord
  2
幅0.45高さ4
 70
     0
 40
4.0
 41
0.45
 50
0.0
 71
     0
 42
4.0
  3
txt.shx
  4
bigfont.shx
  0
STYLE
  5
1D8
330
3
100
AcDbSymbolTableRecord
100
AcDbTextStyleTableRecord
  2
幅0.4高さ2.3
 70
     0
 40
2.299999999999998
 41
0.4
 50
0.0
 71
     0
 42
2.299999999999998
  3
txt.shx
  4
extfont.shx
  0
STYLE
  5
1D9
330
3
100
AcDbSymbolTableRecord
100
AcDbTextStyleTableRecord
  2
幅0.6高さ2.3
 70
     0
 40
2.299999999999998
 41
0.6
 50
0.0
 71
     0
 42
2.299999999999998
  3
txt.shx
  4
extfont.shx
  0
STYLE
  5
1DA
330
3
100
AcDbSymbolTableRecord
100
AcDbTextStyleTableRecord
  2
幅0.8高さ2.3
 70
     0
 40
2.299999999999998
 41
0.8
 50
0.0
 71
     0
 42
2.299999999999998
  3
txt.shx
  4
extfont.shx
  0
ENDTAB
  0
TABLE
  2
VIEW
  5
5
330
0
100
AcDbSymbolTable
 70
     1
  0
ENDTAB
  0
TABLE
  2
UCS
  5
6
330
0
100
AcDbSymbolTable
 70
     0
  0
ENDTAB
  0
TABLE
  2
APPID
  5
8
330
0
100
AcDbSymbolTable
 70
     3
  0
APPID
  5
16
330
8
100
AcDbSymbolTableRecord
100
AcDbRegAppTableRecord
  2
ACAD
 70
     0
  0
APPID
  5
7F6
330
8
100
AcDbSymbolTableRecord
100
AcDbRegAppTableRecord
  2
ACAD_NAV_VCDISPLAY
 70
     0
  0
APPID
  5
851
330
8
100
AcDbSymbolTableRecord
100
AcDbRegAppTableRecord
  2
ACAD_MLEADERVER
 70
     0
  0
ENDTAB
  0
TABLE
  2
DIMSTYLE
  5
9
330
0
100
AcDbSymbolTable
 70
     7
100
AcDbDimStyleTable
 71
     4
340
1C6
340
5F7
340
1C7
340
18
  0
DIMSTYLE
105
18
330
9
100
AcDbSymbolTableRecord
100
AcDbDimStyleTableRecord
  2
MXDIMSTYLE
 70
     0
 41
2.5
 42
1.0
 43
3.75
 44
1.0
 73
     0
 74
     0
 77
     1
 78
     8
140
4.1656
141
2.5
143
0.0394
147
1.0
171
     4
172
     1
273
     8
274
     4
288
     1
340
17
  0
DIMSTYLE
105
1C4
330
9
100
AcDbSymbolTableRecord
100
AcDbDimStyleTableRecord
  2
Standard
 70
     0
340
11D
  0
DIMSTYLE
105
1C5
330
9
100
AcDbSymbolTableRecord
100
AcDbDimStyleTableRecord
  2
ARTICS
 70
     0
 41
4.0
 42
1.0
 43
0.0
 44
1.0
 73
     0
 77
     1
 78
     8
140
4.1656
141
2.5
143
0.0394
147
1.0
171
     4
172
     1
178
     6
271
     1
272
     1
273
     8
274
     4
288
     1
340
17
341
24
342
24
371
    13
372
    13
  0
DIMSTYLE
105
1C6
102
{ACAD_REACTORS
330
276
330
2A1
330
2CB
330
292
330
2AE
330
2F7
330
306
330
313
330
330
330
6D1
102
}
330
9
100
AcDbSymbolTableRecord
100
AcDbDimStyleTableRecord
  2
ARTICS2
 70
     0
 41
3.0
 42
1.0
 43
0.0
 44
1.0
 73
     0
 77
     1
 78
     8
140
3.0
141
0.0
143
0.0394
147
1.0
171
     4
172
     1
176
   256
178
     6
271
     1
272
     1
273
     8
274
     4
288
     1
340
11D
341
24
342
24
371
    13
372
    13
  0
DIMSTYLE
105
1C7
330
9
100
AcDbSymbolTableRecord
100
AcDbDimStyleTableRecord
  2
ARTICS3
 70
     0
 41
1.5
 42
1.0
 43
0.0
 44
1.0
 73
     0
 77
     1
 78
     8
140
1.5
141
0.0
143
0.0394
147
0.5
171
     4
172
     1
176
   256
178
     6
271
     1
272
     1
273
     8
274
     4
288
     1
340
11D
341
24
342
24
371
    13
372
    13
  0
DIMSTYLE
105
5F7
102
{ACAD_REACTORS
330
5DC
330
634
102
}
330
9
100
AcDbSymbolTableRecord
100
AcDbDimStyleTableRecord
  2
ARTICS4
 70
     0
 41
3.0
 42
1.0
 43
3.75
 44
1.0
 73
     0
 74
     0
 77
     1
 78
     8
140
3.0
141
0.0
143
0.0394
147
1.0
171
     4
172
     1
178
     6
271
     2
272
     2
273
     8
274
     4
288
     1
340
11D
341
24
342
24
  0
DIMSTYLE
105
5F8
330
9
100
AcDbSymbolTableRecord
100
AcDbDimStyleTableRecord
  2
ARTICS5
 70
     0
 41
1.5
 42
1.0
 43
3.75
 44
1.0
 73
     0
 74
     0
 77
     1
 78
     8
140
1.5
141
0.0
143
0.0394
147
0.5
171
     4
172
     1
178
     6
271
     2
272
     2
273
     8
274
     4
288
     1
340
11D
341
24
342
24
  0
ENDTAB
  0
TABLE
  2
BLOCK_RECORD
  5
1
330
0
100
AcDbSymbolTable
 70
    35
  0
BLOCK_RECORD
  5
A
330
1
100
AcDbSymbolTableRecord
100
AcDbBlockTableRecord
  2
*MODEL_SPACE
340
122
  0
BLOCK_RECORD
  5
B
330
1
100
AcDbSymbolTableRecord
100
AcDbBlockTableRecord
  2
*PAPER_SPACE
340
123
  0
BLOCK_RECORD
  5
24
330
1
100
AcDbSymbolTableRecord
100
AcDbBlockTableRecord
  2
_OPEN30
340
0
102
{BLKREFS
331
2A6
331
2A7
331
49E
331
49F
331
4AB
331
4AC
331
4B8
331
4B9
331
4E3
331
4E4
331
4F0
331
4F1
331
595
331
596
331
5AD
331
5AE
331
5C7
331
6B9
331
6CC
331
2F2
331
2F3
331
335
331
336
331
6D6
331
6D7
331
478
331
477
331
2DB
331
2DC
331
2E7
331
2E8
331
2FE
331
2FF
331
30B
331
30C
331
32A
331
32B
331
424
331
425
331
433
331
434
331
43E
331
44E
331
44F
331
45B
331
45C
331
468
331
469
331
484
331
485
331
491
331
492
102
}
  0
BLOCK_RECORD
  5
5F
330
1
100
AcDbSymbolTableRecord
100
AcDbBlockTableRecord
  2
_DOTBLANK
340
0
  0
BLOCK_RECORD
  5
12F
330
1
100
AcDbSymbolTableRecord
100
AcDbBlockTableRecord
  2
A3zuwaku_ban
340
0
  0
BLOCK_RECORD
  5
1F9
330
1
100
AcDbSymbolTableRecord
100
AcDbBlockTableRecord
  2
ネジ留め部
340
0
102
{BLKREFS
331
209
331
20A
331
20B
331
20C
102
}
  0
BLOCK_RECORD
  5
277
330
1
100
AcDbSymbolTableRecord
100
AcDbBlockTableRecord
  2
*D4
340
0
  0
BLOCK_RECORD
  5
293
330
1
100
AcDbSymbolTableRecord
100
AcDbBlockTableRecord
  2
*D5
340
0
  0
BLOCK_RECORD
  5
2A2
330
1
100
AcDbSymbolTableRecord
100
AcDbBlockTableRecord
  2
*D6
340
0
  0
BLOCK_RECORD
  5
2AF
330
1
100
AcDbSymbolTableRecord
100
AcDbBlockTableRecord
  2
*D7
340
0
  0
BLOCK_RECORD
  5
2CC
330
1
100
AcDbSymbolTableRecord
100
AcDbBlockTableRecord
  2
*D8
340
0
  0
BLOCK_RECORD
  5
2F8
330
1
100
AcDbSymbolTableRecord
100
AcDbBlockTableRecord
  2
*D9
340
0
  0
BLOCK_RECORD
  5
307
330
1
100
AcDbSymbolTableRecord
100
AcDbBlockTableRecord
  2
*D10
340
0
  0
BLOCK_RECORD
  5
314
330
1
100
AcDbSymbolTableRecord
100
AcDbBlockTableRecord
  2
*D11
340
0
  0
BLOCK_RECORD
  5
331
330
1
100
AcDbSymbolTableRecord
100
AcDbBlockTableRecord
  2
*D12
340
0
  0
BLOCK_RECORD
  5
3EE
330
1
100
AcDbSymbolTableRecord
100
AcDbBlockTableRecord
  2
*D13
340
0
  0
BLOCK_RECORD
  5
41E
330
1
100
AcDbSymbolTableRecord
100
AcDbBlockTableRecord
  2
*D14
340
0
  0
BLOCK_RECORD
  5
42D
330
1
100
AcDbSymbolTableRecord
100
AcDbBlockTableRecord
  2
*D15
340
0
  0
BLOCK_RECORD
  5
448
330
1
100
AcDbSymbolTableRecord
100
AcDbBlockTableRecord
  2
*D16
340
0
  0
BLOCK_RECORD
  5
457
330
1
100
AcDbSymbolTableRecord
100
AcDbBlockTableRecord
  2
*D17
340
0
  0
BLOCK_RECORD
  5
464
330
1
100
AcDbSymbolTableRecord
100
AcDbBlockTableRecord
  2
*D18
340
0
  0
BLOCK_RECORD
  5
471
330
1
100
AcDbSymbolTableRecord
100
AcDbBlockTableRecord
  2
*D19
340
0
  0
BLOCK_RECORD
  5
480
330
1
100
AcDbSymbolTableRecord
100
AcDbBlockTableRecord
  2
*D20
340
0
  0
BLOCK_RECORD
  5
48D
330
1
100
AcDbSymbolTableRecord
100
AcDbBlockTableRecord
  2
*D21
340
0
  0
BLOCK_RECORD
  5
49A
330
1
100
AcDbSymbolTableRecord
100
AcDbBlockTableRecord
  2
*D22
340
0
  0
BLOCK_RECORD
  5
4A7
330
1
100
AcDbSymbolTableRecord
100
AcDbBlockTableRecord
  2
*D23
340
0
  0
BLOCK_RECORD
  5
4B4
330
1
100
AcDbSymbolTableRecord
100
AcDbBlockTableRecord
  2
*D24
340
0
  0
BLOCK_RECORD
  5
4D0
330
1
100
AcDbSymbolTableRecord
100
AcDbBlockTableRecord
  2
*D25
340
0
  0
BLOCK_RECORD
  5
4DF
330
1
100
AcDbSymbolTableRecord
100
AcDbBlockTableRecord
  2
*D26
340
0
  0
BLOCK_RECORD
  5
4EC
330
1
100
AcDbSymbolTableRecord
100
AcDbBlockTableRecord
  2
*D27
340
0
  0
BLOCK_RECORD
  5
58F
330
1
100
AcDbSymbolTableRecord
100
AcDbBlockTableRecord
  2
*D28
340
0
  0
BLOCK_RECORD
  5
5DD
330
1
100
AcDbSymbolTableRecord
100
AcDbBlockTableRecord
  2
*D29
340
0
  0
BLOCK_RECORD
  5
635
330
1
100
AcDbSymbolTableRecord
100
AcDbBlockTableRecord
  2
*D30
340
0
  0
BLOCK_RECORD
  5
665
330
1
100
AcDbSymbolTableRecord
100
AcDbBlockTableRecord
  2
_None
340
0
  0
BLOCK_RECORD
  5
672
330
1
100
AcDbSymbolTableRecord
100
AcDbBlockTableRecord
  2
_DotSmall
340
0
102
{BLKREFS
331
6CB
102
}
  0
BLOCK_RECORD
  5
6D2
330
1
100
AcDbSymbolTableRecord
100
AcDbBlockTableRecord
  2
*D33
340
0
  0
BLOCK_RECORD
  5
6DF
330
1
100
AcDbSymbolTableRecord
100
AcDbBlockTableRecord
  2
A4zuwaku_ban
340
0
102
{BLKREFS
331
755
102
}
  0
ENDTAB
  0
ENDSEC
  0
SECTION
  2
BLOCKS
  0
BLOCK
  5
D
330
A
100
AcDbEntity
  8
0
100
AcDbBlockBegin
  2
*MODEL_SPACE
 70
     0
 10
0.0
 20
0.0
 30
0.0
  3
*MODEL_SPACE
  1

  0
ENDBLK
  5
E
330
A
100
AcDbEntity
  8
0
100
AcDbBlockEnd
  0
BLOCK
  5
F
330
B
100
AcDbEntity
 67
     1
  8
0
100
AcDbBlockBegin
  2
*PAPER_SPACE
 70
     0
 10
0.0
 20
0.0
 30
0.0
  3
*PAPER_SPACE
  1

  0
ENDBLK
  5
10
330
B
100
AcDbEntity
 67
     1
  8
0
100
AcDbBlockEnd
  0
BLOCK
  5
25
330
24
100
AcDbEntity
  8
0
  6
ByBlock
 62
     0
100
AcDbBlockBegin
  2
_OPEN30
 70
     2
 10
0.0
 20
0.0
 30
0.0
  3
_OPEN30
  1

  0
LINE
  5
26
330
24
100
AcDbEntity
  8
0
  6
ByBlock
 62
     0
100
AcDbLine
 10
-1.0
 20
0.267949
 30
0.0
 11
0.0
 21
0.0
 31
0.0
  0
LINE
  5
27
330
24
100
AcDbEntity
  8
0
  6
ByBlock
 62
     0
100
AcDbLine
 10
0.0
 20
0.0
 30
0.0
 11
-1.0
 21
-0.267949
 31
0.0
  0
LINE
  5
28
330
24
100
AcDbEntity
  8
0
  6
ByBlock
 62
     0
100
AcDbLine
 10
0.0
 20
0.0
 30
0.0
 11
-1.0
 21
0.0
 31
0.0
  0
ENDBLK
  5
29
330
24
100
AcDbEntity
  8
0
  6
ByBlock
 62
     0
100
AcDbBlockEnd
  0
BLOCK
  5
60
330
5F
100
AcDbEntity
  8
0
  6
ByBlock
 62
     0
100
AcDbBlockBegin
  2
_DOTBLANK
 70
     2
 10
0.0
 20
0.0
 30
0.0
  3
_DOTBLANK
  1

  0
CIRCLE
  5
61
330
5F
100
AcDbEntity
  8
0
  6
ByBlock
 62
     0
100
AcDbCircle
 10
0.0
 20
0.0
 30
0.0
 40
0.5
  0
LINE
  5
62
330
5F
100
AcDbEntity
  8
0
  6
ByBlock
 62
     0
100
AcDbLine
 10
-0.5
 20
0.0
 30
0.0
 11
-1.0
 21
0.0
 31
0.0
  0
ENDBLK
  5
63
330
5F
100
AcDbEntity
  8
0
  6
ByBlock
 62
     0
100
AcDbBlockEnd
  0
BLOCK
  5
1C0
330
12F
100
AcDbEntity
  8
0
100
AcDbBlockBegin
  2
A3zuwaku_ban
 70
     0
 10
0.0
 20
0.0
 30
0.0
  3
A3zuwaku_ban
  1

  0
LINE
  5
130
330
12F
100
AcDbEntity
  8
1
  6
Continuous
 62
    20
100
AcDbLine
 10
403.3259999999999
 20
-0.0000000000000011
 30
0.0
 11
403.3259999999999
 21
278.0505
 31
0.0
  0
LINE
  5
131
330
12F
100
AcDbEntity
  8
1
  6
Continuous
 62
    20
100
AcDbLine
 10
-0.0000000000000009
 20
278.0505
 30
0.0
 11
403.3259999999999
 21
278.0505
 31
0.0
  0
LINE
  5
132
330
12F
100
AcDbEntity
  8
1
  6
Continuous
 62
    20
100
AcDbLine
 10
230.1809999999999
 20
-0.0000000000000011
 30
0.0
 11
230.1809999999999
 21
35.6475
 31
0.0
  0
LINE
  5
133
330
12F
100
AcDbEntity
  8
1
  6
Continuous
 62
    20
100
AcDbLine
 10
311.661
 20
-0.0000000000000011
 30
0.0
 11
311.661
 21
35.6475
 31
0.0
  0
LINE
  5
134
330
12F
100
AcDbEntity
  8
1
  6
Continuous
 62
    20
100
AcDbLine
 10
311.661
 20
25.4625
 30
0.0
 11
403.3259999999999
 21
25.4625
 31
0.0
  0
LINE
  5
135
330
12F
100
AcDbEntity
  8
1
  6
Continuous
 62
    20
100
AcDbLine
 10
230.1809999999999
 20
30.555
 30
0.0
 11
311.661
 21
30.555
 31
0.0
  0
LINE
  5
136
330
12F
100
AcDbEntity
  8
1
  6
Continuous
 62
    20
100
AcDbLine
 10
230.1809999999999
 20
15.2775
 30
0.0
 11
311.661
 21
15.2775
 31
0.0
  0
LINE
  5
137
330
12F
100
AcDbEntity
  8
1
  6
Continuous
 62
    20
100
AcDbLine
 10
250.551
 20
15.2775
 30
0.0
 11
250.551
 21
35.6475
 31
0.0
  0
LINE
  5
138
330
12F
100
AcDbEntity
  8
1
  6
Continuous
 62
    20
100
AcDbLine
 10
270.921
 20
15.2775
 30
0.0
 11
270.921
 21
35.6475
 31
0.0
  0
LINE
  5
139
330
12F
100
AcDbEntity
  8
1
  6
Continuous
 62
    20
100
AcDbLine
 10
291.291
 20
15.2775
 30
0.0
 11
291.291
 21
35.6475
 31
0.0
  0
LINE
  5
13A
330
12F
100
AcDbEntity
  8
1
  6
Continuous
 62
    20
100
AcDbLine
 10
230.1809999999999
 20
20.37
 30
0.0
 11
291.291
 21
20.37
 31
0.0
  0
LINE
  5
13B
330
12F
100
AcDbEntity
  8
1
  6
Continuous
 62
    20
100
AcDbLine
 10
357.4935
 20
25.4625
 30
0.0
 11
357.4935
 21
35.6475
 31
0.0
  0
LINE
  5
13C
330
12F
100
AcDbEntity
  8
1
  6
Continuous
 62
    20
100
AcDbLine
 10
311.661
 20
10.18499999999999
 30
0.0
 11
403.3259999999999
 21
10.18499999999999
 31
0.0
  0
LINE
  5
13D
330
12F
100
AcDbEntity
  8
1
  6
Continuous
 62
    20
100
AcDbLine
 10
326.9385
 20
-0.0000000000000011
 30
0.0
 11
326.9385
 21
10.18499999999999
 31
0.0
  0
LINE
  5
13E
330
12F
100
AcDbEntity
  8
1
  6
Continuous
 62
    20
100
AcDbLine
 10
112.0349999999999
 20
-0.0000000000000011
 30
0.0
 11
112.0349999999999
 21
35.6475
 31
0.0
  0
LINE
  5
13F
330
12F
100
AcDbEntity
  8
1
  6
Continuous
 62
    20
100
AcDbLine
 10
0.2581351789582262
 20
5.0925
 30
0.0
 11
230.1809999999999
 21
5.0925
 31
0.0
  0
LINE
  5
140
330
12F
100
AcDbEntity
  8
1
  6
Continuous
 62
    20
100
AcDbLine
 10
0.2581351789582262
 20
10.18499999999999
 30
0.0
 11
230.1809999999999
 21
10.18499999999999
 31
0.0
  0
LINE
  5
141
330
12F
100
AcDbEntity
  8
1
  6
Continuous
 62
    20
100
AcDbLine
 10
0.2581351789582262
 20
15.2775
 30
0.0
 11
230.1809999999999
 21
15.2775
 31
0.0
  0
LINE
  5
142
330
12F
100
AcDbEntity
  8
1
  6
Continuous
 62
    20
100
AcDbLine
 10
0.2581351789582262
 20
20.37
 30
0.0
 11
230.1809999999999
 21
20.37
 31
0.0
  0
LINE
  5
143
330
12F
100
AcDbEntity
  8
1
  6
Continuous
 62
    20
100
AcDbLine
 10
0.2581351789582262
 20
25.4625
 30
0.0
 11
230.1809999999999
 21
25.4625
 31
0.0
  0
LINE
  5
144
330
12F
100
AcDbEntity
  8
1
  6
Continuous
 62
    20
100
AcDbLine
 10
0.2581351789582262
 20
30.555
 30
0.0
 11
230.1809999999999
 21
30.555
 31
0.0
  0
LINE
  5
145
330
12F
100
AcDbEntity
  8
1
  6
Continuous
 62
    20
100
AcDbLine
 10
127.3125
 20
-0.0000000000000011
 30
0.0
 11
127.3125
 21
35.6475
 31
0.0
  0
LINE
  5
146
330
12F
100
AcDbEntity
  8
1
  6
Continuous
 62
    20
100
AcDbLine
 10
181.2929999999999
 20
-0.0000000000000011
 30
0.0
 11
181.2929999999999
 21
35.6475
 31
0.0
  0
LINE
  5
147
330
12F
100
AcDbEntity
  8
1
  6
Continuous
 62
    20
100
AcDbLine
 10
205.737
 20
-0.0000000000000011
 30
0.0
 11
205.737
 21
35.6475
 31
0.0
  0
MTEXT
  5
148
330
12F
100
AcDbEntity
  8
1
  6
Continuous
 62
    20
100
AcDbMText
 10
1.220162999999978
 20
273.7320599999999
 30
0.0
 40
3.56475
 41
0.0
 71
     7
 72
     1
  1
\T0.782;\W0.700;\A1;Ｄｉｍｅｎｓｉｏｎｓ　ｉｎ　ｍｍ（ｎｏｔ　ｔｏ　ｓｃａｌｅ）
 73
     1
 44
1.0
1001
ACAD
1000
MTEXTBEGIN
1070
    73
1070
     1
1070
    44
1040
1.0
1070
    74
1070
     0
1000
MTEXTEND
  0
LINE
  5
149
330
12F
100
AcDbEntity
  8
1
  6
Continuous
 62
    20
100
AcDbLine
 10
71.295
 20
272.9579999999999
 30
0.0
 11
71.295
 21
278.0505
 31
0.0
  0
LINE
  5
14A
330
12F
100
AcDbEntity
  8
1
  6
Continuous
 62
    20
100
AcDbLine
 10
-0.0000000000000009
 20
272.9579999999999
 30
0.0
 11
71.295
 21
272.9579999999999
 31
0.0
  0
LINE
  5
14B
330
12F
100
AcDbEntity
  8
1
  6
Continuous
 62
    20
100
AcDbLine
 10
0.2581351789582262
 20
35.6475
 30
0.0
 11
403.3259999999999
 21
35.6475
 31
0.0
  0
MTEXT
  5
14C
330
12F
100
AcDbEntity
  8
1
  6
Continuous
 62
    20
100
AcDbMText
 10
114.9472734375
 20
3.819374999999998
 30
0.0
 40
2.54625
 41
0.0
 71
     1
 72
     1
  1
\T0.815;\W0.959;\A1;ＭＡＲＫ
 73
     1
 44
1.0
1001
ACAD
1000
MTEXTBEGIN
1070
    73
1070
     1
1070
    44
1040
1.0
1070
    74
1070
     0
1000
MTEXTEND
  0
MTEXT
  5
14D
330
12F
100
AcDbEntity
  8
1
  6
Continuous
 62
    20
100
AcDbMText
 10
143.6085
 20
3.819374999999998
 30
0.0
 40
2.54625
 41
0.0
 71
     1
 72
     1
  1
\T0.815;\W0.959;\A1;ＲＥＶＩＳＩＯＮＳ
 73
     1
 44
1.0
1001
ACAD
1000
MTEXTBEGIN
1070
    73
1070
     1
1070
    44
1040
1.0
1070
    74
1070
     0
1000
MTEXTEND
  0
MTEXT
  5
14E
330
12F
100
AcDbEntity
  8
1
  6
Continuous
 62
    20
100
AcDbMText
 10
188.7885234374999
 20
3.819374999999998
 30
0.0
 40
2.54625
 41
0.0
 71
     1
 72
     1
  1
\T0.815;\W0.959;\A1;ＤＡＴＥ
 73
     1
 44
1.0
1001
ACAD
1000
MTEXTBEGIN
1070
    73
1070
     1
1070
    44
1040
1.0
1070
    74
1070
     0
1000
MTEXTEND
  0
MTEXT
  5
14F
330
12F
100
AcDbEntity
  8
1
  6
Continuous
 62
    20
100
AcDbMText
 10
213.2325234375
 20
3.819374999999998
 30
0.0
 40
2.54625
 41
0.0
 71
     1
 72
     1
  1
\T0.815;\W0.959;\A1;ＣＨ\U+2019Ｄ
 73
     1
 44
1.0
1001
ACAD
1000
MTEXTBEGIN
1070
    73
1070
     1
1070
    44
1040
1.0
1070
    74
1070
     0
1000
MTEXTEND
  0
MTEXT
  5
150
330
12F
100
AcDbEntity
  8
1
  6
Continuous
 62
    20
100
AcDbMText
 10
315.484194375
 20
4.226775000000004
 30
0.0
 40
2.74995
 41
0.0
 71
     1
 72
     1
  1
\T0.815;\W0.959;\A1;ＮＯ．
 73
     1
 44
1.0
1001
ACAD
1000
MTEXTBEGIN
1070
    73
1070
     1
1070
    44
1040
1.0
1070
    74
1070
     0
1000
MTEXTEND
  0
MTEXT
  5
151
330
12F
100
AcDbEntity
  8
1
  6
Continuous
 62
    20
100
AcDbMText
 10
312.74061
 20
24.54584999999999
 30
0.0
 40
3.259199999999999
 41
0.0
 71
     1
 72
     1
  1
\T0.815;\W0.959;\A1;ＴＩＴＬＥ
 73
     1
 44
1.0
1001
ACAD
1000
MTEXTBEGIN
1070
    73
1070
     1
1070
    44
1040
1.0
1070
    74
1070
     0
1000
MTEXTEND
  0
MTEXT
  5
152
330
12F
100
AcDbEntity
  8
1
  6
Continuous
 62
    20
100
AcDbMText
 10
358.8939375
 20
34.78177500000001
 30
0.0
 40
2.54625
 41
0.0
 71
     1
 72
     1
  1
\T0.815;\W0.959;\A1;ＴＲＥＡＴＭＥＮＴ
 73
     1
 44
1.0
1001
ACAD
1000
MTEXTBEGIN
1070
    73
1070
     1
1070
    44
1040
1.0
1070
    74
1070
     0
1000
MTEXTEND
  0
MTEXT
  5
153
330
12F
100
AcDbEntity
  8
1
  6
Continuous
 62
    20
100
AcDbMText
 10
313.0614375
 20
34.78177500000001
 30
0.0
 40
2.54625
 41
0.0
 71
     1
 72
     1
  1
\T0.815;\W0.959;\A1;ＭＡＴＥＲＩＡＬ
 73
     1
 44
1.0
1001
ACAD
1000
MTEXTBEGIN
1070
    73
1070
     1
1070
    44
1040
1.0
1070
    74
1070
     0
1000
MTEXTEND
  0
MTEXT
  5
154
330
12F
100
AcDbEntity
  8
1
  6
Continuous
 62
    20
100
AcDbMText
 10
312.90611625
 20
8.504474999999994
 30
0.0
 40
2.74995
 41
0.0
 71
     1
 72
     1
  1
\T0.815;\W0.959;\A1;ＤＲＡＷ．
 73
     1
 44
1.0
1001
ACAD
1000
MTEXTBEGIN
1070
    73
1070
     1
1070
    44
1040
1.0
1070
    74
1070
     0
1000
MTEXTEND
  0
MTEXT
  5
155
330
12F
100
AcDbEntity
  8
1
  6
Continuous
 62
    20
100
AcDbMText
 10
295.0823662499999
 20
34.476225
 30
0.0
 40
2.74995
 41
0.0
 71
     1
 72
     1
  1
\T0.815;\W0.959;\A1;ＳＣＡＬＥ
 73
     1
 44
1.0
1001
ACAD
1000
MTEXTBEGIN
1070
    73
1070
     1
1070
    44
1040
1.0
1070
    74
1070
     0
1000
MTEXTEND
  0
MTEXT
  5
156
330
12F
100
AcDbEntity
  8
1
  6
Continuous
 62
    20
100
AcDbMText
 10
274.7123662499999
 20
34.476225
 30
0.0
 40
2.74995
 41
0.0
 71
     1
 72
     1
  1
\T0.815;\W0.959;\A1;ＡＰＰ\U+2019Ｄ
 73
     1
 44
1.0
1001
ACAD
1000
MTEXTBEGIN
1070
    73
1070
     1
1070
    44
1040
1.0
1070
    74
1070
     0
1000
MTEXTEND
  0
MTEXT
  5
157
330
12F
100
AcDbEntity
  8
1
  6
Continuous
 62
    20
100
AcDbMText
 10
255.6314053124999
 20
34.476225
 30
0.0
 40
2.74995
 41
0.0
 71
     1
 72
     1
  1
\T0.815;\W0.959;\A1;ＣＨ\U+2019Ｄ
 73
     1
 44
1.0
1001
ACAD
1000
MTEXTBEGIN
1070
    73
1070
     1
1070
    44
1040
1.0
1070
    74
1070
     0
1000
MTEXTEND
  0
MTEXT
  5
158
330
12F
100
AcDbEntity
  8
1
  6
Continuous
 62
    20
100
AcDbMText
 10
233.9723662499999
 20
34.476225
 30
0.0
 40
2.74995
 41
0.0
 71
     1
 72
     1
  1
\T0.815;\W0.959;\A1;ＤＥＳ\U+2019Ｄ
 73
     1
 44
1.0
1001
ACAD
1000
MTEXTBEGIN
1070
    73
1070
     1
1070
    44
1040
1.0
1070
    74
1070
     0
1000
MTEXTEND
  0
MTEXT
  5
159
330
12F
100
AcDbEntity
  8
1
  6
Continuous
 62
    20
100
AcDbMText
 10
119.215425
 20
8.147999999999999
 30
0.0
 40
2.036999999999999
 41
0.0
 71
     1
 72
     1
  1
\T1.043;\W1.226;\A1;1
 73
     1
 44
1.0
1001
ACAD
1000
MTEXTBEGIN
1070
    73
1070
     1
1070
    44
1040
1.0
1070
    74
1070
     0
1000
MTEXTEND
  0
MTEXT
  5
15A
330
12F
100
AcDbEntity
  8
1
  6
Continuous
 62
    20
100
AcDbMText
 10
118.909875
 20
13.24049999999999
 30
0.0
 40
2.036999999999999
 41
0.0
 71
     1
 72
     1
  1
\T0.851;\A1;2
 73
     1
 44
1.0
1001
ACAD
1000
MTEXTBEGIN
1070
    73
1070
     1
1070
    44
1040
1.0
1070
    74
1070
     0
1000
MTEXTEND
  0
MTEXT
  5
15B
330
12F
100
AcDbEntity
  8
1
  6
Continuous
 62
    20
100
AcDbMText
 10
118.909875
 20
18.333
 30
0.0
 40
2.036999999999999
 41
0.0
 71
     1
 72
     1
  1
\T0.851;\A1;3
 73
     1
 44
1.0
1001
ACAD
1000
MTEXTBEGIN
1070
    73
1070
     1
1070
    44
1040
1.0
1070
    74
1070
     0
1000
MTEXTEND
  0
MTEXT
  5
15C
330
12F
100
AcDbEntity
  8
1
  6
Continuous
 62
    20
100
AcDbMText
 10
118.909875
 20
23.4255
 30
0.0
 40
2.036999999999999
 41
0.0
 71
     1
 72
     1
  1
\T0.851;\A1;4
 73
     1
 44
1.0
1001
ACAD
1000
MTEXTBEGIN
1070
    73
1070
     1
1070
    44
1040
1.0
1070
    74
1070
     0
1000
MTEXTEND
  0
MTEXT
  5
15D
330
12F
100
AcDbEntity
  8
1
  6
Continuous
 62
    20
100
AcDbMText
 10
118.909875
 20
28.518
 30
0.0
 40
2.036999999999999
 41
0.0
 71
     1
 72
     1
  1
\T0.851;\A1;5
 73
     1
 44
1.0
1001
ACAD
1000
MTEXTBEGIN
1070
    73
1070
     1
1070
    44
1040
1.0
1070
    74
1070
     0
1000
MTEXTEND
  0
MTEXT
  5
15E
330
12F
100
AcDbEntity
  8
1
  6
Continuous
 62
    20
100
AcDbMText
 10
118.909875
 20
33.6105
 30
0.0
 40
2.036999999999999
 41
0.0
 71
     1
 72
     1
  1
\T0.851;\A1;6
 73
     1
 44
1.0
1001
ACAD
1000
MTEXTBEGIN
1070
    73
1070
     1
1070
    44
1040
1.0
1070
    74
1070
     0
1000
MTEXTEND
  0
MTEXT
  5
15F
330
12F
100
AcDbEntity
  8
1
  6
Continuous
 62
    20
100
AcDbMText
 10
174.9782999999999
 20
282.22635
 30
0.0
 40
3.259199999999999
 41
0.0
 71
     1
 72
     1
  1
\T0.851;\A1;4
 73
     1
 44
1.0
1001
ACAD
1000
MTEXTBEGIN
1070
    73
1070
     1
1070
    44
1040
1.0
1070
    74
1070
     0
1000
MTEXTEND
  0
MTEXT
  5
160
330
12F
100
AcDbEntity
  8
1
  6
Continuous
 62
    20
100
AcDbMText
 10
124.0533
 20
282.22635
 30
0.0
 40
3.259199999999999
 41
0.0
 71
     1
 72
     1
  1
\T0.851;\A1;3
 73
     1
 44
1.0
1001
ACAD
1000
MTEXTBEGIN
1070
    73
1070
     1
1070
    44
1040
1.0
1070
    74
1070
     0
1000
MTEXTEND
  0
MTEXT
  5
161
330
12F
100
AcDbEntity
  8
1
  6
Continuous
 62
    20
100
AcDbMText
 10
73.12830000000002
 20
282.22635
 30
0.0
 40
3.259199999999999
 41
0.0
 71
     1
 72
     1
  1
\T0.851;\A1;2
 73
     1
 44
1.0
1001
ACAD
1000
MTEXTBEGIN
1070
    73
1070
     1
1070
    44
1040
1.0
1070
    74
1070
     0
1000
MTEXTEND
  0
LINE
  5
162
330
12F
100
AcDbEntity
  8
1
  6
Continuous
 62
    20
100
AcDbLine
 10
48.88799999999999
 20
278.0505
 30
0.0
 11
48.88799999999999
 21
280.5967499999999
 31
0.0
  0
LINE
  5
163
330
12F
100
AcDbEntity
  8
1
  6
Continuous
 62
    20
100
AcDbLine
 10
99.81299999999999
 20
278.0505
 30
0.0
 11
99.81299999999999
 21
280.5967499999999
 31
0.0
  0
LINE
  5
164
330
12F
100
AcDbEntity
  8
1
  6
Continuous
 62
    20
100
AcDbLine
 10
150.7379999999999
 20
278.0505
 30
0.0
 11
150.7379999999999
 21
280.5967499999999
 31
0.0
  0
MTEXT
  5
165
330
12F
100
AcDbEntity
  8
1
  6
Continuous
 62
    20
100
AcDbMText
 10
225.9033
 20
282.22635
 30
0.0
 40
3.259199999999999
 41
0.0
 71
     1
 72
     1
  1
\T0.851;\A1;5
 73
     1
 44
1.0
1001
ACAD
1000
MTEXTBEGIN
1070
    73
1070
     1
1070
    44
1040
1.0
1070
    74
1070
     0
1000
MTEXTEND
  0
MTEXT
  5
166
330
12F
100
AcDbEntity
  8
1
  6
Continuous
 62
    20
100
AcDbMText
 10
276.8283
 20
282.22635
 30
0.0
 40
3.259199999999999
 41
0.0
 71
     1
 72
     1
  1
\T0.851;\A1;6
 73
     1
 44
1.0
1001
ACAD
1000
MTEXTBEGIN
1070
    73
1070
     1
1070
    44
1040
1.0
1070
    74
1070
     0
1000
MTEXTEND
  0
MTEXT
  5
167
330
12F
100
AcDbEntity
  8
1
  6
Continuous
 62
    20
100
AcDbMText
 10
327.7533
 20
282.22635
 30
0.0
 40
3.259199999999999
 41
0.0
 71
     1
 72
     1
  1
\T0.851;\A1;7
 73
     1
 44
1.0
1001
ACAD
1000
MTEXTBEGIN
1070
    73
1070
     1
1070
    44
1040
1.0
1070
    74
1070
     0
1000
MTEXTEND
  0
MTEXT
  5
168
330
12F
100
AcDbEntity
  8
1
  6
Continuous
 62
    20
100
AcDbMText
 10
377.6598
 20
282.22635
 30
0.0
 40
3.259199999999999
 41
0.0
 71
     1
 72
     1
  1
\T0.851;\A1;8
 73
     1
 44
1.0
1001
ACAD
1000
MTEXTBEGIN
1070
    73
1070
     1
1070
    44
1040
1.0
1070
    74
1070
     0
1000
MTEXTEND
  0
MTEXT
  5
169
330
12F
100
AcDbEntity
  8
1
  6
Continuous
 62
    20
100
AcDbMText
 10
404.65005
 20
115.1923499999999
 30
0.0
 40
3.259199999999999
 41
0.0
 71
     1
 72
     1
  1
\T0.851;\A1;D
 73
     1
 44
1.0
1001
ACAD
1000
MTEXTBEGIN
1070
    73
1070
     1
1070
    44
1040
1.0
1070
    74
1070
     0
1000
MTEXTEND
  0
MTEXT
  5
16A
330
12F
100
AcDbEntity
  8
1
  6
Continuous
 62
    20
100
AcDbMText
 10
404.65005
 20
64.26734999999998
 30
0.0
 40
3.259199999999999
 41
0.0
 71
     1
 72
     1
  1
\T0.851;\A1;E
 73
     1
 44
1.0
1001
ACAD
1000
MTEXTBEGIN
1070
    73
1070
     1
1070
    44
1040
1.0
1070
    74
1070
     0
1000
MTEXTEND
  0
LINE
  5
16B
330
12F
100
AcDbEntity
  8
1
  6
Continuous
 62
    20
100
AcDbLine
 10
403.3259999999999
 20
37.17525
 30
0.0
 11
405.87225
 21
37.17525
 31
0.0
  0
LINE
  5
16C
330
12F
100
AcDbEntity
  8
1
  6
Continuous
 62
    20
100
AcDbLine
 10
403.3259999999999
 20
88.10024999999997
 30
0.0
 11
405.87225
 21
88.10024999999997
 31
0.0
  0
MTEXT
  5
16D
330
12F
100
AcDbEntity
  8
1
  6
Continuous
 62
    20
100
AcDbMText
 10
404.65005
 20
166.1173499999999
 30
0.0
 40
3.259199999999999
 41
0.0
 71
     1
 72
     1
  1
\T0.851;\A1;C
 73
     1
 44
1.0
1001
ACAD
1000
MTEXTBEGIN
1070
    73
1070
     1
1070
    44
1040
1.0
1070
    74
1070
     0
1000
MTEXTEND
  0
MTEXT
  5
16E
330
12F
100
AcDbEntity
  8
1
  6
Continuous
 62
    20
100
AcDbMText
 10
404.65005
 20
217.04235
 30
0.0
 40
3.259199999999999
 41
0.0
 71
     1
 72
     1
  1
\T0.851;\A1;B
 73
     1
 44
1.0
1001
ACAD
1000
MTEXTBEGIN
1070
    73
1070
     1
1070
    44
1040
1.0
1070
    74
1070
     0
1000
MTEXTEND
  0
MTEXT
  5
16F
330
12F
100
AcDbEntity
  8
1
  6
Continuous
 62
    20
100
AcDbMText
 10
404.65005
 20
261.092475
 30
0.0
 40
3.259199999999999
 41
0.0
 71
     1
 72
     1
  1
\T0.851;\A1;A
 73
     1
 44
1.0
1001
ACAD
1000
MTEXTBEGIN
1070
    73
1070
     1
1070
    44
1040
1.0
1070
    74
1070
     0
1000
MTEXTEND
  0
LINE
  5
170
330
12F
100
AcDbEntity
  8
1
  6
Continuous
 62
    20
100
AcDbLine
 10
403.3259999999999
 20
240.8752499999999
 30
0.0
 11
405.87225
 21
240.8752499999999
 31
0.0
  0
LINE
  5
171
330
12F
100
AcDbEntity
  8
1
  6
Continuous
 62
    20
100
AcDbLine
 10
403.3259999999999
 20
189.95025
 30
0.0
 11
405.87225
 21
189.95025
 31
0.0
  0
LINE
  5
172
330
12F
100
AcDbEntity
  8
1
  6
Continuous
 62
    20
100
AcDbLine
 10
354.4379999999999
 20
278.0505
 30
0.0
 11
354.4379999999999
 21
280.5967499999999
 31
0.0
  0
LINE
  5
173
330
12F
100
AcDbEntity
  8
1
  6
Continuous
 62
    20
100
AcDbLine
 10
303.5129999999999
 20
278.0505
 30
0.0
 11
303.5129999999999
 21
280.5967499999999
 31
0.0
  0
LINE
  5
174
330
12F
100
AcDbEntity
  8
1
  6
Continuous
 62
    20
100
AcDbLine
 10
252.5879999999999
 20
278.0505
 30
0.0
 11
252.5879999999999
 21
280.5967499999999
 31
0.0
  0
LINE
  5
175
330
12F
100
AcDbEntity
  8
1
  6
Continuous
 62
    20
100
AcDbLine
 10
403.3259999999999
 20
139.02525
 30
0.0
 11
407.3999999999999
 21
139.02525
 31
0.0
  0
LINE
  5
176
330
12F
100
AcDbEntity
  8
1
  6
Continuous
 62
    20
100
AcDbLine
 10
201.663
 20
278.0505
 30
0.0
 11
201.663
 21
282.1244999999999
 31
0.0
  0
MTEXT
  5
177
330
12F
100
AcDbEntity
  8
1
  6
Continuous
 62
    20
100
AcDbMText
 10
404.65005
 20
20.21722499999999
 30
0.0
 40
3.259199999999999
 41
0.0
 71
     1
 72
     1
  1
\T0.851;\A1;F
 73
     1
 44
1.0
1001
ACAD
1000
MTEXTBEGIN
1070
    73
1070
     1
1070
    44
1040
1.0
1070
    74
1070
     0
1000
MTEXTEND
  0
MTEXT
  5
178
330
12F
100
AcDbEntity
  8
1
  6
Continuous
 62
    20
100
AcDbMText
 10
23.71068
 20
282.22635
 30
0.0
 40
3.259199999999999
 41
0.0
 71
     1
 72
     1
  1
\T1.043;\W1.226;\A1;1
 73
     1
 44
1.0
1001
ACAD
1000
MTEXTBEGIN
1070
    73
1070
     1
1070
    44
1040
1.0
1070
    74
1070
     0
1000
MTEXTEND
  0
MTEXT
  5
179
330
12F
100
AcDbEntity
  8
1
  6
Continuous
 62
    20
100
AcDbMText
 10
174.9782999999999
 20
-0.9166500000000059
 30
0.0
 40
3.259199999999999
 41
0.0
 71
     1
 72
     1
  1
\T0.851;\A1;4
 73
     1
 44
1.0
1001
ACAD
1000
MTEXTBEGIN
1070
    73
1070
     1
1070
    44
1040
1.0
1070
    74
1070
     0
1000
MTEXTEND
  0
MTEXT
  5
17A
330
12F
100
AcDbEntity
  8
1
  6
Continuous
 62
    20
100
AcDbMText
 10
124.0533
 20
-0.9166500000000059
 30
0.0
 40
3.259199999999999
 41
0.0
 71
     1
 72
     1
  1
\T0.851;\A1;3
 73
     1
 44
1.0
1001
ACAD
1000
MTEXTBEGIN
1070
    73
1070
     1
1070
    44
1040
1.0
1070
    74
1070
     0
1000
MTEXTEND
  0
MTEXT
  5
17B
330
12F
100
AcDbEntity
  8
1
  6
Continuous
 62
    20
100
AcDbMText
 10
73.12830000000002
 20
-0.9166500000000059
 30
0.0
 40
3.259199999999999
 41
0.0
 71
     1
 72
     1
  1
\T0.851;\A1;2
 73
     1
 44
1.0
1001
ACAD
1000
MTEXTBEGIN
1070
    73
1070
     1
1070
    44
1040
1.0
1070
    74
1070
     0
1000
MTEXTEND
  0
LINE
  5
17C
330
12F
100
AcDbEntity
  8
1
  6
Continuous
 62
    20
100
AcDbLine
 10
48.88799999999999
 20
-0.0000000000000011
 30
0.0
 11
48.88799999999999
 21
-2.546249999999999
 31
0.0
  0
LINE
  5
17D
330
12F
100
AcDbEntity
  8
1
  6
Continuous
 62
    20
100
AcDbLine
 10
99.81299999999999
 20
-0.0000000000000011
 30
0.0
 11
99.81299999999999
 21
-2.546249999999999
 31
0.0
  0
LINE
  5
17E
330
12F
100
AcDbEntity
  8
1
  6
Continuous
 62
    20
100
AcDbLine
 10
150.7379999999999
 20
-0.0000000000000011
 30
0.0
 11
150.7379999999999
 21
-2.546249999999999
 31
0.0
  0
MTEXT
  5
17F
330
12F
100
AcDbEntity
  8
1
  6
Continuous
 62
    20
100
AcDbMText
 10
225.9033
 20
-0.9166500000000059
 30
0.0
 40
3.259199999999999
 41
0.0
 71
     1
 72
     1
  1
\T0.851;\A1;5
 73
     1
 44
1.0
1001
ACAD
1000
MTEXTBEGIN
1070
    73
1070
     1
1070
    44
1040
1.0
1070
    74
1070
     0
1000
MTEXTEND
  0
MTEXT
  5
180
330
12F
100
AcDbEntity
  8
1
  6
Continuous
 62
    20
100
AcDbMText
 10
276.8283
 20
-0.9166500000000059
 30
0.0
 40
3.259199999999999
 41
0.0
 71
     1
 72
     1
  1
\T0.851;\A1;6
 73
     1
 44
1.0
1001
ACAD
1000
MTEXTBEGIN
1070
    73
1070
     1
1070
    44
1040
1.0
1070
    74
1070
     0
1000
MTEXTEND
  0
MTEXT
  5
181
330
12F
100
AcDbEntity
  8
1
  6
Continuous
 62
    20
100
AcDbMText
 10
327.7533
 20
-0.9166500000000059
 30
0.0
 40
3.259199999999999
 41
0.0
 71
     1
 72
     1
  1
\T0.851;\A1;7
 73
     1
 44
1.0
1001
ACAD
1000
MTEXTBEGIN
1070
    73
1070
     1
1070
    44
1040
1.0
1070
    74
1070
     0
1000
MTEXTEND
  0
MTEXT
  5
182
330
12F
100
AcDbEntity
  8
1
  6
Continuous
 62
    20
100
AcDbMText
 10
377.6598
 20
-0.9166500000000059
 30
0.0
 40
3.259199999999999
 41
0.0
 71
     1
 72
     1
  1
\T0.851;\A1;8
 73
     1
 44
1.0
1001
ACAD
1000
MTEXTBEGIN
1070
    73
1070
     1
1070
    44
1040
1.0
1070
    74
1070
     0
1000
MTEXTEND
  0
LINE
  5
183
330
12F
100
AcDbEntity
  8
1
  6
Continuous
 62
    20
100
AcDbLine
 10
354.4379999999999
 20
-0.0000000000000011
 30
0.0
 11
354.4379999999999
 21
-2.546249999999999
 31
0.0
  0
LINE
  5
184
330
12F
100
AcDbEntity
  8
1
  6
Continuous
 62
    20
100
AcDbLine
 10
303.5129999999999
 20
-0.0000000000000011
 30
0.0
 11
303.5129999999999
 21
-2.546249999999999
 31
0.0
  0
LINE
  5
185
330
12F
100
AcDbEntity
  8
1
  6
Continuous
 62
    20
100
AcDbLine
 10
252.5879999999999
 20
-0.0000000000000011
 30
0.0
 11
252.5879999999999
 21
-2.546249999999999
 31
0.0
  0
LINE
  5
186
330
12F
100
AcDbEntity
  8
1
  6
Continuous
 62
    20
100
AcDbLine
 10
201.663
 20
-0.0000000000000011
 30
0.0
 11
201.663
 21
-4.073999999999999
 31
0.0
  0
MTEXT
  5
187
330
12F
100
AcDbEntity
  8
1
  6
Continuous
 62
    20
100
AcDbMText
 10
23.71068
 20
-0.9166500000000059
 30
0.0
 40
3.259199999999999
 41
0.0
 71
     1
 72
     1
  1
\T1.043;\W1.226;\A1;1
 73
     1
 44
1.0
1001
ACAD
1000
MTEXTBEGIN
1070
    73
1070
     1
1070
    44
1040
1.0
1070
    74
1070
     0
1000
MTEXTEND
  0
MTEXT
  5
188
330
12F
100
AcDbEntity
  8
1
  6
Continuous
 62
    20
100
AcDbMText
 10
-3.768449999999988
 20
115.1923499999999
 30
0.0
 40
3.259199999999999
 41
0.0
 71
     1
 72
     1
  1
\T0.851;\A1;D
 73
     1
 44
1.0
1001
ACAD
1000
MTEXTBEGIN
1070
    73
1070
     1
1070
    44
1040
1.0
1070
    74
1070
     0
1000
MTEXTEND
  0
MTEXT
  5
189
330
12F
100
AcDbEntity
  8
1
  6
Continuous
 62
    20
100
AcDbMText
 10
-3.768449999999988
 20
64.26734999999998
 30
0.0
 40
3.259199999999999
 41
0.0
 71
     1
 72
     1
  1
\T0.851;\A1;E
 73
     1
 44
1.0
1001
ACAD
1000
MTEXTBEGIN
1070
    73
1070
     1
1070
    44
1040
1.0
1070
    74
1070
     0
1000
MTEXTEND
  0
LINE
  5
18A
330
12F
100
AcDbEntity
  8
1
  6
Continuous
 62
    20
100
AcDbLine
 10
-0.0000000000000009
 20
37.17525
 30
0.0
 11
-2.546250000000001
 21
37.17525
 31
0.0
  0
LINE
  5
18B
330
12F
100
AcDbEntity
  8
1
  6
Continuous
 62
    20
100
AcDbLine
 10
-0.0000000000000009
 20
88.10024999999997
 30
0.0
 11
-2.546250000000001
 21
88.10024999999997
 31
0.0
  0
MTEXT
  5
18C
330
12F
100
AcDbEntity
  8
1
  6
Continuous
 62
    20
100
AcDbMText
 10
-3.768449999999988
 20
166.1173499999999
 30
0.0
 40
3.259199999999999
 41
0.0
 71
     1
 72
     1
  1
\T0.851;\A1;C
 73
     1
 44
1.0
1001
ACAD
1000
MTEXTBEGIN
1070
    73
1070
     1
1070
    44
1040
1.0
1070
    74
1070
     0
1000
MTEXTEND
  0
MTEXT
  5
18D
330
12F
100
AcDbEntity
  8
1
  6
Continuous
 62
    20
100
AcDbMText
 10
-3.768449999999988
 20
217.04235
 30
0.0
 40
3.259199999999999
 41
0.0
 71
     1
 72
     1
  1
\T0.851;\A1;B
 73
     1
 44
1.0
1001
ACAD
1000
MTEXTBEGIN
1070
    73
1070
     1
1070
    44
1040
1.0
1070
    74
1070
     0
1000
MTEXTEND
  0
MTEXT
  5
18E
330
12F
100
AcDbEntity
  8
1
  6
Continuous
 62
    20
100
AcDbMText
 10
-3.768449999999988
 20
261.092475
 30
0.0
 40
3.259199999999999
 41
0.0
 71
     1
 72
     1
  1
\T0.851;\A1;A
 73
     1
 44
1.0
1001
ACAD
1000
MTEXTBEGIN
1070
    73
1070
     1
1070
    44
1040
1.0
1070
    74
1070
     0
1000
MTEXTEND
  0
LINE
  5
18F
330
12F
100
AcDbEntity
  8
1
  6
Continuous
 62
    20
100
AcDbLine
 10
-0.0000000000000009
 20
240.8752499999999
 30
0.0
 11
-2.546250000000001
 21
240.8752499999999
 31
0.0
  0
LINE
  5
190
330
12F
100
AcDbEntity
  8
1
  6
Continuous
 62
    20
100
AcDbLine
 10
-0.0000000000000009
 20
189.95025
 30
0.0
 11
-2.546250000000001
 21
189.95025
 31
0.0
  0
LINE
  5
191
330
12F
100
AcDbEntity
  8
1
  6
Continuous
 62
    20
100
AcDbLine
 10
-0.0000000000000009
 20
139.02525
 30
0.0
 11
-4.073999999999998
 21
139.02525
 31
0.0
  0
MTEXT
  5
192
330
12F
100
AcDbEntity
  8
1
  6
Continuous
 62
    20
100
AcDbMText
 10
-3.768449999999988
 20
20.21722499999999
 30
0.0
 40
3.259199999999999
 41
0.0
 71
     1
 72
     1
  1
\T0.851;\A1;F
 73
     1
 44
1.0
1001
ACAD
1000
MTEXTBEGIN
1070
    73
1070
     1
1070
    44
1040
1.0
1070
    74
1070
     0
1000
MTEXTEND
  0
LWPOLYLINE
  5
193
330
12F
100
AcDbEntity
  8
0
  6
Continuous
 62
    20
100
AcDbPolyline
 90
        4
 70
     1
 43
0.0
 10
0.0
 20
0.0
 10
403.3259999999999
 20
0.0
 10
403.3259999999999
 20
278.0505
 10
0.0
 20
278.0505
  0
LWPOLYLINE
  5
194
330
12F
100
AcDbEntity
  8
0
  6
Continuous
 62
    20
100
AcDbPolyline
 90
        3
 70
   129
 43
0.0
 10
119.5856789591269
 20
35.2211672577474
 10
117.1871732317472
 20
31.06683347568081
 10
121.9841846865066
 20
31.06683347568081
  0
LWPOLYLINE
  5
195
330
12F
100
AcDbEntity
  8
0
  6
Continuous
 62
    20
100
AcDbPolyline
 90
        3
 70
   129
 43
0.0
 10
119.5856789591269
 20
30.1286672577474
 10
117.1871732317472
 20
25.97433347568081
 10
121.9841846865066
 20
25.97433347568081
  0
LWPOLYLINE
  5
196
330
12F
100
AcDbEntity
  8
0
  6
Continuous
 62
    20
100
AcDbPolyline
 90
        3
 70
   129
 43
0.0
 10
119.5856789591269
 20
25.03616725774739
 10
117.1871732317472
 20
20.88183347568081
 10
121.9841846865066
 20
20.88183347568081
  0
LWPOLYLINE
  5
197
330
12F
100
AcDbEntity
  8
0
  6
Continuous
 62
    20
100
AcDbPolyline
 90
        3
 70
   129
 43
0.0
 10
119.5856789591269
 20
19.94366725774739
 10
117.1871732317472
 20
15.78933347568081
 10
121.9841846865066
 20
15.78933347568081
  0
LWPOLYLINE
  5
198
330
12F
100
AcDbEntity
  8
0
  6
Continuous
 62
    20
100
AcDbPolyline
 90
        3
 70
   129
 43
0.0
 10
119.5856789591269
 20
14.85116725774739
 10
117.1871732317472
 20
10.69683347568081
 10
121.9841846865066
 20
10.69683347568081
  0
LWPOLYLINE
  5
199
330
12F
100
AcDbEntity
  8
0
  6
Continuous
 62
    20
100
AcDbPolyline
 90
        3
 70
   129
 43
0.0
 10
119.5856789591269
 20
9.758667257747395
 10
117.1871732317472
 20
5.604333475680808
 10
121.9841846865066
 20
5.604333475680808
  0
MTEXT
  5
19A
330
12F
100
AcDbEntity
  8
0
  6
Continuous
 62
    20
 48
0.2
100
AcDbMText
 10
239.2366479296532
 20
13.51644271642573
 30
0.0
 40
5.5
 41
63.30364349577846
 71
     1
 72
     5
  1
株式会社アルテックス
 73
     1
 44
1.0
1001
ACAD
1000
MTEXTBEGIN
1070
    73
1070
     1
1070
    44
1040
1.0
1070
    74
1070
     0
1000
MTEXTEND
  0
MTEXT
  5
19B
330
12F
100
AcDbEntity
  8
0
  6
Continuous
 62
    20
 48
0.2
100
AcDbMText
 10
240.4310560359268
 20
5.456098617019682
 30
0.0
 40
3.0
 41
65.09525565518856
 71
     1
 72
     5
  1
Artics Co.,Ltd  CAD Dept
 73
     1
 44
1.0
1001
ACAD
1000
MTEXTBEGIN
1070
    73
1070
     1
1070
    44
1040
1.0
1070
    74
1070
     0
1000
MTEXTEND
  0
LINE
  5
19C
330
12F
100
AcDbEntity
  8
1
  6
Continuous
 62
    20
100
AcDbLine
 10
40.72103818046399
 20
-0.0000000000000011
 30
0.0
 11
40.72103818046399
 21
30.555
 31
0.0
  0
LINE
  5
19D
330
12F
100
AcDbEntity
  8
1
  6
Continuous
 62
    20
100
AcDbLine
 10
55.99853818046401
 20
-0.0000000000000011
 30
0.0
 11
55.99853818046401
 21
30.555
 31
0.0
  0
LINE
  5
19E
330
12F
100
AcDbEntity
  8
1
  6
Continuous
 62
    20
100
AcDbLine
 10
96.46143565474595
 20
-0.0000000000000011
 30
0.0
 11
96.46143565474595
 21
30.555
 31
0.0
  0
MTEXT
  5
19F
330
12F
100
AcDbEntity
  8
0
  6
Continuous
 62
    20
 48
0.2
100
AcDbMText
 10
32.52508095653171
 20
34.67595789410752
 30
0.0
 40
3.0
 41
51.59855965713518
 71
     1
 72
     5
  1
金属プレス加工品普通寸法公差
 73
     1
 44
1.0
1001
ACAD
1000
MTEXTBEGIN
1070
    73
1070
     1
1070
    44
1040
1.0
1070
    74
1070
     0
1000
MTEXTEND
  0
MTEXT
  5
1A0
330
12F
100
AcDbEntity
  8
0
  6
Continuous
 62
    20
 48
0.2
100
AcDbMText
 10
6.595880331014412
 20
29.02743086646325
 30
0.0
 40
2.0
 41
27.03797675091755
 71
     1
 72
     5
  1
打抜きの普通寸法許容差
 73
     1
 44
1.0
1001
ACAD
1000
MTEXTBEGIN
1070
    73
1070
     1
1070
    44
1040
1.0
1070
    74
1070
     0
1000
MTEXTEND
  0
MTEXT
  5
1A1
330
12F
100
AcDbEntity
  8
0
  6
Continuous
 62
    20
 48
0.2
100
AcDbMText
 10
44.6881371226235
 20
29.02743086646325
 30
0.0
 40
2.0
 41
8.302046568063136
 71
     1
 72
     5
  1
Ｂ  級
 73
     1
 44
1.0
1001
ACAD
1000
MTEXTBEGIN
1070
    73
1070
     1
1070
    44
1040
1.0
1070
    74
1070
     0
1000
MTEXTEND
  0
MTEXT
  5
1A2
330
12F
100
AcDbEntity
  8
0
  6
Continuous
 62
    20
 48
0.2
100
AcDbMText
 10
100.3066240282226
 20
29.02743086646325
 30
0.0
 40
2.0
 41
8.302046568063136
 71
     1
 72
     5
  1
Ｂ  級
 73
     1
 44
1.0
1001
ACAD
1000
MTEXTBEGIN
1070
    73
1070
     1
1070
    44
1040
1.0
1070
    74
1070
     0
1000
MTEXTEND
  0
MTEXT
  5
1A3
330
12F
100
AcDbEntity
  8
0
  6
Continuous
 62
    20
 48
0.2
100
AcDbMText
 10
59.7477075869475
 20
29.02743086646325
 30
0.0
 40
2.0
 41
34.58719399086748
 71
     1
 72
     5
  1
曲げ及び絞りの普通寸法許容差
 73
     1
 44
1.0
1001
ACAD
1000
MTEXTBEGIN
1070
    73
1070
     1
1070
    44
1040
1.0
1070
    74
1070
     0
1000
MTEXTEND
  0
MTEXT
  5
1A4
330
12F
100
AcDbEntity
  8
0
  6
Continuous
 62
    20
 48
0.2
100
AcDbMText
 10
13.34130633665073
 20
18.65404741903495
 30
0.0
 40
2.0
 41
25.99124615738788
 71
     1
 72
     5
  1
６を超え  ３０  〃
 73
     1
 44
1.0
1001
ACAD
1000
MTEXTBEGIN
1070
    73
1070
     1
1070
    44
1040
1.0
1070
    74
1070
     0
1000
MTEXTEND
  0
MTEXT
  5
1A5
330
12F
100
AcDbEntity
  8
0
  6
Continuous
 62
    20
 48
0.2
100
AcDbMText
 10
4.816987857309056
 20
3.411525573798659
 30
0.0
 40
2.0
 41
32.20492349478557
 71
     1
 72
     5
  1
４００  〃   １０００  〃
 73
     1
 44
1.0
1001
ACAD
1000
MTEXTBEGIN
1070
    73
1070
     1
1070
    44
1040
1.0
1070
    74
1070
     0
1000
MTEXTEND
  0
MTEXT
  5
1A6
330
12F
100
AcDbEntity
  8
0
  6
Continuous
 62
    20
 48
0.2
100
AcDbMText
 10
4.816987857309056
 20
8.556527714770201
 30
0.0
 40
2.0
 41
32.2049
 71
     1
 72
     5
  1
１２０  〃     ４００  〃
 73
     1
 44
1.0
1001
ACAD
1000
MTEXTBEGIN
1070
    73
1070
     1
1070
    44
1040
1.0
1070
    74
1070
     0
1000
MTEXTEND
  0
MTEXT
  5
1A7
330
12F
100
AcDbEntity
  8
0
  6
Continuous
 62
    20
 48
0.2
100
AcDbMText
 10
4.816987857309056
 20
13.99661023054415
 30
0.0
 40
2.0
 41
32.2049
 71
     1
 72
     5
  1
  ３０  〃     １２０  〃
 73
     1
 44
1.0
1001
ACAD
1000
MTEXTBEGIN
1070
    73
1070
     1
1070
    44
1040
1.0
1070
    74
1070
     0
1000
MTEXTEND
  0
MTEXT
  5
1A8
330
12F
100
AcDbEntity
  8
0
  6
Continuous
 62
    20
 48
0.2
100
AcDbMText
 10
28.19400993843474
 20
24.10965518909581
 30
0.0
 40
2.0
 41
11.1385
 71
     1
 72
     5
  1
６ 以下
 73
     1
 44
1.0
1001
ACAD
1000
MTEXTBEGIN
1070
    73
1070
     1
1070
    44
1040
1.0
1070
    74
1070
     0
1000
MTEXTEND
  0
MTEXT
  5
1A9
330
12F
100
AcDbEntity
  8
0
  6
Continuous
 62
    20
 48
0.2
100
AcDbMText
 10
44.96260768898115
 20
18.72102743463239
 30
0.0
 40
2.0
 41
6.9836
 71
     1
 72
     5
  1
\U+00B10.2
 73
     1
 44
1.0
1001
ACAD
1000
MTEXTBEGIN
1070
    73
1070
     1
1070
    44
1040
1.0
1070
    74
1070
     0
1000
MTEXTEND
  0
MTEXT
  5
1AA
330
12F
100
AcDbEntity
  8
0
  6
Continuous
 62
    20
 48
0.2
100
AcDbMText
 10
44.96260768898115
 20
23.98990730089127
 30
0.0
 40
2.0
 41
6.983634309616491
 71
     1
 72
     5
  1
\U+00B10.1
 73
     1
 44
1.0
1001
ACAD
1000
MTEXTBEGIN
1070
    73
1070
     1
1070
    44
1040
1.0
1070
    74
1070
     0
1000
MTEXTEND
  0
MTEXT
  5
1AB
330
12F
100
AcDbEntity
  8
0
  6
Continuous
 62
    20
 48
0.2
100
AcDbMText
 10
44.96260768898115
 20
13.69164107688761
 30
0.0
 40
2.0
 41
6.9836
 71
     1
 72
     5
  1
\U+00B10.3
 73
     1
 44
1.0
1001
ACAD
1000
MTEXTBEGIN
1070
    73
1070
     1
1070
    44
1040
1.0
1070
    74
1070
     0
1000
MTEXTEND
  0
MTEXT
  5
1AC
330
12F
100
AcDbEntity
  8
0
  6
Continuous
 62
    20
 48
0.2
100
AcDbMText
 10
44.96260768898115
 20
8.422761210628724
 30
0.0
 40
2.0
 41
6.9836
 71
     1
 72
     5
  1
\U+00B10.5
 73
     1
 44
1.0
1001
ACAD
1000
MTEXTBEGIN
1070
    73
1070
     1
1070
    44
1040
1.0
1070
    74
1070
     0
1000
MTEXTEND
  0
MTEXT
  5
1AD
330
12F
100
AcDbEntity
  8
0
  6
Continuous
 62
    20
 48
0.2
100
AcDbMText
 10
44.96260768898115
 20
3.393375608848888
 30
0.0
 40
2.0
 41
6.9836
 71
     1
 72
     5
  1
\U+00B10.8
 73
     1
 44
1.0
1001
ACAD
1000
MTEXTBEGIN
1070
    73
1070
     1
1070
    44
1040
1.0
1070
    74
1070
     0
1000
MTEXTEND
  0
MTEXT
  5
1AE
330
12F
100
AcDbEntity
  8
0
  6
Continuous
 62
    20
 48
0.2
100
AcDbMText
 10
60.76641698444118
 20
8.556527714770201
 30
0.0
 40
2.0
 41
32.2049
 71
     1
 72
     5
  1
１２０  〃     ４００  〃
 73
     1
 44
1.0
1001
ACAD
1000
MTEXTBEGIN
1070
    73
1070
     1
1070
    44
1040
1.0
1070
    74
1070
     0
1000
MTEXTEND
  0
MTEXT
  5
1AF
330
12F
100
AcDbEntity
  8
0
  6
Continuous
 62
    20
 48
0.2
100
AcDbMText
 10
60.76641698444118
 20
3.411525573798659
 30
0.0
 40
2.0
 41
32.20492349478557
 71
     1
 72
     5
  1
４００  〃   １０００  〃
 73
     1
 44
1.0
1001
ACAD
1000
MTEXTBEGIN
1070
    73
1070
     1
1070
    44
1040
1.0
1070
    74
1070
     0
1000
MTEXTEND
  0
MTEXT
  5
1B0
330
12F
100
AcDbEntity
  8
0
  6
Continuous
 62
    20
 48
0.2
100
AcDbMText
 10
100.9120368161132
 20
3.393375608848888
 30
0.0
 40
2.0
 41
6.9836
 71
     1
 72
     5
  1
\U+00B12
 73
     1
 44
1.0
1001
ACAD
1000
MTEXTBEGIN
1070
    73
1070
     1
1070
    44
1040
1.0
1070
    74
1070
     0
1000
MTEXTEND
  0
MTEXT
  5
1B1
330
12F
100
AcDbEntity
  8
0
  6
Continuous
 62
    20
 48
0.2
100
AcDbMText
 10
84.14343906556686
 20
24.10965518909581
 30
0.0
 40
2.0
 41
11.1385
 71
     1
 72
     5
  1
６ 以下
 73
     1
 44
1.0
1001
ACAD
1000
MTEXTBEGIN
1070
    73
1070
     1
1070
    44
1040
1.0
1070
    74
1070
     0
1000
MTEXTEND
  0
MTEXT
  5
1B2
330
12F
100
AcDbEntity
  8
0
  6
Continuous
 62
    20
 48
0.2
100
AcDbMText
 10
69.29073546378287
 20
18.65404741903495
 30
0.0
 40
2.0
 41
25.99124615738788
 71
     1
 72
     5
  1
６を超え  ３０  〃
 73
     1
 44
1.0
1001
ACAD
1000
MTEXTBEGIN
1070
    73
1070
     1
1070
    44
1040
1.0
1070
    74
1070
     0
1000
MTEXTEND
  0
MTEXT
  5
1B3
330
12F
100
AcDbEntity
  8
0
  6
Continuous
 62
    20
 48
0.2
100
AcDbMText
 10
60.76641698444118
 20
13.99661023054415
 30
0.0
 40
2.0
 41
32.2049
 71
     1
 72
     5
  1
  ３０  〃     １２０  〃
 73
     1
 44
1.0
1001
ACAD
1000
MTEXTBEGIN
1070
    73
1070
     1
1070
    44
1040
1.0
1070
    74
1070
     0
1000
MTEXTEND
  0
MTEXT
  5
1B4
330
12F
100
AcDbEntity
  8
0
  6
Continuous
 62
    20
 48
0.2
100
AcDbMText
 10
100.9120368161132
 20
13.69164107688761
 30
0.0
 40
2.0
 41
6.9836
 71
     1
 72
     5
  1
\U+00B10.8
 73
     1
 44
1.0
1001
ACAD
1000
MTEXTBEGIN
1070
    73
1070
     1
1070
    44
1040
1.0
1070
    74
1070
     0
1000
MTEXTEND
  0
MTEXT
  5
1B5
330
12F
100
AcDbEntity
  8
0
  6
Continuous
 62
    20
 48
0.2
100
AcDbMText
 10
100.9120368161132
 20
8.422761210628724
 30
0.0
 40
2.0
 41
6.9836
 71
     1
 72
     5
  1
\U+00B11.2
 73
     1
 44
1.0
1001
ACAD
1000
MTEXTBEGIN
1070
    73
1070
     1
1070
    44
1040
1.0
1070
    74
1070
     0
1000
MTEXTEND
  0
MTEXT
  5
1B6
330
12F
100
AcDbEntity
  8
0
  6
Continuous
 62
    20
 48
0.2
100
AcDbMText
 10
100.9120368161132
 20
18.72102743463239
 30
0.0
 40
2.0
 41
6.9836
 71
     1
 72
     5
  1
\U+00B10.5
 73
     1
 44
1.0
1001
ACAD
1000
MTEXTBEGIN
1070
    73
1070
     1
1070
    44
1040
1.0
1070
    74
1070
     0
1000
MTEXTEND
  0
MTEXT
  5
1B7
330
12F
100
AcDbEntity
  8
0
  6
Continuous
 62
    20
 48
0.2
100
AcDbMText
 10
100.9120368161132
 20
23.98990730089127
 30
0.0
 40
2.0
 41
6.9836
 71
     1
 72
     5
  1
\U+00B10.3
 73
     1
 44
1.0
1001
ACAD
1000
MTEXTBEGIN
1070
    73
1070
     1
1070
    44
1040
1.0
1070
    74
1070
     0
1000
MTEXTEND
  0
LINE
  5
1B8
330
12F
100
AcDbEntity
  8
1
  6
DASHED
 62
    20
 48
0.2
100
AcDbLine
 10
334.9385
 20
-0.0000000000000011
 30
0.0
 11
334.9385
 21
10.18499999999999
 31
0.0
  0
LINE
  5
1B9
330
12F
100
AcDbEntity
  8
1
  6
DASHED
 62
    20
 48
0.2
100
AcDbLine
 10
342.9385
 20
-0.0000000000000011
 30
0.0
 11
342.9385
 21
10.18499999999999
 31
0.0
  0
LINE
  5
1BA
330
12F
100
AcDbEntity
  8
1
  6
DASHED
 62
    20
 48
0.2
100
AcDbLine
 10
350.9385
 20
-0.0000000000000011
 30
0.0
 11
350.9385
 21
10.18499999999999
 31
0.0
  0
LINE
  5
1BB
330
12F
100
AcDbEntity
  8
1
  6
DASHED
 62
    20
 48
0.2
100
AcDbLine
 10
358.9385
 20
-0.0000000000000011
 30
0.0
 11
358.9385
 21
10.18499999999999
 31
0.0
  0
LINE
  5
1BC
330
12F
100
AcDbEntity
  8
1
  6
DASHED
 62
    20
 48
0.2
100
AcDbLine
 10
366.9385
 20
-0.0000000000000011
 30
0.0
 11
366.9385
 21
10.18499999999999
 31
0.0
  0
LINE
  5
1BD
330
12F
100
AcDbEntity
  8
1
  6
DASHED
 62
    20
 48
0.2
100
AcDbLine
 10
374.9385
 20
-0.0000000000000011
 30
0.0
 11
374.9385
 21
10.18499999999999
 31
0.0
  0
LINE
  5
1BE
330
12F
100
AcDbEntity
  8
1
  6
DASHED
 62
    20
 48
0.2
100
AcDbLine
 10
382.9385
 20
-0.0000000000000011
 30
0.0
 11
382.9385
 21
10.18499999999999
 31
0.0
  0
LINE
  5
1BF
330
12F
100
AcDbEntity
  8
1
  6
DASHED
 62
    20
 48
0.2
100
AcDbLine
 10
390.9385
 20
-0.0000000000000011
 30
0.0
 11
390.9385
 21
10.18499999999999
 31
0.0
  0
ENDBLK
  5
1C1
330
12F
100
AcDbEntity
  8
0
100
AcDbBlockEnd
  0
BLOCK
  5
207
330
1F9
100
AcDbEntity
  8
0
 62
     5
100
AcDbBlockBegin
  2
ネジ留め部
 70
     0
 10
0.0
 20
0.0
 30
0.0
  3
ネジ留め部
  1

  0
CIRCLE
  5
1FA
330
1F9
100
AcDbEntity
  8
0
  6
Continuous
 62
     1
100
AcDbCircle
 10
0.0
 20
0.0
 30
0.0
 40
1.75
  0
ARC
  5
1FB
330
1F9
100
AcDbEntity
  8
0
  6
Continuous
 62
     1
100
AcDbCircle
 10
0.0
 20
0.0
 30
0.0
 40
3.75
100
AcDbArc
 50
93.82255399999944
 51
176.1774460000001
  0
ARC
  5
1FC
330
1F9
100
AcDbEntity
  8
0
  6
Continuous
 62
     1
100
AcDbCircle
 10
0.0
 20
0.0
 30
0.0
 40
3.75
100
AcDbArc
 50
3.822553999999825
 51
86.17744600000056
  0
ARC
  5
1FD
330
1F9
100
AcDbEntity
  8
0
  6
Continuous
 62
     1
100
AcDbCircle
 10
0.0
 20
0.0
 30
0.0
 40
3.75
100
AcDbArc
 50
183.8225539999998
 51
266.1774460000005
  0
LINE
  5
1FE
330
1F9
100
AcDbEntity
  8
0
  6
Continuous
 62
     1
100
AcDbLine
 10
-3.741658000000028
 20
-0.25
 30
0.0
 11
-1.732051000000011
 21
-0.25
 31
0.0
  0
LINE
  5
1FF
330
1F9
100
AcDbEntity
  8
0
  6
Continuous
 62
     1
100
AcDbLine
 10
-3.741658000000028
 20
0.25
 30
0.0
 11
-1.732051000000011
 21
0.25
 31
0.0
  0
LINE
  5
200
330
1F9
100
AcDbEntity
  8
0
  6
Continuous
 62
     1
100
AcDbLine
 10
0.25
 20
-1.732050999999998
 30
0.0
 11
0.25
 21
-3.741658000000001
 31
0.0
  0
LINE
  5
201
330
1F9
100
AcDbEntity
  8
0
  6
Continuous
 62
     1
100
AcDbLine
 10
-0.25
 20
-1.732050999999998
 30
0.0
 11
-0.25
 21
-3.741658000000001
 31
0.0
  0
ARC
  5
202
330
1F9
100
AcDbEntity
  8
0
  6
Continuous
 62
     1
100
AcDbCircle
 10
0.0
 20
0.0
 30
0.0
 40
3.75
100
AcDbArc
 50
273.8225539999993
 51
356.1774459999997
  0
LINE
  5
203
330
1F9
100
AcDbEntity
  8
0
  6
Continuous
 62
     1
100
AcDbLine
 10
1.732049999999957
 20
0.25
 30
0.0
 11
3.741657000000031
 21
0.25
 31
0.0
  0
LINE
  5
204
330
1F9
100
AcDbEntity
  8
0
  6
Continuous
 62
     1
100
AcDbLine
 10
1.732049999999957
 20
-0.25
 30
0.0
 11
3.741657000000031
 21
-0.25
 31
0.0
  0
LINE
  5
205
330
1F9
100
AcDbEntity
  8
0
  6
Continuous
 62
     1
100
AcDbLine
 10
0.25
 20
3.741656999999988
 30
0.0
 11
0.25
 21
1.73205
 31
0.0
  0
LINE
  5
206
330
1F9
100
AcDbEntity
  8
0
  6
Continuous
 62
     1
100
AcDbLine
 10
-0.25
 20
3.741656999999988
 30
0.0
 11
-0.25
 21
1.73205
 31
0.0
  0
ENDBLK
  5
208
330
1F9
100
AcDbEntity
  8
0
 62
     5
100
AcDbBlockEnd
  0
BLOCK
  5
281
330
277
100
AcDbEntity
  8
0
100
AcDbBlockBegin
  2
*D4
 70
     1
 10
0.0
 20
0.0
 30
0.0
  3
*D4
  1

  0
LINE
  5
5C4
330
277
100
AcDbEntity
  8
0
  6
Continuous
370
    13
100
AcDbLine
 10
-14.71197779975259
 20
50.01445755610514
 30
0.0
 11
-39.5819777997526
 21
50.01445755610514
 31
0.0
  0
LINE
  5
5C5
330
277
100
AcDbEntity
  8
0
  6
Continuous
370
    13
100
AcDbLine
 10
-39.5819777997526
 20
50.01445755610514
 30
0.0
 11
-49.14348514267897
 21
44.55475409594231
 31
0.0
  0
MTEXT
  5
5C6
102
{ACAD_XDICTIONARY
360
81B
102
}
330
277
100
AcDbEntity
  8
0
  6
Continuous
 62
     6
100
AcDbMText
 10
-24.83197779975259
 20
52.16445755610513
 30
0.0
 40
2.299999999999998
 41
0.0
 71
     5
 72
     1
  1
\A1;4-\U+22053.5（取付穴）
  7
幅0.8高さ2.3
 73
     1
 44
1.0
1001
ACAD
1000
MTEXTBEGIN
1070
    73
1070
     1
1070
    44
1040
1.0
1070
    74
1070
     0
1000
MTEXTEND
  0
INSERT
  5
5C7
330
277
100
AcDbEntity
  8
0
  6
Continuous
370
    13
100
AcDbBlockReference
  2
_OPEN30
 10
-51.74868568414488
 20
43.06716203534715
 30
0.0
 41
3.0
 42
3.0
 43
3.0
 50
209.7267409570646
  0
POINT
  5
5C8
330
277
100
AcDbEntity
  8
DEFPOINTS
  6
Continuous
 62
     0
100
AcDbPoint
 10
-51.74868568414488
 20
43.06716203534715
 30
0.0
  0
POINT
  5
5C9
330
277
100
AcDbEntity
  8
DEFPOINTS
  6
Continuous
 62
     0
100
AcDbPoint
 10
-54.78808631585511
 20
41.33163796465281
 30
0.0
  0
ENDBLK
  5
282
330
277
100
AcDbEntity
  8
0
100
AcDbBlockEnd
  0
BLOCK
  5
29F
330
293
100
AcDbEntity
  8
0
100
AcDbBlockBegin
  2
*D5
 70
     1
 10
0.0
 20
0.0
 30
0.0
  3
*D5
  1

  0
LINE
  5
2E1
330
293
100
AcDbEntity
  8
0
  6
Continuous
 62
     0
370
    13
100
AcDbLine
 10
-57.768386
 20
-24.3006
 30
0.0
 11
-65.39738350283994
 21
-24.3006
 31
0.0
  0
LINE
  5
2E2
330
293
100
AcDbEntity
  8
0
  6
Continuous
 62
     0
370
    13
100
AcDbLine
 10
-58.01838599999999
 20
-20.8006
 30
0.0
 11
-65.39738350283994
 21
-20.8006
 31
0.0
  0
LINE
  5
2E3
330
293
100
AcDbEntity
  8
0
  6
Continuous
370
    13
100
AcDbLine
 10
-64.39738350283994
 20
-27.3006
 30
0.0
 11
-64.39738350283994
 21
-30.3006
 31
0.0
  0
LINE
  5
2E4
330
293
100
AcDbEntity
  8
0
  6
Continuous
370
    13
100
AcDbLine
 10
-64.39738350283994
 20
-17.80059999999999
 30
0.0
 11
-64.39738350283994
 21
-14.80059999999999
 31
0.0
  0
MTEXT
  5
2E5
330
293
100
AcDbEntity
  8
0
  6
Continuous
 62
     6
100
AcDbMText
 10
-67.90530444127455
 20
-20.97789113672774
 30
0.0
 40
3.0
 41
0.0
 71
     5
 72
     1
  1
\A1;3.5
  7
Standard
 11
0.0000000000000001
 21
1.0
 31
0.0
 73
     1
 44
1.0
1001
ACAD
1000
MTEXTBEGIN
1070
    73
1070
     1
1070
    44
1040
1.0
1070
    74
1070
     0
1000
MTEXTEND
  0
LINE
  5
2E6
330
293
100
AcDbEntity
  8
0
  6
Continuous
370
    13
100
AcDbLine
 10
-64.39738350283994
 20
-24.3006
 30
0.0
 11
-64.39738350283994
 21
-20.8006
 31
0.0
  0
INSERT
  5
2E7
330
293
100
AcDbEntity
  8
0
  6
Continuous
370
    13
100
AcDbBlockReference
  2
_OPEN30
 10
-64.39738350283994
 20
-24.3006
 30
0.0
 41
3.0
 42
3.0
 43
3.0
 50
90.0
  0
INSERT
  5
2E8
330
293
100
AcDbEntity
  8
0
  6
Continuous
370
    13
100
AcDbBlockReference
  2
_OPEN30
 10
-64.39738350283994
 20
-20.8006
 30
0.0
 41
3.0
 42
3.0
 43
3.0
 50
270.0
  0
POINT
  5
2E9
330
293
100
AcDbEntity
  8
DEFPOINTS
  6
Continuous
 62
     0
100
AcDbPoint
 10
-56.76838599999999
 20
-24.3006
 30
0.0
  0
POINT
  5
2EA
330
293
100
AcDbEntity
  8
DEFPOINTS
  6
Continuous
 62
     0
100
AcDbPoint
 10
-57.018386
 20
-20.8006
 30
0.0
  0
POINT
  5
2EB
330
293
100
AcDbEntity
  8
DEFPOINTS
  6
Continuous
 62
     0
100
AcDbPoint
 10
-64.39738350283994
 20
-20.8006
 30
0.0
  0
ENDBLK
  5
2A0
330
293
100
AcDbEntity
  8
0
100
AcDbBlockEnd
  0
BLOCK
  5
2AC
330
2A2
100
AcDbEntity
  8
0
100
AcDbBlockBegin
  2
*D6
 70
     1
 10
0.0
 20
0.0
 30
0.0
  3
*D6
  1

  0
LINE
  5
2A3
330
2A2
100
AcDbEntity
  8
0
  6
Continuous
 62
     0
370
    13
100
AcDbLine
 10
-58.01838599999999
 20
-20.8006
 30
0.0
 11
-65.39738350283994
 21
-20.8006
 31
0.0
  0
LINE
  5
2A4
330
2A2
100
AcDbEntity
  8
0
  6
Continuous
 62
     0
370
    13
100
AcDbLine
 10
-58.01838599999999
 20
42.1994
 30
0.0
 11
-65.39738350283993
 21
42.1994
 31
0.0
  0
LINE
  5
2A5
330
2A2
100
AcDbEntity
  8
0
  6
Continuous
370
    13
100
AcDbLine
 10
-64.39738350283994
 20
-17.80059999999999
 30
0.0
 11
-64.39738350283993
 21
39.1994
 31
0.0
  0
INSERT
  5
2A6
330
2A2
100
AcDbEntity
  8
0
  6
Continuous
370
    13
100
AcDbBlockReference
  2
_OPEN30
 10
-64.39738350283994
 20
-20.8006
 30
0.0
 41
3.0
 42
3.0
 43
3.0
 50
270.0
  0
INSERT
  5
2A7
330
2A2
100
AcDbEntity
  8
0
  6
Continuous
370
    13
100
AcDbBlockReference
  2
_OPEN30
 10
-64.39738350283993
 20
42.1994
 30
0.0
 41
3.0
 42
3.0
 43
3.0
 50
90.0
  0
MTEXT
  5
2A8
330
2A2
100
AcDbEntity
  8
0
  6
Continuous
 62
     6
100
AcDbMText
 10
-66.89738350283994
 20
10.69939999999998
 30
0.0
 40
3.0
 41
0.0
 71
     5
 72
     1
  1
\A1;63
  7
Standard
 11
0.0000000000000001
 21
1.0
 31
0.0
 73
     1
 44
1.0
1001
ACAD
1000
MTEXTBEGIN
1070
    73
1070
     1
1070
    44
1040
1.0
1070
    74
1070
     0
1000
MTEXTEND
  0
POINT
  5
2A9
330
2A2
100
AcDbEntity
  8
DEFPOINTS
  6
Continuous
 62
     0
100
AcDbPoint
 10
-57.018386
 20
-20.8006
 30
0.0
  0
POINT
  5
2AA
330
2A2
100
AcDbEntity
  8
DEFPOINTS
  6
Continuous
 62
     0
100
AcDbPoint
 10
-57.018386
 20
42.1994
 30
0.0
  0
POINT
  5
2AB
330
2A2
100
AcDbEntity
  8
DEFPOINTS
  6
Continuous
 62
     0
100
AcDbPoint
 10
-64.39738350283993
 20
42.1994
 30
0.0
  0
ENDBLK
  5
2AD
330
2A2
100
AcDbEntity
  8
0
100
AcDbBlockEnd
  0
BLOCK
  5
2BE
330
2AF
100
AcDbEntity
  8
0
100
AcDbBlockBegin
  2
*D7
 70
     1
 10
0.0
 20
0.0
 30
0.0
  3
*D7
  1

  0
LINE
  5
2EC
330
2AF
100
AcDbEntity
  8
0
  6
Continuous
 62
     0
370
    13
100
AcDbLine
 10
-58.01838599999999
 20
42.1994
 30
0.0
 11
-65.39738350283993
 21
42.1994
 31
0.0
  0
LINE
  5
2ED
330
2AF
100
AcDbEntity
  8
0
  6
Continuous
 62
     0
370
    13
100
AcDbLine
 10
-57.768386
 20
45.69939999999999
 30
0.0
 11
-65.39738350283993
 21
45.69939999999999
 31
0.0
  0
LINE
  5
2EE
330
2AF
100
AcDbEntity
  8
0
  6
Continuous
370
    13
100
AcDbLine
 10
-64.39738350283993
 20
39.1994
 30
0.0
 11
-64.39738350283993
 21
36.19939999999999
 31
0.0
  0
LINE
  5
2EF
330
2AF
100
AcDbEntity
  8
0
  6
Continuous
370
    13
100
AcDbLine
 10
-64.39738350283993
 20
48.69939999999999
 30
0.0
 11
-64.39738350283993
 21
51.6994
 31
0.0
  0
MTEXT
  5
2F0
330
2AF
100
AcDbEntity
  8
0
  6
Continuous
 62
     6
100
AcDbMText
 10
-68.00545907345133
 20
42.35121555674886
 30
0.0
 40
3.0
 41
0.0
 71
     5
 72
     1
  1
\A1;3.5
  7
Standard
 11
0.0000000000000001
 21
1.0
 31
0.0
 73
     1
 44
1.0
1001
ACAD
1000
MTEXTBEGIN
1070
    73
1070
     1
1070
    44
1040
1.0
1070
    74
1070
     0
1000
MTEXTEND
  0
LINE
  5
2F1
330
2AF
100
AcDbEntity
  8
0
  6
Continuous
370
    13
100
AcDbLine
 10
-64.39738350283993
 20
42.1994
 30
0.0
 11
-64.39738350283993
 21
45.69939999999999
 31
0.0
  0
INSERT
  5
2F2
330
2AF
100
AcDbEntity
  8
0
  6
Continuous
370
    13
100
AcDbBlockReference
  2
_OPEN30
 10
-64.39738350283993
 20
42.1994
 30
0.0
 41
3.0
 42
3.0
 43
3.0
 50
90.0
  0
INSERT
  5
2F3
330
2AF
100
AcDbEntity
  8
0
  6
Continuous
370
    13
100
AcDbBlockReference
  2
_OPEN30
 10
-64.39738350283993
 20
45.69939999999999
 30
0.0
 41
3.0
 42
3.0
 43
3.0
 50
270.0
  0
POINT
  5
2F4
330
2AF
100
AcDbEntity
  8
DEFPOINTS
  6
Continuous
 62
     0
100
AcDbPoint
 10
-57.018386
 20
42.1994
 30
0.0
  0
POINT
  5
2F5
330
2AF
100
AcDbEntity
  8
DEFPOINTS
  6
Continuous
 62
     0
100
AcDbPoint
 10
-56.76838599999999
 20
45.69939999999999
 30
0.0
  0
POINT
  5
2F6
330
2AF
100
AcDbEntity
  8
DEFPOINTS
  6
Continuous
 62
     0
100
AcDbPoint
 10
-64.39738350283993
 20
45.69939999999999
 30
0.0
  0
ENDBLK
  5
2BF
330
2AF
100
AcDbEntity
  8
0
100
AcDbBlockEnd
  0
BLOCK
  5
2D6
330
2CC
100
AcDbEntity
  8
0
100
AcDbBlockBegin
  2
*D8
 70
     1
 10
0.0
 20
0.0
 30
0.0
  3
*D8
  1

  0
LINE
  5
2D8
330
2CC
100
AcDbEntity
  8
0
  6
Continuous
 62
     0
370
    13
100
AcDbLine
 10
-62.58288475141998
 20
-24.3006
 30
0.0
 11
-74.38058762686933
 21
-24.3006
 31
0.0
  0
LINE
  5
2D9
330
2CC
100
AcDbEntity
  8
0
  6
Continuous
 62
     0
370
    13
100
AcDbLine
 10
-62.58288475141998
 20
45.69939999999999
 30
0.0
 11
-74.38058762686932
 21
45.69939999999999
 31
0.0
  0
LINE
  5
2DA
330
2CC
100
AcDbEntity
  8
0
  6
Continuous
370
    13
100
AcDbLine
 10
-73.38058762686933
 20
-21.30059999999999
 30
0.0
 11
-73.38058762686931
 21
42.6994
 31
0.0
  0
INSERT
  5
2DB
330
2CC
100
AcDbEntity
  8
0
  6
Continuous
370
    13
100
AcDbBlockReference
  2
_OPEN30
 10
-73.38058762686933
 20
-24.3006
 30
0.0
 41
3.0
 42
3.0
 43
3.0
 50
270.0
  0
INSERT
  5
2DC
330
2CC
100
AcDbEntity
  8
0
  6
Continuous
370
    13
100
AcDbBlockReference
  2
_OPEN30
 10
-73.38058762686931
 20
45.69939999999999
 30
0.0
 41
3.0
 42
3.0
 43
3.0
 50
90.0
  0
MTEXT
  5
2DD
330
2CC
100
AcDbEntity
  8
0
  6
Continuous
 62
     6
100
AcDbMText
 10
-75.88058762686933
 20
10.35222547975382
 30
0.0
 40
3.0
 41
0.0
 71
     5
 72
     1
  1
\A1;70
  7
Standard
 11
0.0000000000000001
 21
1.0
 31
0.0
 73
     1
 44
1.0
1001
ACAD
1000
MTEXTBEGIN
1070
    73
1070
     1
1070
    44
1040
1.0
1070
    74
1070
     0
1000
MTEXTEND
  0
POINT
  5
2DE
330
2CC
100
AcDbEntity
  8
DEFPOINTS
  6
Continuous
 62
     0
100
AcDbPoint
 10
-61.58288475141997
 20
-24.3006
 30
0.0
  0
POINT
  5
2DF
330
2CC
100
AcDbEntity
  8
DEFPOINTS
  6
Continuous
 62
     0
100
AcDbPoint
 10
-61.58288475141997
 20
45.69939999999999
 30
0.0
  0
POINT
  5
2E0
330
2CC
100
AcDbEntity
  8
DEFPOINTS
  6
Continuous
 62
     0
100
AcDbPoint
 10
-73.38058762686931
 20
45.69939999999999
 30
0.0
  0
ENDBLK
  5
2D7
330
2CC
100
AcDbEntity
  8
0
100
AcDbBlockEnd
  0
BLOCK
  5
304
330
2F8
100
AcDbEntity
  8
0
100
AcDbBlockBegin
  2
*D9
 70
     1
 10
0.0
 20
0.0
 30
0.0
  3
*D9
  1

  0
LINE
  5
2F9
330
2F8
100
AcDbEntity
  8
0
  6
Continuous
 62
     0
370
    13
100
AcDbLine
 10
-56.76838599999999
 20
-25.3006
 30
0.0
 11
-56.76838599999999
 21
-33.93165237446732
 31
0.0
  0
LINE
  5
2FA
330
2F8
100
AcDbEntity
  8
0
  6
Continuous
 62
     0
370
    13
100
AcDbLine
 10
-53.268386
 20
-25.5506
 30
0.0
 11
-53.268386
 21
-33.93165237446732
 31
0.0
  0
LINE
  5
2FB
330
2F8
100
AcDbEntity
  8
0
  6
Continuous
370
    13
100
AcDbLine
 10
-59.768386
 20
-32.93165237446732
 30
0.0
 11
-62.768386
 21
-32.93165237446732
 31
0.0
  0
LINE
  5
2FC
330
2F8
100
AcDbEntity
  8
0
  6
Continuous
370
    13
100
AcDbLine
 10
-50.268386
 20
-32.93165237446732
 30
0.0
 11
-39.26838599999999
 21
-32.93165237446732
 31
0.0
  0
LINE
  5
2FD
330
2F8
100
AcDbEntity
  8
0
  6
Continuous
370
    13
100
AcDbLine
 10
-56.76838599999999
 20
-32.93165237446732
 30
0.0
 11
-53.268386
 21
-32.93165237446732
 31
0.0
  0
INSERT
  5
2FE
330
2F8
100
AcDbEntity
  8
0
  6
Continuous
370
    13
100
AcDbBlockReference
  2
_OPEN30
 10
-56.76838599999999
 20
-32.93165237446732
 30
0.0
 41
3.0
 42
3.0
 43
3.0
  0
INSERT
  5
2FF
330
2F8
100
AcDbEntity
  8
0
  6
Continuous
370
    13
100
AcDbBlockReference
  2
_OPEN30
 10
-53.268386
 20
-32.93165237446732
 30
0.0
 41
3.0
 42
3.0
 43
3.0
 50
180.0
  0
MTEXT
  5
300
330
2F8
100
AcDbEntity
  8
0
  6
Continuous
 62
     6
100
AcDbMText
 10
-43.268386
 20
-30.43165237446732
 30
0.0
 40
3.0
 41
0.0
 71
     5
 72
     1
  1
\A1;3.5
  7
Standard
 73
     1
 44
1.0
1001
ACAD
1000
MTEXTBEGIN
1070
    73
1070
     1
1070
    44
1040
1.0
1070
    74
1070
     0
1000
MTEXTEND
  0
POINT
  5
301
330
2F8
100
AcDbEntity
  8
DEFPOINTS
  6
Continuous
 62
     0
100
AcDbPoint
 10
-56.76838599999999
 20
-24.3006
 30
0.0
  0
POINT
  5
302
330
2F8
100
AcDbEntity
  8
DEFPOINTS
  6
Continuous
 62
     0
100
AcDbPoint
 10
-53.268386
 20
-24.5506
 30
0.0
  0
POINT
  5
303
330
2F8
100
AcDbEntity
  8
DEFPOINTS
  6
Continuous
 62
     0
100
AcDbPoint
 10
-53.268386
 20
-32.93165237446732
 30
0.0
  0
ENDBLK
  5
305
330
2F8
100
AcDbEntity
  8
0
100
AcDbBlockEnd
  0
BLOCK
  5
311
330
307
100
AcDbEntity
  8
0
100
AcDbBlockBegin
  2
*D10
 70
     1
 10
0.0
 20
0.0
 30
0.0
  3
*D10
  1

  0
LINE
  5
308
330
307
100
AcDbEntity
  8
0
  6
Continuous
 62
     0
370
    13
100
AcDbLine
 10
-53.268386
 20
-25.5506
 30
0.0
 11
-53.268386
 21
-33.93165237446732
 31
0.0
  0
LINE
  5
309
330
307
100
AcDbEntity
  8
0
  6
Continuous
 62
     0
370
    13
100
AcDbLine
 10
59.731614
 20
-25.5506
 30
0.0
 11
59.731614
 21
-33.93165237446732
 31
0.0
  0
LINE
  5
30A
330
307
100
AcDbEntity
  8
0
  6
Continuous
370
    13
100
AcDbLine
 10
-50.268386
 20
-32.93165237446732
 30
0.0
 11
56.731614
 21
-32.93165237446732
 31
0.0
  0
INSERT
  5
30B
330
307
100
AcDbEntity
  8
0
  6
Continuous
370
    13
100
AcDbBlockReference
  2
_OPEN30
 10
-53.268386
 20
-32.93165237446732
 30
0.0
 41
3.0
 42
3.0
 43
3.0
 50
180.0
  0
INSERT
  5
30C
330
307
100
AcDbEntity
  8
0
  6
Continuous
370
    13
100
AcDbBlockReference
  2
_OPEN30
 10
59.731614
 20
-32.93165237446732
 30
0.0
 41
3.0
 42
3.0
 43
3.0
  0
MTEXT
  5
30D
330
307
100
AcDbEntity
  8
0
  6
Continuous
 62
     6
100
AcDbMText
 10
3.231613999999999
 20
-30.43165237446732
 30
0.0
 40
3.0
 41
0.0
 71
     5
 72
     1
  1
\A1;113
  7
Standard
 73
     1
 44
1.0
1001
ACAD
1000
MTEXTBEGIN
1070
    73
1070
     1
1070
    44
1040
1.0
1070
    74
1070
     0
1000
MTEXTEND
  0
POINT
  5
30E
330
307
100
AcDbEntity
  8
DEFPOINTS
  6
Continuous
 62
     0
100
AcDbPoint
 10
-53.268386
 20
-24.5506
 30
0.0
  0
POINT
  5
30F
330
307
100
AcDbEntity
  8
DEFPOINTS
  6
Continuous
 62
     0
100
AcDbPoint
 10
59.731614
 20
-24.5506
 30
0.0
  0
POINT
  5
310
330
307
100
AcDbEntity
  8
DEFPOINTS
  6
Continuous
 62
     0
100
AcDbPoint
 10
59.731614
 20
-32.93165237446732
 30
0.0
  0
ENDBLK
  5
312
330
307
100
AcDbEntity
  8
0
100
AcDbBlockEnd
  0
BLOCK
  5
323
330
314
100
AcDbEntity
  8
0
100
AcDbBlockBegin
  2
*D11
 70
     1
 10
0.0
 20
0.0
 30
0.0
  3
*D11
  1

  0
LINE
  5
325
330
314
100
AcDbEntity
  8
0
  6
Continuous
 62
     0
370
    13
100
AcDbLine
 10
59.731614
 20
-25.5506
 30
0.0
 11
59.731614
 21
-33.92179899358399
 31
0.0
  0
LINE
  5
326
330
314
100
AcDbEntity
  8
0
  6
Continuous
 62
     0
370
    13
100
AcDbLine
 10
63.231614
 20
-25.3006
 30
0.0
 11
63.231614
 21
-33.92179899358399
 31
0.0
  0
LINE
  5
327
330
314
100
AcDbEntity
  8
0
  6
Continuous
370
    13
100
AcDbLine
 10
66.231614
 20
-32.92179899358399
 30
0.0
 11
69.23161400000001
 21
-32.92179899358399
 31
0.0
  0
LINE
  5
328
330
314
100
AcDbEntity
  8
0
  6
Continuous
370
    13
100
AcDbLine
 10
56.731614
 20
-32.92179899358399
 30
0.0
 11
45.731614
 21
-32.92179899358399
 31
0.0
  0
LINE
  5
329
330
314
100
AcDbEntity
  8
0
  6
Continuous
370
    13
100
AcDbLine
 10
63.231614
 20
-32.92179899358399
 30
0.0
 11
59.731614
 21
-32.92179899358399
 31
0.0
  0
INSERT
  5
32A
330
314
100
AcDbEntity
  8
0
  6
Continuous
370
    13
100
AcDbBlockReference
  2
_OPEN30
 10
63.231614
 20
-32.92179899358399
 30
0.0
 41
3.0
 42
3.0
 43
3.0
 50
180.0
  0
INSERT
  5
32B
330
314
100
AcDbEntity
  8
0
  6
Continuous
370
    13
100
AcDbBlockReference
  2
_OPEN30
 10
59.731614
 20
-32.92179899358399
 30
0.0
 41
3.0
 42
3.0
 43
3.0
  0
MTEXT
  5
32C
330
314
100
AcDbEntity
  8
0
  6
Continuous
 62
     6
100
AcDbMText
 10
49.731614
 20
-30.42179899358399
 30
0.0
 40
3.0
 41
0.0
 71
     5
 72
     1
  1
\A1;3.5
  7
Standard
 73
     1
 44
1.0
1001
ACAD
1000
MTEXTBEGIN
1070
    73
1070
     1
1070
    44
1040
1.0
1070
    74
1070
     0
1000
MTEXTEND
  0
POINT
  5
32D
330
314
100
AcDbEntity
  8
DEFPOINTS
  6
Continuous
 62
     0
100
AcDbPoint
 10
59.731614
 20
-24.5506
 30
0.0
  0
POINT
  5
32E
330
314
100
AcDbEntity
  8
DEFPOINTS
  6
Continuous
 62
     0
100
AcDbPoint
 10
63.231614
 20
-24.3006
 30
0.0
  0
POINT
  5
32F
330
314
100
AcDbEntity
  8
DEFPOINTS
  6
Continuous
 62
     0
100
AcDbPoint
 10
63.231614
 20
-32.92179899358399
 30
0.0
  0
ENDBLK
  5
324
330
314
100
AcDbEntity
  8
0
100
AcDbBlockEnd
  0
BLOCK
  5
33B
330
331
100
AcDbEntity
  8
0
100
AcDbBlockBegin
  2
*D12
 70
     1
 10
0.0
 20
0.0
 30
0.0
  3
*D12
  1

  0
LINE
  5
332
330
331
100
AcDbEntity
  8
0
  6
Continuous
 62
     0
370
    13
100
AcDbLine
 10
-56.76838599999999
 20
-30.61612618723366
 30
0.0
 11
-56.76838599999999
 21
-39.97921313630962
 31
0.0
  0
LINE
  5
333
330
331
100
AcDbEntity
  8
0
  6
Continuous
 62
     0
370
    13
100
AcDbLine
 10
63.231614
 20
-30.61119949679199
 30
0.0
 11
63.231614
 21
-39.97921313630962
 31
0.0
  0
LINE
  5
334
330
331
100
AcDbEntity
  8
0
  6
Continuous
370
    13
100
AcDbLine
 10
-53.768386
 20
-38.97921313630962
 30
0.0
 11
60.23161400000001
 21
-38.97921313630962
 31
0.0
  0
INSERT
  5
335
330
331
100
AcDbEntity
  8
0
  6
Continuous
370
    13
100
AcDbBlockReference
  2
_OPEN30
 10
-56.76838599999999
 20
-38.97921313630962
 30
0.0
 41
3.0
 42
3.0
 43
3.0
 50
180.0
  0
INSERT
  5
336
330
331
100
AcDbEntity
  8
0
  6
Continuous
370
    13
100
AcDbBlockReference
  2
_OPEN30
 10
63.231614
 20
-38.97921313630962
 30
0.0
 41
3.0
 42
3.0
 43
3.0
  0
MTEXT
  5
337
330
331
100
AcDbEntity
  8
0
  6
Continuous
 62
     6
100
AcDbMText
 10
3.686018293430038
 20
-36.47921313630962
 30
0.0
 40
3.0
 41
0.0
 71
     5
 72
     1
  1
\A1;120
  7
Standard
 73
     1
 44
1.0
1001
ACAD
1000
MTEXTBEGIN
1070
    73
1070
     1
1070
    44
1040
1.0
1070
    74
1070
     0
1000
MTEXTEND
  0
POINT
  5
338
330
331
100
AcDbEntity
  8
DEFPOINTS
  6
Continuous
 62
     0
100
AcDbPoint
 10
-56.76838599999999
 20
-29.61612618723366
 30
0.0
  0
POINT
  5
339
330
331
100
AcDbEntity
  8
DEFPOINTS
  6
Continuous
 62
     0
100
AcDbPoint
 10
63.231614
 20
-29.61119949679199
 30
0.0
  0
POINT
  5
33A
330
331
100
AcDbEntity
  8
DEFPOINTS
  6
Continuous
 62
     0
100
AcDbPoint
 10
63.231614
 20
-38.97921313630962
 30
0.0
  0
ENDBLK
  5
33C
330
331
100
AcDbEntity
  8
0
100
AcDbBlockEnd
  0
BLOCK
  5
3F8
330
3EE
100
AcDbEntity
  8
0
100
AcDbBlockBegin
  2
*D13
 70
     1
 10
0.0
 20
0.0
 30
0.0
  3
*D13
  1

  0
LINE
  5
43B
330
3EE
100
AcDbEntity
  8
0
  6
Continuous
370
    13
100
AcDbLine
 10
226.0782378745127
 20
-26.41729963218653
 30
0.0
 11
198.0483792314579
 21
-26.41729963218654
 31
0.0
  0
LINE
  5
43C
330
3EE
100
AcDbEntity
  8
0
  6
Continuous
370
    13
100
AcDbLine
 10
198.0483792314579
 20
-26.41729963218654
 30
0.0
 11
191.8028922753473
 21
-17.1343702974807
 31
0.0
  0
MTEXT
  5
43D
102
{ACAD_XDICTIONARY
360
819
102
}
330
3EE
100
AcDbEntity
  8
0
  6
Continuous
 62
     6
100
AcDbMText
 10
216.1407378745127
 20
-22.79229963218654
 30
0.0
 40
3.0
 41
0.0
 71
     5
 72
     1
  1
\A1;2-\U+22054{\A1;\H0.75x;\S +0.1^  -0;}
  7
Standard
 73
     1
 44
1.0
1001
ACAD
1000
MTEXTBEGIN
1070
    73
1070
     1
1070
    44
1040
1.0
1070
    74
1070
     0
1000
MTEXTEND
  0
INSERT
  5
43E
330
3EE
100
AcDbEntity
  8
0
  6
Continuous
370
    13
100
AcDbBlockReference
  2
_OPEN30
 10
190.1282501096916
 20
-14.64527937567655
 30
0.0
 41
3.0
 42
3.0
 43
3.0
 50
123.9323775256974
  0
LINE
  5
43F
330
3EE
100
AcDbEntity
  8
0
  6
Continuous
 62
     0
370
    13
100
AcDbLine
 10
188.9218219992544
 20
-12.98588542780712
 30
0.0
 11
189.1018219992544
 21
-12.9858854278071
 31
0.0
  0
LINE
  5
440
330
3EE
100
AcDbEntity
  8
0
  6
Continuous
 62
     0
370
    13
100
AcDbLine
 10
189.0118219992544
 20
-13.07588542780711
 30
0.0
 11
189.0118219992544
 21
-12.8958854278071
 31
0.0
  0
LINE
  5
441
330
3EE
100
AcDbEntity
  8
0
  6
Continuous
 62
     0
370
    13
100
AcDbLine
 10
188.8318219992544
 20
-12.98588542780712
 30
0.0
 11
186.9218219992544
 21
-12.98588542780712
 31
0.0
  0
LINE
  5
442
330
3EE
100
AcDbEntity
  8
0
  6
Continuous
 62
     0
370
    13
100
AcDbLine
 10
189.1918219992544
 20
-12.98588542780712
 30
0.0
 11
191.1018219992544
 21
-12.98588542780712
 31
0.0
  0
LINE
  5
443
330
3EE
100
AcDbEntity
  8
0
  6
Continuous
 62
     0
370
    13
100
AcDbLine
 10
189.0118219992544
 20
-13.16588542780709
 30
0.0
 11
189.0118219992544
 21
-15.07588542780711
 31
0.0
  0
LINE
  5
444
330
3EE
100
AcDbEntity
  8
0
  6
Continuous
 62
     0
370
    13
100
AcDbLine
 10
189.0118219992544
 20
-12.80588542780711
 30
0.0
 11
189.0118219992544
 21
-10.8958854278071
 31
0.0
  0
POINT
  5
445
330
3EE
100
AcDbEntity
  8
DEFPOINTS
  6
Continuous
 62
     0
100
AcDbPoint
 10
190.1282501096916
 20
-14.64527937567655
 30
0.0
  0
POINT
  5
446
330
3EE
100
AcDbEntity
  8
DEFPOINTS
  6
Continuous
 62
     0
100
AcDbPoint
 10
187.8953938888171
 20
-11.32649147993767
 30
0.0
  0
ENDBLK
  5
3F9
330
3EE
100
AcDbEntity
  8
0
100
AcDbBlockEnd
  0
BLOCK
  5
42A
330
41E
100
AcDbEntity
  8
0
100
AcDbBlockBegin
  2
*D14
 70
     1
 10
0.0
 20
0.0
 30
0.0
  3
*D14
  1

  0
LINE
  5
41F
330
41E
100
AcDbEntity
  8
0
  6
Continuous
 62
     0
370
    13
100
AcDbLine
 10
183.0118219992544
 20
-17.98588542780716
 30
0.0
 11
173.9560693170219
 21
-17.98588542780716
 31
0.0
  0
LINE
  5
420
330
41E
100
AcDbEntity
  8
0
  6
Continuous
 62
     0
370
    13
100
AcDbLine
 10
185.9218219992543
 20
-12.98588542780712
 30
0.0
 11
173.9560693170219
 21
-12.98588542780711
 31
0.0
  0
LINE
  5
421
330
41E
100
AcDbEntity
  8
0
  6
Continuous
370
    13
100
AcDbLine
 10
174.9560693170219
 20
-20.98588542780715
 30
0.0
 11
174.9560693170219
 21
-23.98588542780716
 31
0.0
  0
LINE
  5
422
330
41E
100
AcDbEntity
  8
0
  6
Continuous
370
    13
100
AcDbLine
 10
174.9560693170219
 20
-9.985885427807117
 30
0.0
 11
174.9560693170219
 21
-6.985885427807117
 31
0.0
  0
LINE
  5
423
330
41E
100
AcDbEntity
  8
0
  6
Continuous
370
    13
100
AcDbLine
 10
174.9560693170219
 20
-17.98588542780716
 30
0.0
 11
174.9560693170219
 21
-12.98588542780711
 31
0.0
  0
INSERT
  5
424
330
41E
100
AcDbEntity
  8
0
  6
Continuous
370
    13
100
AcDbBlockReference
  2
_OPEN30
 10
174.9560693170219
 20
-17.98588542780716
 30
0.0
 41
3.0
 42
3.0
 43
3.0
 50
90.0
  0
INSERT
  5
425
330
41E
100
AcDbEntity
  8
0
  6
Continuous
370
    13
100
AcDbBlockReference
  2
_OPEN30
 10
174.9560693170219
 20
-12.98588542780711
 30
0.0
 41
3.0
 42
3.0
 43
3.0
 50
270.0
  0
MTEXT
  5
426
330
41E
100
AcDbEntity
  8
0
  6
Continuous
 62
     6
100
AcDbMText
 10
172.4560693170219
 20
-15.4858854278071
 30
0.0
 40
3.0
 41
0.0
 71
     5
 72
     1
  1
\A1;5
  7
Standard
 11
0.0000000000000001
 21
1.0
 31
0.0
 73
     1
 44
1.0
1001
ACAD
1000
MTEXTBEGIN
1070
    73
1070
     1
1070
    44
1040
1.0
1070
    74
1070
     0
1000
MTEXTEND
  0
POINT
  5
427
330
41E
100
AcDbEntity
  8
DEFPOINTS
  6
Continuous
 62
     0
100
AcDbPoint
 10
184.0118219992544
 20
-17.98588542780716
 30
0.0
  0
POINT
  5
428
330
41E
100
AcDbEntity
  8
DEFPOINTS
  6
Continuous
 62
     0
100
AcDbPoint
 10
186.9218219992544
 20
-12.98588542780712
 30
0.0
  0
POINT
  5
429
330
41E
100
AcDbEntity
  8
DEFPOINTS
  6
Continuous
 62
     0
100
AcDbPoint
 10
174.9560693170219
 20
-12.98588542780711
 30
0.0
  0
ENDBLK
  5
42B
330
41E
100
AcDbEntity
  8
0
100
AcDbBlockEnd
  0
BLOCK
  5
439
330
42D
100
AcDbEntity
  8
0
100
AcDbBlockBegin
  2
*D15
 70
     1
 10
0.0
 20
0.0
 30
0.0
  3
*D15
  1

  0
LINE
  5
42E
330
42D
100
AcDbEntity
  8
0
  6
Continuous
 62
     0
370
    13
100
AcDbLine
 10
184.0118219992544
 20
-18.98588542780714
 30
0.0
 11
184.0118219992544
 21
-27.41729963218654
 31
0.0
  0
LINE
  5
42F
330
42D
100
AcDbEntity
  8
0
  6
Continuous
 62
     0
370
    13
100
AcDbLine
 10
189.0118219992544
 20
-16.07588542780715
 30
0.0
 11
189.0118219992544
 21
-27.41729963218654
 31
0.0
  0
LINE
  5
430
330
42D
100
AcDbEntity
  8
0
  6
Continuous
370
    13
100
AcDbLine
 10
181.0118219992544
 20
-26.41729963218654
 30
0.0
 11
178.0118219992544
 21
-26.41729963218654
 31
0.0
  0
LINE
  5
431
330
42D
100
AcDbEntity
  8
0
  6
Continuous
370
    13
100
AcDbLine
 10
192.0118219992544
 20
-26.41729963218654
 30
0.0
 11
195.0118219992544
 21
-26.41729963218654
 31
0.0
  0
LINE
  5
432
330
42D
100
AcDbEntity
  8
0
  6
Continuous
370
    13
100
AcDbLine
 10
184.0118219992544
 20
-26.41729963218654
 30
0.0
 11
189.0118219992544
 21
-26.41729963218654
 31
0.0
  0
INSERT
  5
433
330
42D
100
AcDbEntity
  8
0
  6
Continuous
370
    13
100
AcDbBlockReference
  2
_OPEN30
 10
184.0118219992544
 20
-26.41729963218654
 30
0.0
 41
3.0
 42
3.0
 43
3.0
  0
INSERT
  5
434
330
42D
100
AcDbEntity
  8
0
  6
Continuous
370
    13
100
AcDbBlockReference
  2
_OPEN30
 10
189.0118219992544
 20
-26.41729963218654
 30
0.0
 41
3.0
 42
3.0
 43
3.0
 50
180.0
  0
MTEXT
  5
435
330
42D
100
AcDbEntity
  8
0
  6
Continuous
 62
     6
100
AcDbMText
 10
186.5118219992544
 20
-23.91729963218654
 30
0.0
 40
3.0
 41
0.0
 71
     5
 72
     1
  1
\A1;5
  7
Standard
 73
     1
 44
1.0
1001
ACAD
1000
MTEXTBEGIN
1070
    73
1070
     1
1070
    44
1040
1.0
1070
    74
1070
     0
1000
MTEXTEND
  0
POINT
  5
436
330
42D
100
AcDbEntity
  8
DEFPOINTS
  6
Continuous
 62
     0
100
AcDbPoint
 10
184.0118219992544
 20
-17.98588542780714
 30
0.0
  0
POINT
  5
437
330
42D
100
AcDbEntity
  8
DEFPOINTS
  6
Continuous
 62
     0
100
AcDbPoint
 10
189.0118219992544
 20
-15.07588542780715
 30
0.0
  0
POINT
  5
438
330
42D
100
AcDbEntity
  8
DEFPOINTS
  6
Continuous
 62
     0
100
AcDbPoint
 10
189.0118219992544
 20
-26.41729963218654
 30
0.0
  0
ENDBLK
  5
43A
330
42D
100
AcDbEntity
  8
0
100
AcDbBlockEnd
  0
BLOCK
  5
454
330
448
100
AcDbEntity
  8
0
100
AcDbBlockBegin
  2
*D16
 70
     1
 10
0.0
 20
0.0
 30
0.0
  3
*D16
  1

  0
LINE
  5
449
330
448
100
AcDbEntity
  8
0
  6
Continuous
 62
     0
370
    13
100
AcDbLine
 10
183.0118219992544
 20
-17.98588542780714
 30
0.0
 11
166.0796032331181
 21
-17.98588542780714
 31
0.0
  0
LINE
  5
44A
330
448
100
AcDbEntity
  8
0
  6
Continuous
 62
     0
370
    13
100
AcDbLine
 10
183.0118219992544
 20
-7.98588542780716
 30
0.0
 11
166.0796032331181
 21
-7.985885427807157
 31
0.0
  0
LINE
  5
44B
330
448
100
AcDbEntity
  8
0
  6
Continuous
370
    13
100
AcDbLine
 10
167.0796032331181
 20
-20.98588542780714
 30
0.0
 11
167.0796032331181
 21
-23.98588542780714
 31
0.0
  0
LINE
  5
44C
330
448
100
AcDbEntity
  8
0
  6
Continuous
370
    13
100
AcDbLine
 10
167.0796032331181
 20
-4.985885427807157
 30
0.0
 11
167.0796032331181
 21
-1.985885427807156
 31
0.0
  0
LINE
  5
44D
330
448
100
AcDbEntity
  8
0
  6
Continuous
370
    13
100
AcDbLine
 10
167.0796032331181
 20
-17.98588542780714
 30
0.0
 11
167.0796032331181
 21
-7.985885427807157
 31
0.0
  0
INSERT
  5
44E
330
448
100
AcDbEntity
  8
0
  6
Continuous
370
    13
100
AcDbBlockReference
  2
_OPEN30
 10
167.0796032331181
 20
-17.98588542780714
 30
0.0
 41
3.0
 42
3.0
 43
3.0
 50
90.0
  0
INSERT
  5
44F
330
448
100
AcDbEntity
  8
0
  6
Continuous
370
    13
100
AcDbBlockReference
  2
_OPEN30
 10
167.0796032331181
 20
-7.985885427807157
 30
0.0
 41
3.0
 42
3.0
 43
3.0
 50
270.0
  0
MTEXT
  5
450
330
448
100
AcDbEntity
  8
0
  6
Continuous
 62
     6
100
AcDbMText
 10
164.5796032331181
 20
-13.17548267552626
 30
0.0
 40
3.0
 41
0.0
 71
     5
 72
     1
  1
\A1;10
  7
Standard
 11
0.0000000000000001
 21
1.0
 31
0.0
 73
     1
 44
1.0
1001
ACAD
1000
MTEXTBEGIN
1070
    73
1070
     1
1070
    44
1040
1.0
1070
    74
1070
     0
1000
MTEXTEND
  0
POINT
  5
451
330
448
100
AcDbEntity
  8
DEFPOINTS
  6
Continuous
 62
     0
100
AcDbPoint
 10
184.0118219992544
 20
-17.98588542780714
 30
0.0
  0
POINT
  5
452
330
448
100
AcDbEntity
  8
DEFPOINTS
  6
Continuous
 62
     0
100
AcDbPoint
 10
184.0118219992544
 20
-7.98588542780716
 30
0.0
  0
POINT
  5
453
330
448
100
AcDbEntity
  8
DEFPOINTS
  6
Continuous
 62
     0
100
AcDbPoint
 10
167.0796032331181
 20
-7.985885427807157
 30
0.0
  0
ENDBLK
  5
455
330
448
100
AcDbEntity
  8
0
100
AcDbBlockEnd
  0
BLOCK
  5
461
330
457
100
AcDbEntity
  8
0
100
AcDbBlockBegin
  2
*D17
 70
     1
 10
0.0
 20
0.0
 30
0.0
  3
*D17
  1

  0
LINE
  5
458
330
457
100
AcDbEntity
  8
0
  6
Continuous
 62
     0
370
    13
100
AcDbLine
 10
183.0118219992544
 20
-7.98588542780716
 30
0.0
 11
166.0796032331181
 21
-7.985885427807157
 31
0.0
  0
LINE
  5
459
330
457
100
AcDbEntity
  8
0
  6
Continuous
 62
     0
370
    13
100
AcDbLine
 10
183.0118219992544
 20
112.0141145721928
 30
0.0
 11
166.0796032331182
 21
112.0141145721928
 31
0.0
  0
LINE
  5
45A
330
457
100
AcDbEntity
  8
0
  6
Continuous
370
    13
100
AcDbLine
 10
167.0796032331181
 20
-4.985885427807157
 30
0.0
 11
167.0796032331182
 21
109.0141145721928
 31
0.0
  0
INSERT
  5
45B
330
457
100
AcDbEntity
  8
0
  6
Continuous
370
    13
100
AcDbBlockReference
  2
_OPEN30
 10
167.0796032331181
 20
-7.985885427807157
 30
0.0
 41
3.0
 42
3.0
 43
3.0
 50
270.0
  0
INSERT
  5
45C
330
457
100
AcDbEntity
  8
0
  6
Continuous
370
    13
100
AcDbBlockReference
  2
_OPEN30
 10
167.0796032331182
 20
112.0141145721928
 30
0.0
 41
3.0
 42
3.0
 43
3.0
 50
90.0
  0
MTEXT
  5
45D
330
457
100
AcDbEntity
  8
0
  6
Continuous
 62
     6
100
AcDbMText
 10
164.5796032331181
 20
52.01411457219286
 30
0.0
 40
3.0
 41
0.0
 71
     5
 72
     1
  1
\A1;120
  7
Standard
 11
0.0000000000000001
 21
1.0
 31
0.0
 73
     1
 44
1.0
1001
ACAD
1000
MTEXTBEGIN
1070
    73
1070
     1
1070
    44
1040
1.0
1070
    74
1070
     0
1000
MTEXTEND
  0
POINT
  5
45E
330
457
100
AcDbEntity
  8
DEFPOINTS
  6
Continuous
 62
     0
100
AcDbPoint
 10
184.0118219992544
 20
-7.98588542780716
 30
0.0
  0
POINT
  5
45F
330
457
100
AcDbEntity
  8
DEFPOINTS
  6
Continuous
 62
     0
100
AcDbPoint
 10
184.0118219992544
 20
112.0141145721928
 30
0.0
  0
POINT
  5
460
330
457
100
AcDbEntity
  8
DEFPOINTS
  6
Continuous
 62
     0
100
AcDbPoint
 10
167.0796032331182
 20
112.0141145721928
 30
0.0
  0
ENDBLK
  5
462
330
457
100
AcDbEntity
  8
0
100
AcDbBlockEnd
  0
BLOCK
  5
46E
330
464
100
AcDbEntity
  8
0
100
AcDbBlockBegin
  2
*D18
 70
     1
 10
0.0
 20
0.0
 30
0.0
  3
*D18
  1

  0
LINE
  5
465
330
464
100
AcDbEntity
  8
0
  6
Continuous
 62
     0
370
    13
100
AcDbLine
 10
183.0118219992544
 20
112.0141145721928
 30
0.0
 11
166.0796032331182
 21
112.0141145721928
 31
0.0
  0
LINE
  5
466
330
464
100
AcDbEntity
  8
0
  6
Continuous
 62
     0
370
    13
100
AcDbLine
 10
183.0118219992544
 20
122.0141145721928
 30
0.0
 11
166.0796032331182
 21
122.0141145721928
 31
0.0
  0
LINE
  5
467
330
464
100
AcDbEntity
  8
0
  6
Continuous
370
    13
100
AcDbLine
 10
167.0796032331182
 20
115.0141145721928
 30
0.0
 11
167.0796032331182
 21
119.0141145721928
 31
0.0
  0
INSERT
  5
468
330
464
100
AcDbEntity
  8
0
  6
Continuous
370
    13
100
AcDbBlockReference
  2
_OPEN30
 10
167.0796032331182
 20
112.0141145721928
 30
0.0
 41
3.0
 42
3.0
 43
3.0
 50
270.0
  0
INSERT
  5
469
330
464
100
AcDbEntity
  8
0
  6
Continuous
370
    13
100
AcDbBlockReference
  2
_OPEN30
 10
167.0796032331182
 20
122.0141145721928
 30
0.0
 41
3.0
 42
3.0
 43
3.0
 50
90.0
  0
MTEXT
  5
46A
330
464
100
AcDbEntity
  8
0
  6
Continuous
 62
     6
100
AcDbMText
 10
164.5796032331181
 20
117.0141145721928
 30
0.0
 40
3.0
 41
0.0
 71
     5
 72
     1
  1
\A1;10
  7
Standard
 11
0.0000000000000001
 21
1.0
 31
0.0
 73
     1
 44
1.0
1001
ACAD
1000
MTEXTBEGIN
1070
    73
1070
     1
1070
    44
1040
1.0
1070
    74
1070
     0
1000
MTEXTEND
  0
POINT
  5
46B
330
464
100
AcDbEntity
  8
DEFPOINTS
  6
Continuous
 62
     0
100
AcDbPoint
 10
184.0118219992544
 20
112.0141145721928
 30
0.0
  0
POINT
  5
46C
330
464
100
AcDbEntity
  8
DEFPOINTS
  6
Continuous
 62
     0
100
AcDbPoint
 10
184.0118219992544
 20
122.0141145721928
 30
0.0
  0
POINT
  5
46D
330
464
100
AcDbEntity
  8
DEFPOINTS
  6
Continuous
 62
     0
100
AcDbPoint
 10
167.0796032331182
 20
122.0141145721928
 30
0.0
  0
ENDBLK
  5
46F
330
464
100
AcDbEntity
  8
0
100
AcDbBlockEnd
  0
BLOCK
  5
47D
330
471
100
AcDbEntity
  8
0
100
AcDbBlockBegin
  2
*D19
 70
     1
 10
0.0
 20
0.0
 30
0.0
  3
*D19
  1

  0
LINE
  5
472
330
471
100
AcDbEntity
  8
0
  6
Continuous
 62
     0
370
    13
100
AcDbLine
 10
184.0118219992544
 20
-18.98588542780714
 30
0.0
 11
184.0118219992544
 21
-37.49895223106808
 31
0.0
  0
LINE
  5
473
330
471
100
AcDbEntity
  8
0
  6
Continuous
 62
     0
370
    13
100
AcDbLine
 10
194.0118219992544
 20
-18.98588542780714
 30
0.0
 11
194.0118219992544
 21
-37.49895223106808
 31
0.0
  0
LINE
  5
474
330
471
100
AcDbEntity
  8
0
  6
Continuous
370
    13
100
AcDbLine
 10
181.0118219992544
 20
-36.49895223106808
 30
0.0
 11
178.0118219992544
 21
-36.49895223106808
 31
0.0
  0
LINE
  5
475
330
471
100
AcDbEntity
  8
0
  6
Continuous
370
    13
100
AcDbLine
 10
197.0118219992544
 20
-36.49895223106808
 30
0.0
 11
200.0118219992544
 21
-36.49895223106808
 31
0.0
  0
LINE
  5
476
330
471
100
AcDbEntity
  8
0
  6
Continuous
370
    13
100
AcDbLine
 10
184.0118219992544
 20
-36.49895223106808
 30
0.0
 11
194.0118219992544
 21
-36.49895223106808
 31
0.0
  0
INSERT
  5
477
330
471
100
AcDbEntity
  8
0
  6
Continuous
370
    13
100
AcDbBlockReference
  2
_OPEN30
 10
184.0118219992544
 20
-36.49895223106808
 30
0.0
 41
3.0
 42
3.0
 43
3.0
  0
INSERT
  5
478
330
471
100
AcDbEntity
  8
0
  6
Continuous
370
    13
100
AcDbBlockReference
  2
_OPEN30
 10
194.0118219992544
 20
-36.49895223106808
 30
0.0
 41
3.0
 42
3.0
 43
3.0
 50
180.0
  0
MTEXT
  5
479
330
471
100
AcDbEntity
  8
0
  6
Continuous
 62
     6
100
AcDbMText
 10
188.8258386319453
 20
-33.99895223106808
 30
0.0
 40
3.0
 41
0.0
 71
     5
 72
     1
  1
\A1;10
  7
Standard
 73
     1
 44
1.0
1001
ACAD
1000
MTEXTBEGIN
1070
    73
1070
     1
1070
    44
1040
1.0
1070
    74
1070
     0
1000
MTEXTEND
  0
POINT
  5
47A
330
471
100
AcDbEntity
  8
DEFPOINTS
  6
Continuous
 62
     0
100
AcDbPoint
 10
184.0118219992544
 20
-17.98588542780714
 30
0.0
  0
POINT
  5
47B
330
471
100
AcDbEntity
  8
DEFPOINTS
  6
Continuous
 62
     0
100
AcDbPoint
 10
194.0118219992544
 20
-17.98588542780714
 30
0.0
  0
POINT
  5
47C
330
471
100
AcDbEntity
  8
DEFPOINTS
  6
Continuous
 62
     0
100
AcDbPoint
 10
194.0118219992544
 20
-36.49895223106808
 30
0.0
  0
ENDBLK
  5
47E
330
471
100
AcDbEntity
  8
0
100
AcDbBlockEnd
  0
BLOCK
  5
48A
330
480
100
AcDbEntity
  8
0
100
AcDbBlockBegin
  2
*D20
 70
     1
 10
0.0
 20
0.0
 30
0.0
  3
*D20
  1

  0
LINE
  5
481
330
480
100
AcDbEntity
  8
0
  6
Continuous
 62
     0
370
    13
100
AcDbLine
 10
194.0118219992544
 20
-18.98588542780714
 30
0.0
 11
194.0118219992544
 21
-37.49895223106808
 31
0.0
  0
LINE
  5
482
330
480
100
AcDbEntity
  8
0
  6
Continuous
 62
     0
370
    13
100
AcDbLine
 10
264.0118219992544
 20
-18.98588542780717
 30
0.0
 11
264.0118219992544
 21
-37.49895223106808
 31
0.0
  0
LINE
  5
483
330
480
100
AcDbEntity
  8
0
  6
Continuous
370
    13
100
AcDbLine
 10
197.0118219992544
 20
-36.49895223106808
 30
0.0
 11
261.0118219992545
 21
-36.49895223106808
 31
0.0
  0
INSERT
  5
484
330
480
100
AcDbEntity
  8
0
  6
Continuous
370
    13
100
AcDbBlockReference
  2
_OPEN30
 10
194.0118219992544
 20
-36.49895223106808
 30
0.0
 41
3.0
 42
3.0
 43
3.0
 50
180.0
  0
INSERT
  5
485
330
480
100
AcDbEntity
  8
0
  6
Continuous
370
    13
100
AcDbBlockReference
  2
_OPEN30
 10
264.0118219992544
 20
-36.49895223106808
 30
0.0
 41
3.0
 42
3.0
 43
3.0
  0
MTEXT
  5
486
330
480
100
AcDbEntity
  8
0
  6
Continuous
 62
     6
100
AcDbMText
 10
229.0118219992544
 20
-33.99895223106808
 30
0.0
 40
3.0
 41
0.0
 71
     5
 72
     1
  1
\A1;70
  7
Standard
 73
     1
 44
1.0
1001
ACAD
1000
MTEXTBEGIN
1070
    73
1070
     1
1070
    44
1040
1.0
1070
    74
1070
     0
1000
MTEXTEND
  0
POINT
  5
487
330
480
100
AcDbEntity
  8
DEFPOINTS
  6
Continuous
 62
     0
100
AcDbPoint
 10
194.0118219992544
 20
-17.98588542780714
 30
0.0
  0
POINT
  5
488
330
480
100
AcDbEntity
  8
DEFPOINTS
  6
Continuous
 62
     0
100
AcDbPoint
 10
264.0118219992544
 20
-17.98588542780717
 30
0.0
  0
POINT
  5
489
330
480
100
AcDbEntity
  8
DEFPOINTS
  6
Continuous
 62
     0
100
AcDbPoint
 10
264.0118219992544
 20
-36.49895223106808
 30
0.0
  0
ENDBLK
  5
48B
330
480
100
AcDbEntity
  8
0
100
AcDbBlockEnd
  0
BLOCK
  5
497
330
48D
100
AcDbEntity
  8
0
100
AcDbBlockBegin
  2
*D21
 70
     1
 10
0.0
 20
0.0
 30
0.0
  3
*D21
  1

  0
LINE
  5
48E
330
48D
100
AcDbEntity
  8
0
  6
Continuous
 62
     0
370
    13
100
AcDbLine
 10
264.0118219992544
 20
-18.98588542780717
 30
0.0
 11
264.0118219992544
 21
-37.49895223106808
 31
0.0
  0
LINE
  5
48F
330
48D
100
AcDbEntity
  8
0
  6
Continuous
 62
     0
370
    13
100
AcDbLine
 10
334.0118219992544
 20
-18.98588542780714
 30
0.0
 11
334.0118219992544
 21
-37.49895223106808
 31
0.0
  0
LINE
  5
490
330
48D
100
AcDbEntity
  8
0
  6
Continuous
370
    13
100
AcDbLine
 10
267.0118219992545
 20
-36.49895223106808
 30
0.0
 11
331.0118219992544
 21
-36.49895223106808
 31
0.0
  0
INSERT
  5
491
330
48D
100
AcDbEntity
  8
0
  6
Continuous
370
    13
100
AcDbBlockReference
  2
_OPEN30
 10
264.0118219992544
 20
-36.49895223106808
 30
0.0
 41
3.0
 42
3.0
 43
3.0
 50
180.0
  0
INSERT
  5
492
330
48D
100
AcDbEntity
  8
0
  6
Continuous
370
    13
100
AcDbBlockReference
  2
_OPEN30
 10
334.0118219992544
 20
-36.49895223106808
 30
0.0
 41
3.0
 42
3.0
 43
3.0
  0
MTEXT
  5
493
330
48D
100
AcDbEntity
  8
0
  6
Continuous
 62
     6
100
AcDbMText
 10
299.0118219992544
 20
-33.99895223106808
 30
0.0
 40
3.0
 41
0.0
 71
     5
 72
     1
  1
\A1;70
  7
Standard
 73
     1
 44
1.0
1001
ACAD
1000
MTEXTBEGIN
1070
    73
1070
     1
1070
    44
1040
1.0
1070
    74
1070
     0
1000
MTEXTEND
  0
POINT
  5
494
330
48D
100
AcDbEntity
  8
DEFPOINTS
  6
Continuous
 62
     0
100
AcDbPoint
 10
264.0118219992544
 20
-17.98588542780717
 30
0.0
  0
POINT
  5
495
330
48D
100
AcDbEntity
  8
DEFPOINTS
  6
Continuous
 62
     0
100
AcDbPoint
 10
334.0118219992544
 20
-17.98588542780714
 30
0.0
  0
POINT
  5
496
330
48D
100
AcDbEntity
  8
DEFPOINTS
  6
Continuous
 62
     0
100
AcDbPoint
 10
334.0118219992544
 20
-36.49895223106808
 30
0.0
  0
ENDBLK
  5
498
330
48D
100
AcDbEntity
  8
0
100
AcDbBlockEnd
  0
BLOCK
  5
4A4
330
49A
100
AcDbEntity
  8
0
100
AcDbBlockBegin
  2
*D22
 70
     1
 10
0.0
 20
0.0
 30
0.0
  3
*D22
  1

  0
LINE
  5
49B
330
49A
100
AcDbEntity
  8
0
  6
Continuous
 62
     0
370
    13
100
AcDbLine
 10
334.0118219992544
 20
-18.98588542780714
 30
0.0
 11
334.0118219992544
 21
-37.49895223106808
 31
0.0
  0
LINE
  5
49C
330
49A
100
AcDbEntity
  8
0
  6
Continuous
 62
     0
370
    13
100
AcDbLine
 10
404.0118219992543
 20
-18.98588542780714
 30
0.0
 11
404.0118219992543
 21
-37.49895223106808
 31
0.0
  0
LINE
  5
49D
330
49A
100
AcDbEntity
  8
0
  6
Continuous
370
    13
100
AcDbLine
 10
337.0118219992544
 20
-36.49895223106808
 30
0.0
 11
401.0118219992543
 21
-36.49895223106808
 31
0.0
  0
INSERT
  5
49E
330
49A
100
AcDbEntity
  8
0
  6
Continuous
370
    13
100
AcDbBlockReference
  2
_OPEN30
 10
334.0118219992544
 20
-36.49895223106808
 30
0.0
 41
3.0
 42
3.0
 43
3.0
 50
180.0
  0
INSERT
  5
49F
330
49A
100
AcDbEntity
  8
0
  6
Continuous
370
    13
100
AcDbBlockReference
  2
_OPEN30
 10
404.0118219992543
 20
-36.49895223106808
 30
0.0
 41
3.0
 42
3.0
 43
3.0
  0
MTEXT
  5
4A0
330
49A
100
AcDbEntity
  8
0
  6
Continuous
 62
     6
100
AcDbMText
 10
369.0118219992544
 20
-33.99895223106808
 30
0.0
 40
3.0
 41
0.0
 71
     5
 72
     1
  1
\A1;70
  7
Standard
 73
     1
 44
1.0
1001
ACAD
1000
MTEXTBEGIN
1070
    73
1070
     1
1070
    44
1040
1.0
1070
    74
1070
     0
1000
MTEXTEND
  0
POINT
  5
4A1
330
49A
100
AcDbEntity
  8
DEFPOINTS
  6
Continuous
 62
     0
100
AcDbPoint
 10
334.0118219992544
 20
-17.98588542780714
 30
0.0
  0
POINT
  5
4A2
330
49A
100
AcDbEntity
  8
DEFPOINTS
  6
Continuous
 62
     0
100
AcDbPoint
 10
404.0118219992543
 20
-17.98588542780714
 30
0.0
  0
POINT
  5
4A3
330
49A
100
AcDbEntity
  8
DEFPOINTS
  6
Continuous
 62
     0
100
AcDbPoint
 10
404.0118219992543
 20
-36.49895223106808
 30
0.0
  0
ENDBLK
  5
4A5
330
49A
100
AcDbEntity
  8
0
100
AcDbBlockEnd
  0
BLOCK
  5
4B1
330
4A7
100
AcDbEntity
  8
0
100
AcDbBlockBegin
  2
*D23
 70
     1
 10
0.0
 20
0.0
 30
0.0
  3
*D23
  1

  0
LINE
  5
4A8
330
4A7
100
AcDbEntity
  8
0
  6
Continuous
 62
     0
370
    13
100
AcDbLine
 10
404.0118219992543
 20
-18.98588542780714
 30
0.0
 11
404.0118219992543
 21
-37.49895223106808
 31
0.0
  0
LINE
  5
4A9
330
4A7
100
AcDbEntity
  8
0
  6
Continuous
 62
     0
370
    13
100
AcDbLine
 10
474.0118219992544
 20
-18.98588542780722
 30
0.0
 11
474.0118219992544
 21
-37.49895223106808
 31
0.0
  0
LINE
  5
4AA
330
4A7
100
AcDbEntity
  8
0
  6
Continuous
370
    13
100
AcDbLine
 10
407.0118219992544
 20
-36.49895223106808
 30
0.0
 11
471.0118219992543
 21
-36.49895223106808
 31
0.0
  0
INSERT
  5
4AB
330
4A7
100
AcDbEntity
  8
0
  6
Continuous
370
    13
100
AcDbBlockReference
  2
_OPEN30
 10
404.0118219992543
 20
-36.49895223106808
 30
0.0
 41
3.0
 42
3.0
 43
3.0
 50
180.0
  0
INSERT
  5
4AC
330
4A7
100
AcDbEntity
  8
0
  6
Continuous
370
    13
100
AcDbBlockReference
  2
_OPEN30
 10
474.0118219992544
 20
-36.49895223106808
 30
0.0
 41
3.0
 42
3.0
 43
3.0
  0
MTEXT
  5
4AD
330
4A7
100
AcDbEntity
  8
0
  6
Continuous
 62
     6
100
AcDbMText
 10
439.0118219992545
 20
-33.99895223106808
 30
0.0
 40
3.0
 41
0.0
 71
     5
 72
     1
  1
\A1;70
  7
Standard
 73
     1
 44
1.0
1001
ACAD
1000
MTEXTBEGIN
1070
    73
1070
     1
1070
    44
1040
1.0
1070
    74
1070
     0
1000
MTEXTEND
  0
POINT
  5
4AE
330
4A7
100
AcDbEntity
  8
DEFPOINTS
  6
Continuous
 62
     0
100
AcDbPoint
 10
404.0118219992543
 20
-17.98588542780714
 30
0.0
  0
POINT
  5
4AF
330
4A7
100
AcDbEntity
  8
DEFPOINTS
  6
Continuous
 62
     0
100
AcDbPoint
 10
474.0118219992544
 20
-17.98588542780722
 30
0.0
  0
POINT
  5
4B0
330
4A7
100
AcDbEntity
  8
DEFPOINTS
  6
Continuous
 62
     0
100
AcDbPoint
 10
474.0118219992544
 20
-36.49895223106808
 30
0.0
  0
ENDBLK
  5
4B2
330
4A7
100
AcDbEntity
  8
0
100
AcDbBlockEnd
  0
BLOCK
  5
4BE
330
4B4
100
AcDbEntity
  8
0
100
AcDbBlockBegin
  2
*D24
 70
     1
 10
0.0
 20
0.0
 30
0.0
  3
*D24
  1

  0
LINE
  5
4B5
330
4B4
100
AcDbEntity
  8
0
  6
Continuous
 62
     0
370
    13
100
AcDbLine
 10
474.0118219992544
 20
-18.98588542780722
 30
0.0
 11
474.0118219992544
 21
-37.49895223106808
 31
0.0
  0
LINE
  5
4B6
330
4B4
100
AcDbEntity
  8
0
  6
Continuous
 62
     0
370
    13
100
AcDbLine
 10
484.0118219992545
 20
-18.98588542780722
 30
0.0
 11
484.0118219992545
 21
-37.49895223106808
 31
0.0
  0
LINE
  5
4B7
330
4B4
100
AcDbEntity
  8
0
  6
Continuous
370
    13
100
AcDbLine
 10
477.0118219992546
 20
-36.49895223106808
 30
0.0
 11
481.0118219992545
 21
-36.49895223106808
 31
0.0
  0
INSERT
  5
4B8
330
4B4
100
AcDbEntity
  8
0
  6
Continuous
370
    13
100
AcDbBlockReference
  2
_OPEN30
 10
474.0118219992544
 20
-36.49895223106808
 30
0.0
 41
3.0
 42
3.0
 43
3.0
 50
180.0
  0
INSERT
  5
4B9
330
4B4
100
AcDbEntity
  8
0
  6
Continuous
370
    13
100
AcDbBlockReference
  2
_OPEN30
 10
484.0118219992545
 20
-36.49895223106808
 30
0.0
 41
3.0
 42
3.0
 43
3.0
  0
MTEXT
  5
4BA
330
4B4
100
AcDbEntity
  8
0
  6
Continuous
 62
     6
100
AcDbMText
 10
479.0118219992543
 20
-33.99895223106808
 30
0.0
 40
3.0
 41
0.0
 71
     5
 72
     1
  1
\A1;10
  7
Standard
 73
     1
 44
1.0
1001
ACAD
1000
MTEXTBEGIN
1070
    73
1070
     1
1070
    44
1040
1.0
1070
    74
1070
     0
1000
MTEXTEND
  0
POINT
  5
4BB
330
4B4
100
AcDbEntity
  8
DEFPOINTS
  6
Continuous
 62
     0
100
AcDbPoint
 10
474.0118219992544
 20
-17.98588542780722
 30
0.0
  0
POINT
  5
4BC
330
4B4
100
AcDbEntity
  8
DEFPOINTS
  6
Continuous
 62
     0
100
AcDbPoint
 10
484.0118219992545
 20
-17.98588542780722
 30
0.0
  0
POINT
  5
4BD
330
4B4
100
AcDbEntity
  8
DEFPOINTS
  6
Continuous
 62
     0
100
AcDbPoint
 10
484.0118219992545
 20
-36.49895223106808
 30
0.0
  0
ENDBLK
  5
4BF
330
4B4
100
AcDbEntity
  8
0
100
AcDbBlockEnd
  0
BLOCK
  5
4DC
330
4D0
100
AcDbEntity
  8
0
100
AcDbBlockBegin
  2
*D25
 70
     1
 10
0.0
 20
0.0
 30
0.0
  3
*D25
  1

  0
LINE
  5
5A8
330
4D0
100
AcDbEntity
  8
0
  6
Continuous
 62
     0
370
    13
100
AcDbLine
 10
480.0118219992545
 20
-12.98588542780723
 30
0.0
 11
494.4342113016291
 21
-12.98588542780723
 31
0.0
  0
LINE
  5
5A9
330
4D0
100
AcDbEntity
  8
0
  6
Continuous
 62
     0
370
    13
100
AcDbLine
 10
485.0118219992545
 20
-17.98588542780722
 30
0.0
 11
494.4342113016291
 21
-17.98588542780723
 31
0.0
  0
LINE
  5
5AA
330
4D0
100
AcDbEntity
  8
0
  6
Continuous
370
    13
100
AcDbLine
 10
493.4342113016291
 20
-9.985885427807236
 30
0.0
 11
493.4342113016291
 21
-6.985885427807235
 31
0.0
  0
LINE
  5
5AB
330
4D0
100
AcDbEntity
  8
0
  6
Continuous
370
    13
100
AcDbLine
 10
493.4342113016291
 20
-20.98588542780722
 30
0.0
 11
493.4342113016291
 21
-23.98588542780723
 31
0.0
  0
LINE
  5
5AC
330
4D0
100
AcDbEntity
  8
0
  6
Continuous
370
    13
100
AcDbLine
 10
493.4342113016291
 20
-12.98588542780723
 30
0.0
 11
493.4342113016291
 21
-17.98588542780723
 31
0.0
  0
INSERT
  5
5AD
330
4D0
100
AcDbEntity
  8
0
  6
Continuous
370
    13
100
AcDbBlockReference
  2
_OPEN30
 10
493.4342113016291
 20
-12.98588542780723
 30
0.0
 41
3.0
 42
3.0
 43
3.0
 50
270.0
  0
INSERT
  5
5AE
330
4D0
100
AcDbEntity
  8
0
  6
Continuous
370
    13
100
AcDbBlockReference
  2
_OPEN30
 10
493.4342113016291
 20
-17.98588542780723
 30
0.0
 41
3.0
 42
3.0
 43
3.0
 50
90.0
  0
MTEXT
  5
5AF
330
4D0
100
AcDbEntity
  8
0
  6
Continuous
 62
     6
100
AcDbMText
 10
490.9342113016291
 20
-15.48588542780715
 30
0.0
 40
3.0
 41
0.0
 71
     5
 72
     1
  1
\A1;5
  7
Standard
 11
0.0000000000000001
 21
1.0
 31
0.0
 73
     1
 44
1.0
1001
ACAD
1000
MTEXTBEGIN
1070
    73
1070
     1
1070
    44
1040
1.0
1070
    74
1070
     0
1000
MTEXTEND
  0
POINT
  5
5B0
330
4D0
100
AcDbEntity
  8
DEFPOINTS
  6
Continuous
 62
     0
100
AcDbPoint
 10
479.0118219992543
 20
-12.98588542780723
 30
0.0
  0
POINT
  5
5B1
330
4D0
100
AcDbEntity
  8
DEFPOINTS
  6
Continuous
 62
     0
100
AcDbPoint
 10
484.0118219992545
 20
-17.98588542780722
 30
0.0
  0
POINT
  5
5B2
330
4D0
100
AcDbEntity
  8
DEFPOINTS
  6
Continuous
 62
     0
100
AcDbPoint
 10
493.4342113016291
 20
-17.98588542780723
 30
0.0
  0
ENDBLK
  5
4DD
330
4D0
100
AcDbEntity
  8
0
100
AcDbBlockEnd
  0
BLOCK
  5
4E9
330
4DF
100
AcDbEntity
  8
0
100
AcDbBlockBegin
  2
*D26
 70
     1
 10
0.0
 20
0.0
 30
0.0
  3
*D26
  1

  0
LINE
  5
4E0
330
4DF
100
AcDbEntity
  8
0
  6
Continuous
 62
     0
370
    13
100
AcDbLine
 10
183.0118219992544
 20
122.0141145721928
 30
0.0
 11
155.8403581883178
 21
122.0141145721928
 31
0.0
  0
LINE
  5
4E1
330
4DF
100
AcDbEntity
  8
0
  6
Continuous
 62
     0
370
    13
100
AcDbLine
 10
183.0118219992544
 20
-17.98588542780716
 30
0.0
 11
155.8403581883178
 21
-17.98588542780715
 31
0.0
  0
LINE
  5
4E2
330
4DF
100
AcDbEntity
  8
0
  6
Continuous
370
    13
100
AcDbLine
 10
156.8403581883178
 20
119.0141145721928
 30
0.0
 11
156.8403581883178
 21
-14.98588542780715
 31
0.0
  0
INSERT
  5
4E3
330
4DF
100
AcDbEntity
  8
0
  6
Continuous
370
    13
100
AcDbBlockReference
  2
_OPEN30
 10
156.8403581883178
 20
122.0141145721928
 30
0.0
 41
3.0
 42
3.0
 43
3.0
 50
90.0
  0
INSERT
  5
4E4
330
4DF
100
AcDbEntity
  8
0
  6
Continuous
370
    13
100
AcDbBlockReference
  2
_OPEN30
 10
156.8403581883178
 20
-17.98588542780715
 30
0.0
 41
3.0
 42
3.0
 43
3.0
 50
270.0
  0
MTEXT
  5
4E5
330
4DF
100
AcDbEntity
  8
0
  6
Continuous
 62
     6
100
AcDbMText
 10
154.3403581883178
 20
51.50820825770131
 30
0.0
 40
3.0
 41
0.0
 71
     5
 72
     1
  1
\A1;140
  7
Standard
 11
0.0000000000000001
 21
1.0
 31
0.0
 73
     1
 44
1.0
1001
ACAD
1000
MTEXTBEGIN
1070
    73
1070
     1
1070
    44
1040
1.0
1070
    74
1070
     0
1000
MTEXTEND
  0
POINT
  5
4E6
330
4DF
100
AcDbEntity
  8
DEFPOINTS
  6
Continuous
 62
     0
100
AcDbPoint
 10
184.0118219992544
 20
122.0141145721928
 30
0.0
  0
POINT
  5
4E7
330
4DF
100
AcDbEntity
  8
DEFPOINTS
  6
Continuous
 62
     0
100
AcDbPoint
 10
184.0118219992544
 20
-17.98588542780716
 30
0.0
  0
POINT
  5
4E8
330
4DF
100
AcDbEntity
  8
DEFPOINTS
  6
Continuous
 62
     0
100
AcDbPoint
 10
156.8403581883178
 20
-17.98588542780715
 30
0.0
  0
ENDBLK
  5
4EA
330
4DF
100
AcDbEntity
  8
0
100
AcDbBlockEnd
  0
BLOCK
  5
4F6
330
4EC
100
AcDbEntity
  8
0
100
AcDbBlockBegin
  2
*D27
 70
     1
 10
0.0
 20
0.0
 30
0.0
  3
*D27
  1

  0
LINE
  5
4ED
330
4EC
100
AcDbEntity
  8
0
  6
Continuous
 62
     0
370
    13
100
AcDbLine
 10
184.0118219992544
 20
-29.24241882943761
 30
0.0
 11
184.0118219992544
 21
-47.49659948822682
 31
0.0
  0
LINE
  5
4EE
330
4EC
100
AcDbEntity
  8
0
  6
Continuous
 62
     0
370
    13
100
AcDbLine
 10
484.0118219992545
 20
-29.24241882943764
 30
0.0
 11
484.0118219992545
 21
-47.49659948822682
 31
0.0
  0
LINE
  5
4EF
330
4EC
100
AcDbEntity
  8
0
  6
Continuous
370
    13
100
AcDbLine
 10
187.0118219992544
 20
-46.49659948822682
 30
0.0
 11
481.0118219992545
 21
-46.49659948822682
 31
0.0
  0
INSERT
  5
4F0
330
4EC
100
AcDbEntity
  8
0
  6
Continuous
370
    13
100
AcDbBlockReference
  2
_OPEN30
 10
184.0118219992544
 20
-46.49659948822682
 30
0.0
 41
3.0
 42
3.0
 43
3.0
 50
180.0
  0
INSERT
  5
4F1
330
4EC
100
AcDbEntity
  8
0
  6
Continuous
370
    13
100
AcDbBlockReference
  2
_OPEN30
 10
484.0118219992545
 20
-46.49659948822682
 30
0.0
 41
3.0
 42
3.0
 43
3.0
  0
MTEXT
  5
4F2
330
4EC
100
AcDbEntity
  8
0
  6
Continuous
 62
     6
100
AcDbMText
 10
334.1995908435319
 20
-43.99659948822682
 30
0.0
 40
3.0
 41
0.0
 71
     5
 72
     1
  1
\A1;300
  7
Standard
 73
     1
 44
1.0
1001
ACAD
1000
MTEXTBEGIN
1070
    73
1070
     1
1070
    44
1040
1.0
1070
    74
1070
     0
1000
MTEXTEND
  0
POINT
  5
4F3
330
4EC
100
AcDbEntity
  8
DEFPOINTS
  6
Continuous
 62
     0
100
AcDbPoint
 10
184.0118219992544
 20
-28.24241882943761
 30
0.0
  0
POINT
  5
4F4
330
4EC
100
AcDbEntity
  8
DEFPOINTS
  6
Continuous
 62
     0
100
AcDbPoint
 10
484.0118219992545
 20
-28.24241882943764
 30
0.0
  0
POINT
  5
4F5
330
4EC
100
AcDbEntity
  8
DEFPOINTS
  6
Continuous
 62
     0
100
AcDbPoint
 10
484.0118219992545
 20
-46.49659948822682
 30
0.0
  0
ENDBLK
  5
4F7
330
4EC
100
AcDbEntity
  8
0
100
AcDbBlockEnd
  0
BLOCK
  5
59B
330
58F
100
AcDbEntity
  8
0
100
AcDbBlockBegin
  2
*D28
 70
     1
 10
0.0
 20
0.0
 30
0.0
  3
*D28
  1

  0
LINE
  5
590
330
58F
100
AcDbEntity
  8
0
  6
Continuous
 62
     0
370
    13
100
AcDbLine
 10
484.0118219992545
 20
-18.9858854278072
 30
0.0
 11
484.0118219992545
 21
-27.8966045139764
 31
0.0
  0
LINE
  5
591
330
58F
100
AcDbEntity
  8
0
  6
Continuous
 62
     0
370
    13
100
AcDbLine
 10
479.0118219992543
 20
-13.98588542780723
 30
0.0
 11
479.0118219992543
 21
-27.8966045139764
 31
0.0
  0
LINE
  5
592
330
58F
100
AcDbEntity
  8
0
  6
Continuous
370
    13
100
AcDbLine
 10
487.0118219992543
 20
-26.8966045139764
 30
0.0
 11
490.0118219992545
 21
-26.8966045139764
 31
0.0
  0
LINE
  5
593
330
58F
100
AcDbEntity
  8
0
  6
Continuous
370
    13
100
AcDbLine
 10
476.0118219992545
 20
-26.8966045139764
 30
0.0
 11
473.0118219992546
 21
-26.8966045139764
 31
0.0
  0
LINE
  5
594
330
58F
100
AcDbEntity
  8
0
  6
Continuous
370
    13
100
AcDbLine
 10
484.0118219992545
 20
-26.8966045139764
 30
0.0
 11
479.0118219992543
 21
-26.8966045139764
 31
0.0
  0
INSERT
  5
595
330
58F
100
AcDbEntity
  8
0
  6
Continuous
370
    13
100
AcDbBlockReference
  2
_OPEN30
 10
484.0118219992545
 20
-26.8966045139764
 30
0.0
 41
3.0
 42
3.0
 43
3.0
 50
180.0
  0
INSERT
  5
596
330
58F
100
AcDbEntity
  8
0
  6
Continuous
370
    13
100
AcDbBlockReference
  2
_OPEN30
 10
479.0118219992543
 20
-26.8966045139764
 30
0.0
 41
3.0
 42
3.0
 43
3.0
  0
MTEXT
  5
597
330
58F
100
AcDbEntity
  8
0
  6
Continuous
 62
     6
100
AcDbMText
 10
481.5118219992545
 20
-24.3966045139764
 30
0.0
 40
3.0
 41
0.0
 71
     5
 72
     1
  1
\A1;5
  7
Standard
 73
     1
 44
1.0
1001
ACAD
1000
MTEXTBEGIN
1070
    73
1070
     1
1070
    44
1040
1.0
1070
    74
1070
     0
1000
MTEXTEND
  0
POINT
  5
598
330
58F
100
AcDbEntity
  8
DEFPOINTS
  6
Continuous
 62
     0
100
AcDbPoint
 10
484.0118219992545
 20
-17.9858854278072
 30
0.0
  0
POINT
  5
599
330
58F
100
AcDbEntity
  8
DEFPOINTS
  6
Continuous
 62
     0
100
AcDbPoint
 10
479.0118219992543
 20
-12.98588542780723
 30
0.0
  0
POINT
  5
59A
330
58F
100
AcDbEntity
  8
DEFPOINTS
  6
Continuous
 62
     0
100
AcDbPoint
 10
479.0118219992543
 20
-26.8966045139764
 30
0.0
  0
ENDBLK
  5
59C
330
58F
100
AcDbEntity
  8
0
100
AcDbBlockEnd
  0
BLOCK
  5
5EA
330
5DD
100
AcDbEntity
  8
0
100
AcDbBlockBegin
  2
*D29
 70
     1
 10
0.0
 20
0.0
 30
0.0
  3
*D29
  1

  0
LINE
  5
6C7
330
5DD
100
AcDbEntity
  8
0
  6
Continuous
 62
     0
370
    -2
100
AcDbLine
 10
-56.268386
 20
-85.48890201444292
 30
0.0
 11
-61.37122642742611
 21
-85.48890201444292
 31
0.0
  0
LINE
  5
6C8
330
5DD
100
AcDbEntity
  8
0
  6
Continuous
 62
     0
370
    -2
100
AcDbLine
 10
-57.768386
 20
-80.48890201444292
 30
0.0
 11
-61.37122642742611
 21
-80.48890201444292
 31
0.0
  0
LINE
  5
6C9
330
5DD
100
AcDbEntity
  8
0
  6
Continuous
 62
     0
370
    -2
100
AcDbLine
 10
-60.37122642742613
 20
-80.48890201444292
 30
0.0
 11
-60.37122642742613
 21
-82.48890201444289
 31
0.0
  0
LINE
  5
6CA
330
5DD
100
AcDbEntity
  8
0
  6
Continuous
 62
     0
370
    -2
100
AcDbLine
 10
-60.37122642742613
 20
-85.48890201444292
 30
0.0
 11
-60.37122642742613
 21
-96.74490201444292
 31
0.0
  0
INSERT
  5
6CB
330
5DD
100
AcDbEntity
  8
0
  6
Continuous
 62
     0
370
    -2
100
AcDbBlockReference
  2
_DotSmall
 10
-60.37122642742613
 20
-80.48890201444292
 30
0.0
 41
3.0
 42
3.0
 43
3.0
 50
90.0
  0
INSERT
  5
6CC
330
5DD
100
AcDbEntity
  8
0
  6
Continuous
 62
     0
370
    -2
100
AcDbBlockReference
  2
_OPEN30
 10
-60.37122642742613
 20
-85.48890201444292
 30
0.0
 41
3.0
 42
3.0
 43
3.0
 50
270.0
  0
MTEXT
  5
6CD
330
5DD
100
AcDbEntity
  8
0
  6
Continuous
 62
     6
100
AcDbMText
 10
-62.52122642742611
 20
-92.61690201444292
 30
0.0
 40
2.299999999999998
 41
0.0
 71
     5
 72
     1
  1
\A1;5以上
  7
幅0.8高さ2.3
 11
0.0000000000000001
 21
1.0
 31
0.0
 73
     1
 44
1.0
1001
ACAD
1000
MTEXTBEGIN
1070
    73
1070
     1
1070
    44
1040
1.0
1070
    74
1070
     0
1000
MTEXTEND
  0
POINT
  5
6CE
330
5DD
100
AcDbEntity
  8
DEFPOINTS
  6
Continuous
 62
     0
100
AcDbPoint
 10
-55.268386
 20
-85.48890201444292
 30
0.0
  0
POINT
  5
6CF
330
5DD
100
AcDbEntity
  8
DEFPOINTS
  6
Continuous
 62
     0
100
AcDbPoint
 10
-56.76838599999999
 20
-80.48890201444292
 30
0.0
  0
POINT
  5
6D0
330
5DD
100
AcDbEntity
  8
DEFPOINTS
  6
Continuous
 62
     0
100
AcDbPoint
 10
-60.37122642742613
 20
-80.48890201444292
 30
0.0
  0
ENDBLK
  5
5EB
330
5DD
100
AcDbEntity
  8
0
100
AcDbBlockEnd
  0
BLOCK
  5
642
330
635
100
AcDbEntity
  8
0
100
AcDbBlockBegin
  2
*D30
 70
     1
 10
0.0
 20
0.0
 30
0.0
  3
*D30
  1

  0
LINE
  5
6B4
330
635
100
AcDbEntity
  8
0
  6
Continuous
 62
     0
370
    -2
100
AcDbLine
 10
-57.768386
 20
-80.48890201444292
 30
0.0
 11
-61.37122642742613
 21
-80.48890201444292
 31
0.0
  0
LINE
  5
6B5
330
635
100
AcDbEntity
  8
0
  6
Continuous
 62
     0
370
    -2
100
AcDbLine
 10
-57.768386
 20
-78.88890201444292
 30
0.0
 11
-61.37122642742611
 21
-78.88890201444292
 31
0.0
  0
LINE
  5
6B6
330
635
100
AcDbEntity
  8
0
  6
Continuous
 62
     0
370
    -2
100
AcDbLine
 10
-60.37122642742613
 20
-80.48890201444292
 30
0.0
 11
-60.37122642742613
 21
-83.48890201444289
 31
0.0
  0
LINE
  5
6B7
330
635
100
AcDbEntity
  8
0
  6
Continuous
 62
     0
370
    -2
100
AcDbLine
 10
-60.37122642742613
 20
-75.88890201444292
 30
0.0
 11
-60.37122642742613
 21
-58.99023534777622
 31
0.0
  0
LINE
  5
6B8
330
635
100
AcDbEntity
  8
0
  6
Continuous
 62
     0
370
    -2
100
AcDbLine
 10
-60.37122642742613
 20
-80.48890201444292
 30
0.0
 11
-60.37122642742613
 21
-78.88890201444292
 31
0.0
  0
INSERT
  5
6B9
330
635
100
AcDbEntity
  8
0
  6
Continuous
 62
     0
370
    -2
100
AcDbBlockReference
  2
_OPEN30
 10
-60.37122642742613
 20
-78.88890201444292
 30
0.0
 41
3.0
 42
3.0
 43
3.0
 50
270.0
  0
MTEXT
  5
6BA
330
635
100
AcDbEntity
  8
0
  6
Continuous
 62
     6
100
AcDbMText
 10
-62.52122642742611
 20
-65.93956868110959
 30
0.0
 40
2.299999999999998
 41
0.0
 71
     5
 72
     1
  1
\A1;基板ｔ＝1.6
  7
幅0.8高さ2.3
 11
0.0000000000000001
 21
1.0
 31
0.0
 73
     1
 44
1.0
1001
ACAD
1000
MTEXTBEGIN
1070
    73
1070
     1
1070
    44
1040
1.0
1070
    74
1070
     0
1000
MTEXTEND
  0
POINT
  5
6BB
330
635
100
AcDbEntity
  8
DEFPOINTS
  6
Continuous
 62
     0
100
AcDbPoint
 10
-56.76838599999999
 20
-80.48890201444292
 30
0.0
  0
POINT
  5
6BC
330
635
100
AcDbEntity
  8
DEFPOINTS
  6
Continuous
 62
     0
100
AcDbPoint
 10
-56.76838599999999
 20
-78.88890201444292
 30
0.0
  0
POINT
  5
6BD
330
635
100
AcDbEntity
  8
DEFPOINTS
  6
Continuous
 62
     0
100
AcDbPoint
 10
-60.37122642742613
 20
-78.88890201444292
 30
0.0
  0
ENDBLK
  5
643
330
635
100
AcDbEntity
  8
0
100
AcDbBlockEnd
  0
BLOCK
  5
666
330
665
100
AcDbEntity
  8
0
100
AcDbBlockBegin
  2
_None
 70
     0
 10
0.0
 20
0.0
 30
0.0
  3
_None
  1

  0
ENDBLK
  5
667
330
665
100
AcDbEntity
  8
0
100
AcDbBlockEnd
  0
BLOCK
  5
674
330
672
100
AcDbEntity
  8
0
100
AcDbBlockBegin
  2
_DotSmall
 70
     0
 10
0.0
 20
0.0
 30
0.0
  3
_DotSmall
  1

  0
LWPOLYLINE
  5
673
330
672
100
AcDbEntity
  8
0
  6
Continuous
 62
     0
100
AcDbPolyline
 90
        2
 70
     1
 43
0.5
 10
-0.0625
 20
0.0
 42
1.0
 10
0.0625
 20
0.0
 42
1.0
  0
ENDBLK
  5
675
330
672
100
AcDbEntity
  8
0
100
AcDbBlockEnd
  0
BLOCK
  5
6DC
330
6D2
100
AcDbEntity
  8
0
100
AcDbBlockBegin
  2
*D33
 70
     1
 10
0.0
 20
0.0
 30
0.0
  3
*D33
  1

  0
LINE
  5
6D3
330
6D2
100
AcDbEntity
  8
0
  6
Continuous
 62
     0
370
    13
100
AcDbLine
 10
0.2316140000000005
 20
-64.88890201444291
 30
0.0
 11
11.39129116556795
 21
-64.88890201444291
 31
0.0
  0
LINE
  5
6D4
330
6D2
100
AcDbEntity
  8
0
  6
Continuous
 62
     0
370
    13
100
AcDbLine
 10
0.2316140000000005
 20
-78.88890201444292
 30
0.0
 11
11.39129116556794
 21
-78.88890201444292
 31
0.0
  0
LINE
  5
6D5
330
6D2
100
AcDbEntity
  8
0
  6
Continuous
370
    13
100
AcDbLine
 10
10.39129116556795
 20
-67.88890201444292
 30
0.0
 11
10.39129116556795
 21
-75.88890201444292
 31
0.0
  0
INSERT
  5
6D6
330
6D2
100
AcDbEntity
  8
0
  6
Continuous
370
    13
100
AcDbBlockReference
  2
_OPEN30
 10
10.39129116556795
 20
-64.88890201444291
 30
0.0
 41
3.0
 42
3.0
 43
3.0
 50
90.0
  0
INSERT
  5
6D7
330
6D2
100
AcDbEntity
  8
0
  6
Continuous
370
    13
100
AcDbBlockReference
  2
_OPEN30
 10
10.39129116556795
 20
-78.88890201444292
 30
0.0
 41
3.0
 42
3.0
 43
3.0
 50
270.0
  0
MTEXT
  5
6D8
330
6D2
100
AcDbEntity
  8
0
  6
Continuous
 62
     6
100
AcDbMText
 10
7.891291165567962
 20
-71.58934852151651
 30
0.0
 40
3.0
 41
0.0
 71
     5
 72
     1
  1
\A1;14
  7
Standard
 11
0.0000000000000001
 21
1.0
 31
0.0
 73
     1
 44
1.0
1001
ACAD
1000
MTEXTBEGIN
1070
    73
1070
     1
1070
    44
1040
1.0
1070
    74
1070
     0
1000
MTEXTEND
  0
POINT
  5
6D9
330
6D2
100
AcDbEntity
  8
DEFPOINTS
  6
Continuous
 62
     0
100
AcDbPoint
 10
-0.7683859999999996
 20
-64.88890201444291
 30
0.0
  0
POINT
  5
6DA
330
6D2
100
AcDbEntity
  8
DEFPOINTS
  6
Continuous
 62
     0
100
AcDbPoint
 10
-0.7683859999999996
 20
-78.88890201444292
 30
0.0
  0
POINT
  5
6DB
330
6D2
100
AcDbEntity
  8
DEFPOINTS
  6
Continuous
 62
     0
100
AcDbPoint
 10
10.39129116556795
 20
-78.88890201444292
 30
0.0
  0
ENDBLK
  5
6DD
330
6D2
100
AcDbEntity
  8
0
100
AcDbBlockEnd
  0
BLOCK
  5
753
330
6DF
100
AcDbEntity
  8
0
100
AcDbBlockBegin
  2
A4zuwaku_ban
 70
     0
 10
0.0
 20
0.0
 30
0.0
  3
A4zuwaku_ban
  1

  0
MTEXT
  5
6E0
330
6DF
100
AcDbEntity
  8
1
  6
Continuous
 62
    20
100
AcDbMText
 10
-22.356667
 20
-134.4999999999999
 30
0.0
 40
2.5
 41
0.0
 71
     1
 72
     1
  1
\T0.903;\W0.846;\A1;Artics Co.,Ltd. CAD Dept.
 73
     1
 44
1.0
1001
ACAD
1000
MTEXTBEGIN
1070
    73
1070
     1
1070
    44
1040
1.0
1070
    74
1070
     0
1000
MTEXTEND
  0
MTEXT
  5
6E1
330
6DF
100
AcDbEntity
  8
1
  6
Continuous
 62
    20
100
AcDbMText
 10
14.1875
 20
-110.9379999999999
 30
0.0
 40
2.5
 41
0.0
 71
     1
 72
     1
  1
\T0.815;\W0.959;\A1;ＳＣＡＬＥ
 73
     1
 44
1.0
1001
ACAD
1000
MTEXTBEGIN
1070
    73
1070
     1
1070
    44
1040
1.0
1070
    74
1070
     0
1000
MTEXTEND
  0
MTEXT
  5
6E2
330
6DF
100
AcDbEntity
  8
1
  6
Continuous
 62
    20
100
AcDbMText
 10
-14.453125
 20
-110.9379999999999
 30
0.0
 40
2.5
 41
0.0
 71
     1
 72
     1
  1
\T0.833;\W0.979;\A1;CH\U+2019Ｄ
 73
     1
 44
1.0
1001
ACAD
1000
MTEXTBEGIN
1070
    73
1070
     1
1070
    44
1040
1.0
1070
    74
1070
     0
1000
MTEXTEND
  0
MTEXT
  5
6E3
330
6DF
100
AcDbEntity
  8
1
  6
Continuous
 62
    20
100
AcDbMText
 10
-21.49999999999999
 20
-127.65
 30
0.0
 40
5.0
 41
0.0
 71
     1
 72
     1
  1
\T0.782;\W0.794;\A1;株式会社　アルテックス
 73
     1
 44
1.0
1001
ACAD
1000
MTEXTBEGIN
1070
    73
1070
     1
1070
    44
1040
1.0
1070
    74
1070
     0
1000
MTEXTEND
  0
MTEXT
  5
6E4
330
6DF
100
AcDbEntity
  8
1
  6
Continuous
 62
    20
100
AcDbMText
 10
-30.8125
 20
-110.9379999999999
 30
0.0
 40
2.5
 41
0.0
 71
     1
 72
     1
  1
\T0.815;\W0.959;\A1;ＤＥＳ\U+2019Ｄ
 73
     1
 44
1.0
1001
ACAD
1000
MTEXTBEGIN
1070
    73
1070
     1
1070
    44
1040
1.0
1070
    74
1070
     0
1000
MTEXTEND
  0
MTEXT
  5
6E5
330
6DF
100
AcDbEntity
  8
1
  6
Continuous
 62
    20
100
AcDbMText
 10
-0.8125
 20
-110.9379999999999
 30
0.0
 40
2.5
 41
0.0
 71
     1
 72
     1
  1
\T0.815;\W0.959;\A1;ＡＰＰ\U+2019Ｄ
 73
     1
 44
1.0
1001
ACAD
1000
MTEXTBEGIN
1070
    73
1070
     1
1070
    44
1040
1.0
1070
    74
1070
     0
1000
MTEXTEND
  0
MTEXT
  5
6E6
330
6DF
100
AcDbEntity
  8
1
  6
Continuous
 62
    20
100
AcDbMText
 10
-91.63999999999999
 20
-113.7129999999999
 30
0.0
 40
1.5
 41
0.0
 71
     7
 72
     1
  1
\T0.782;\W1.278;\A1;６
 73
     1
 44
1.0
1001
ACAD
1000
MTEXTBEGIN
1070
    73
1070
     1
1070
    44
1040
1.0
1070
    74
1070
     0
1000
MTEXTEND
  0
LINE
  5
6E7
330
6DF
100
AcDbEntity
  8
1
  6
Continuous
 62
    20
100
AcDbLine
 10
-90.78000000000001
 20
-110.9629999999999
 30
0.0
 11
-89.04799999999999
 21
-113.9629999999999
 31
0.0
  0
LINE
  5
6E8
330
6DF
100
AcDbEntity
  8
1
  6
Continuous
 62
    20
100
AcDbLine
 10
-92.512
 20
-113.9629999999999
 30
0.0
 11
-89.04799999999999
 21
-113.9629999999999
 31
0.0
  0
LINE
  5
6E9
330
6DF
100
AcDbEntity
  8
1
  6
Continuous
 62
    20
100
AcDbLine
 10
-92.512
 20
-113.9629999999999
 30
0.0
 11
-90.78000000000001
 21
-110.9629999999999
 31
0.0
  0
MTEXT
  5
6EA
330
6DF
100
AcDbEntity
  8
1
  6
Continuous
 62
    20
100
AcDbMText
 10
-91.63999999999999
 20
-117.713
 30
0.0
 40
1.5
 41
0.0
 71
     7
 72
     1
  1
\T0.782;\W1.278;\A1;５
 73
     1
 44
1.0
1001
ACAD
1000
MTEXTBEGIN
1070
    73
1070
     1
1070
    44
1040
1.0
1070
    74
1070
     0
1000
MTEXTEND
  0
LINE
  5
6EB
330
6DF
100
AcDbEntity
  8
1
  6
Continuous
 62
    20
100
AcDbLine
 10
-90.78000000000001
 20
-114.9629999999999
 30
0.0
 11
-89.04799999999999
 21
-117.9629999999999
 31
0.0
  0
LINE
  5
6EC
330
6DF
100
AcDbEntity
  8
1
  6
Continuous
 62
    20
100
AcDbLine
 10
-92.512
 20
-117.9629999999999
 30
0.0
 11
-89.04799999999999
 21
-117.9629999999999
 31
0.0
  0
LINE
  5
6ED
330
6DF
100
AcDbEntity
  8
1
  6
Continuous
 62
    20
100
AcDbLine
 10
-92.512
 20
-117.9629999999999
 30
0.0
 11
-90.78000000000001
 21
-114.9629999999999
 31
0.0
  0
MTEXT
  5
6EE
330
6DF
100
AcDbEntity
  8
1
  6
Continuous
 62
    20
100
AcDbMText
 10
-91.63999999999999
 20
-121.713
 30
0.0
 40
1.5
 41
0.0
 71
     7
 72
     1
  1
\T0.782;\W1.278;\A1;４
 73
     1
 44
1.0
1001
ACAD
1000
MTEXTBEGIN
1070
    73
1070
     1
1070
    44
1040
1.0
1070
    74
1070
     0
1000
MTEXTEND
  0
LINE
  5
6EF
330
6DF
100
AcDbEntity
  8
1
  6
Continuous
 62
    20
100
AcDbLine
 10
-90.78000000000001
 20
-118.9629999999999
 30
0.0
 11
-89.04799999999999
 21
-121.9629999999999
 31
0.0
  0
LINE
  5
6F0
330
6DF
100
AcDbEntity
  8
1
  6
Continuous
 62
    20
100
AcDbLine
 10
-92.512
 20
-121.9629999999999
 30
0.0
 11
-89.04799999999999
 21
-121.9629999999999
 31
0.0
  0
LINE
  5
6F1
330
6DF
100
AcDbEntity
  8
1
  6
Continuous
 62
    20
100
AcDbLine
 10
-92.512
 20
-121.9629999999999
 30
0.0
 11
-90.78000000000001
 21
-118.9629999999999
 31
0.0
  0
MTEXT
  5
6F2
330
6DF
100
AcDbEntity
  8
1
  6
Continuous
 62
    20
100
AcDbMText
 10
-91.63999999999999
 20
-125.7129999999999
 30
0.0
 40
1.5
 41
0.0
 71
     7
 72
     1
  1
\T0.782;\W1.278;\A1;３
 73
     1
 44
1.0
1001
ACAD
1000
MTEXTBEGIN
1070
    73
1070
     1
1070
    44
1040
1.0
1070
    74
1070
     0
1000
MTEXTEND
  0
LINE
  5
6F3
330
6DF
100
AcDbEntity
  8
1
  6
Continuous
 62
    20
100
AcDbLine
 10
-90.78000000000001
 20
-122.963
 30
0.0
 11
-89.04799999999999
 21
-125.963
 31
0.0
  0
LINE
  5
6F4
330
6DF
100
AcDbEntity
  8
1
  6
Continuous
 62
    20
100
AcDbLine
 10
-92.512
 20
-125.963
 30
0.0
 11
-89.04799999999999
 21
-125.963
 31
0.0
  0
LINE
  5
6F5
330
6DF
100
AcDbEntity
  8
1
  6
Continuous
 62
    20
100
AcDbLine
 10
-92.512
 20
-125.963
 30
0.0
 11
-90.78000000000001
 21
-122.963
 31
0.0
  0
MTEXT
  5
6F6
330
6DF
100
AcDbEntity
  8
1
  6
Continuous
 62
    20
100
AcDbMText
 10
-91.63999999999999
 20
-129.7129999999999
 30
0.0
 40
1.5
 41
0.0
 71
     7
 72
     1
  1
\T0.782;\W1.278;\A1;２
 73
     1
 44
1.0
1001
ACAD
1000
MTEXTBEGIN
1070
    73
1070
     1
1070
    44
1040
1.0
1070
    74
1070
     0
1000
MTEXTEND
  0
LINE
  5
6F7
330
6DF
100
AcDbEntity
  8
1
  6
Continuous
 62
    20
100
AcDbLine
 10
-90.78000000000001
 20
-126.963
 30
0.0
 11
-89.04799999999999
 21
-129.963
 31
0.0
  0
LINE
  5
6F8
330
6DF
100
AcDbEntity
  8
1
  6
Continuous
 62
    20
100
AcDbLine
 10
-92.512
 20
-129.963
 30
0.0
 11
-89.04799999999999
 21
-129.963
 31
0.0
  0
LINE
  5
6F9
330
6DF
100
AcDbEntity
  8
1
  6
Continuous
 62
    20
100
AcDbLine
 10
-92.512
 20
-129.963
 30
0.0
 11
-90.78000000000001
 21
-126.963
 31
0.0
  0
MTEXT
  5
6FA
330
6DF
100
AcDbEntity
  8
1
  6
Continuous
 62
    20
100
AcDbMText
 10
-91.63999999999999
 20
-133.7129999999999
 30
0.0
 40
1.5
 41
0.0
 71
     7
 72
     1
  1
\T0.782;\W1.278;\A1;１
 73
     1
 44
1.0
1001
ACAD
1000
MTEXTBEGIN
1070
    73
1070
     1
1070
    44
1040
1.0
1070
    74
1070
     0
1000
MTEXTEND
  0
LINE
  5
6FB
330
6DF
100
AcDbEntity
  8
1
  6
Continuous
 62
    20
100
AcDbLine
 10
-90.78000000000001
 20
-130.963
 30
0.0
 11
-89.04799999999999
 21
-133.9629999999999
 31
0.0
  0
LINE
  5
6FC
330
6DF
100
AcDbEntity
  8
1
  6
Continuous
 62
    20
100
AcDbLine
 10
-92.512
 20
-133.9629999999999
 30
0.0
 11
-89.04799999999999
 21
-133.9629999999999
 31
0.0
  0
LINE
  5
6FD
330
6DF
100
AcDbEntity
  8
1
  6
Continuous
 62
    20
100
AcDbLine
 10
-92.512
 20
-133.9629999999999
 30
0.0
 11
-90.78000000000001
 21
-130.963
 31
0.0
  0
LINE
  5
6FE
330
6DF
100
AcDbEntity
  8
1
  6
Continuous
 62
    20
100
AcDbLine
 10
-17.5
 20
-122.5
 30
0.0
 11
12.5
 21
-122.5
 31
0.0
  0
LINE
  5
6FF
330
6DF
100
AcDbEntity
  8
1
  6
Continuous
 62
    20
100
AcDbLine
 10
12.5
 20
-126.5
 30
0.0
 11
12.5
 21
-110.4999999999999
 31
0.0
  0
LINE
  5
700
330
6DF
100
AcDbEntity
  8
1
  6
Continuous
 62
    20
100
AcDbLine
 10
-2.5
 20
-126.5
 30
0.0
 11
-2.5
 21
-110.4999999999999
 31
0.0
  0
LINE
  5
701
330
6DF
100
AcDbEntity
  8
1
  6
Continuous
 62
    20
100
AcDbLine
 10
-17.5
 20
-126.5
 30
0.0
 11
-17.5
 21
-110.4999999999999
 31
0.0
  0
LINE
  5
702
330
6DF
100
AcDbEntity
  8
1
  6
Continuous
 62
    20
100
AcDbLine
 10
-32.5
 20
-138.5
 30
0.0
 11
-32.5
 21
-110.4999999999999
 31
0.0
  0
MTEXT
  5
703
330
6DF
100
AcDbEntity
  8
1
  6
Continuous
 62
    20
100
AcDbMText
 10
-42.01937499999998
 20
-135.3499999999999
 30
0.0
 40
2.299999999999998
 41
0.0
 71
     1
 72
     1
  1
\T0.815;\W0.959;\A1;ＣＨ\U+2019Ｄ
 73
     1
 44
1.0
1001
ACAD
1000
MTEXTBEGIN
1070
    73
1070
     1
1070
    44
1040
1.0
1070
    74
1070
     0
1000
MTEXTEND
  0
MTEXT
  5
704
330
6DF
100
AcDbEntity
  8
1
  6
Continuous
 62
    20
100
AcDbMText
 10
-54.51937499999999
 20
-135.3499999999999
 30
0.0
 40
2.299999999999998
 41
0.0
 71
     1
 72
     1
  1
\T0.815;\W0.959;\A1;ＤＡＴＥ
 73
     1
 44
1.0
1001
ACAD
1000
MTEXTBEGIN
1070
    73
1070
     1
1070
    44
1040
1.0
1070
    74
1070
     0
1000
MTEXTEND
  0
MTEXT
  5
705
330
6DF
100
AcDbEntity
  8
1
  6
Continuous
 62
    20
100
AcDbMText
 10
-81.15999999999997
 20
-135.3499999999999
 30
0.0
 40
2.299999999999998
 41
0.0
 71
     1
 72
     1
  1
\T0.815;\W0.959;\A1;ＲＥＶＩＳＩＯＮＳ
 73
     1
 44
1.0
1001
ACAD
1000
MTEXTBEGIN
1070
    73
1070
     1
1070
    44
1040
1.0
1070
    74
1070
     0
1000
MTEXTEND
  0
MTEXT
  5
706
330
6DF
100
AcDbEntity
  8
1
  6
Continuous
 62
    20
100
AcDbMText
 10
-94.21499999999999
 20
-135.3499999999999
 30
0.0
 40
2.299999999999998
 41
0.0
 71
     1
 72
     1
  1
\T0.815;\W0.778;\A1;ＭＡＲＫ
 73
     1
 44
1.0
1001
ACAD
1000
MTEXTBEGIN
1070
    73
1070
     1
1070
    44
1040
1.0
1070
    74
1070
     0
1000
MTEXTEND
  0
LINE
  5
707
330
6DF
100
AcDbEntity
  8
1
  6
Continuous
 62
    20
100
AcDbLine
 10
-95.0
 20
-110.4999999999999
 30
0.0
 11
95.0
 21
-110.4999999999999
 31
0.0
  0
LINE
  5
708
330
6DF
100
AcDbEntity
  8
1
  6
Continuous
 62
    20
100
AcDbLine
 10
-95.0
 20
-114.5
 30
0.0
 11
-17.5
 21
-114.5
 31
0.0
  0
LINE
  5
709
330
6DF
100
AcDbEntity
  8
1
  6
Continuous
 62
    20
100
AcDbLine
 10
-95.0
 20
-118.5
 30
0.0
 11
-32.5
 21
-118.5
 31
0.0
  0
LINE
  5
70A
330
6DF
100
AcDbEntity
  8
1
  6
Continuous
 62
    20
100
AcDbLine
 10
-95.0
 20
-122.5
 30
0.0
 11
-17.5
 21
-122.5
 31
0.0
  0
LINE
  5
70B
330
6DF
100
AcDbEntity
  8
1
  6
Continuous
 62
    20
100
AcDbLine
 10
-95.0
 20
-126.5
 30
0.0
 11
-17.5
 21
-126.5
 31
0.0
  0
LINE
  5
70C
330
6DF
100
AcDbEntity
  8
1
  6
Continuous
 62
    20
100
AcDbLine
 10
-95.0
 20
-130.4999999999999
 30
0.0
 11
-32.5
 21
-130.4999999999999
 31
0.0
  0
LINE
  5
70D
330
6DF
100
AcDbEntity
  8
1
  6
Continuous
 62
    20
100
AcDbLine
 10
-44.0
 20
-138.5
 30
0.0
 11
-44.0
 21
-110.4999999999999
 31
0.0
  0
LINE
  5
70E
330
6DF
100
AcDbEntity
  8
1
  6
Continuous
 62
    20
100
AcDbLine
 10
-56.5
 20
-138.5
 30
0.0
 11
-56.5
 21
-110.4999999999999
 31
0.0
  0
LINE
  5
70F
330
6DF
100
AcDbEntity
  8
1
  6
Continuous
 62
    20
100
AcDbLine
 10
-86.5
 20
-138.5
 30
0.0
 11
-86.5
 21
-110.4999999999999
 31
0.0
  0
LINE
  5
710
330
6DF
100
AcDbEntity
  8
1
  6
Continuous
 62
    20
100
AcDbLine
 10
-95.0
 20
-134.4999999999999
 30
0.0
 11
-32.5
 21
-134.4999999999999
 31
0.0
  0
LINE
  5
711
330
6DF
100
AcDbEntity
  8
1
  6
Continuous
 62
    20
100
AcDbLine
 10
-17.5
 20
-126.5
 30
0.0
 11
27.5
 21
-126.5
 31
0.0
  0
LINE
  5
712
330
6DF
100
AcDbEntity
  8
1
  6
Continuous
 62
    20
100
AcDbLine
 10
-17.5
 20
-114.5
 30
0.0
 11
27.5
 21
-114.5
 31
0.0
  0
MTEXT
  5
713
330
6DF
100
AcDbEntity
  8
1
  6
Continuous
 62
    20
100
AcDbMText
 10
-93.964666
 20
137.7499999999999
 30
0.0
 40
2.5
 41
0.0
 71
     1
 72
     1
  1
\T0.815;\W0.723;\A1;Ｄｉｍｅｎｓｉｏｎｓ　ｉｎ　ｍｍ（ｎｏｔ　ｔｏ　ｓｃａｌｅ）
 73
     1
 44
1.0
1001
ACAD
1000
MTEXTBEGIN
1070
    73
1070
     1
1070
    44
1040
1.0
1070
    74
1070
     0
1000
MTEXTEND
  0
MTEXT
  5
714
330
6DF
100
AcDbEntity
  8
1
  6
Continuous
 62
    20
100
AcDbMText
 10
27.33928699999999
 20
-130.9499999999999
 30
0.0
 40
2.5
 41
0.0
 71
     1
 72
     1
  1
\T0.782;\W1.050;\A1;ＤＲＡＷ．
 73
     1
 44
1.0
1001
ACAD
1000
MTEXTBEGIN
1070
    73
1070
     1
1070
    44
1040
1.0
1070
    74
1070
     0
1000
MTEXTEND
  0
MTEXT
  5
715
330
6DF
100
AcDbEntity
  8
1
  6
Continuous
 62
    20
100
AcDbMText
 10
28.342857
 20
-111.25
 30
0.0
 40
2.0
 41
0.0
 71
     1
 72
     1
  1
\T0.782;\W1.232;\A1;ＭＡＴＥＲＩＡＬ
 73
     1
 44
1.0
1001
ACAD
1000
MTEXTBEGIN
1070
    73
1070
     1
1070
    44
1040
1.0
1070
    74
1070
     0
1000
MTEXTEND
  0
MTEXT
  5
716
330
6DF
100
AcDbEntity
  8
1
  6
Continuous
 62
    20
100
AcDbMText
 10
62.09285699999998
 20
-111.25
 30
0.0
 40
2.0
 41
0.0
 71
     1
 72
     1
  1
\T0.782;\W1.232;\A1;ＴＲＥＡＴＭＥＮＴ
 73
     1
 44
1.0
1001
ACAD
1000
MTEXTBEGIN
1070
    73
1070
     1
1070
    44
1040
1.0
1070
    74
1070
     0
1000
MTEXTEND
  0
MTEXT
  5
717
330
6DF
100
AcDbEntity
  8
1
  6
Continuous
 62
    20
100
AcDbMText
 10
28.342857
 20
-119.25
 30
0.0
 40
2.0
 41
0.0
 71
     1
 72
     1
  1
\T0.782;\W1.232;\A1;ＴＩＴＬＥ
 73
     1
 44
1.0
1001
ACAD
1000
MTEXTBEGIN
1070
    73
1070
     1
1070
    44
1040
1.0
1070
    74
1070
     0
1000
MTEXTEND
  0
MTEXT
  5
718
330
6DF
100
AcDbEntity
  8
1
  6
Continuous
 62
    20
100
AcDbMText
 10
29.80357199999999
 20
-135.15
 30
0.0
 40
2.5
 41
0.0
 71
     1
 72
     1
  1
\T0.782;\W1.050;\A1;ＮＯ．
 73
     1
 44
1.0
1001
ACAD
1000
MTEXTBEGIN
1070
    73
1070
     1
1070
    44
1040
1.0
1070
    74
1070
     0
1000
MTEXTEND
  0
LINE
  5
719
330
6DF
100
AcDbEntity
  8
1
  6
Continuous
 62
    20
100
AcDbLine
 10
-95.0
 20
134.4999999999999
 30
0.0
 11
-40.0
 21
134.4999999999999
 31
0.0
  0
LINE
  5
71A
330
6DF
100
AcDbEntity
  8
1
  6
Continuous
 62
    20
100
AcDbLine
 10
-40.0
 20
134.4999999999999
 30
0.0
 11
-40.0
 21
138.5
 31
0.0
  0
LINE
  5
71B
330
6DF
100
AcDbEntity
  8
1
  6
Continuous
 62
    20
100
AcDbLine
 10
39.5
 20
-138.5
 30
0.0
 11
39.5
 21
-130.0
 31
0.0
  0
LINE
  5
71C
330
6DF
100
AcDbEntity
  8
1
  6
Continuous
 62
    20
100
AcDbLine
 10
27.5
 20
-130.0
 30
0.0
 11
95.0
 21
-130.0
 31
0.0
  0
LINE
  5
71D
330
6DF
100
AcDbEntity
  8
1
  6
Continuous
 62
    20
100
AcDbLine
 10
61.25
 20
-118.5
 30
0.0
 11
61.25
 21
-110.4999999999999
 31
0.0
  0
LINE
  5
71E
330
6DF
100
AcDbEntity
  8
1
  6
Continuous
 62
    20
100
AcDbLine
 10
27.5
 20
-118.5
 30
0.0
 11
95.0
 21
-118.5
 31
0.0
  0
LINE
  5
71F
330
6DF
100
AcDbEntity
  8
1
  6
Continuous
 62
    20
100
AcDbLine
 10
27.5
 20
-138.5
 30
0.0
 11
27.5
 21
-110.4999999999999
 31
0.0
  0
LINE
  5
720
330
6DF
100
AcDbEntity
  8
1
  6
Continuous
 62
    20
100
AcDbLine
 10
-32.5
 20
-138.5
 30
0.0
 11
95.0
 21
-138.5
 31
0.0
  0
LINE
  5
721
330
6DF
100
AcDbEntity
  8
1
  6
Continuous
 62
    20
100
AcDbLine
 10
-95.0
 20
138.5
 30
0.0
 11
95.0
 21
138.5
 31
0.0
  0
LINE
  5
722
330
6DF
100
AcDbEntity
  8
1
  6
Continuous
 62
    20
100
AcDbLine
 10
95.0
 20
-138.5
 30
0.0
 11
95.0
 21
138.5
 31
0.0
  0
LINE
  5
723
330
6DF
100
AcDbEntity
  8
1
  6
Continuous
 62
    20
100
AcDbLine
 10
-95.0
 20
-138.5
 30
0.0
 11
80.0
 21
-138.5
 31
0.0
  0
LINE
  5
724
330
6DF
100
AcDbEntity
  8
1
  6
Continuous
 62
    20
100
AcDbLine
 10
-95.0
 20
-138.5
 30
0.0
 11
-95.0
 21
138.5
 31
0.0
  0
LINE
  5
725
330
6DF
100
AcDbEntity
  8
1
  6
Continuous
 62
    20
100
AcDbLine
 10
-80.0
 20
-138.5
 30
0.0
 11
-32.5
 21
-138.5
 31
0.0
  0
LINE
  5
726
330
6DF
100
AcDbEntity
  8
1
  6
Continuous
 62
    20
100
AcDbLine
 10
-32.5
 20
-138.5
 30
0.0
 11
80.0
 21
-138.5
 31
0.0
  0
LINE
  5
727
330
6DF
100
AcDbEntity
  8
1
  6
DASHED
 62
    20
 48
0.2
100
AcDbLine
 10
45.49999999999999
 20
-138.5
 30
0.0
 11
45.49999999999999
 21
-130.0
 31
0.0
  0
LINE
  5
728
330
6DF
100
AcDbEntity
  8
1
  6
DASHED
 62
    20
 48
0.2
100
AcDbLine
 10
51.5
 20
-138.5
 30
0.0
 11
51.5
 21
-130.0
 31
0.0
  0
LINE
  5
729
330
6DF
100
AcDbEntity
  8
1
  6
DASHED
 62
    20
 48
0.2
100
AcDbLine
 10
57.5
 20
-138.5
 30
0.0
 11
57.5
 21
-130.0
 31
0.0
  0
LINE
  5
72A
330
6DF
100
AcDbEntity
  8
1
  6
DASHED
 62
    20
 48
0.2
100
AcDbLine
 10
63.5
 20
-138.5
 30
0.0
 11
63.5
 21
-130.0
 31
0.0
  0
LINE
  5
72B
330
6DF
100
AcDbEntity
  8
1
  6
DASHED
 62
    20
 48
0.2
100
AcDbLine
 10
69.5
 20
-138.5
 30
0.0
 11
69.5
 21
-130.0
 31
0.0
  0
LINE
  5
72C
330
6DF
100
AcDbEntity
  8
1
  6
DASHED
 62
    20
 48
0.2
100
AcDbLine
 10
75.5
 20
-138.5
 30
0.0
 11
75.5
 21
-130.0
 31
0.0
  0
LINE
  5
72D
330
6DF
100
AcDbEntity
  8
1
  6
DASHED
 62
    20
 48
0.2
100
AcDbLine
 10
81.5
 20
-138.5
 30
0.0
 11
81.5
 21
-130.0
 31
0.0
  0
LINE
  5
72E
330
6DF
100
AcDbEntity
  8
1
  6
DASHED
 62
    20
 48
0.2
100
AcDbLine
 10
87.5
 20
-138.5
 30
0.0
 11
87.5
 21
-130.0
 31
0.0
  0
MTEXT
  5
72F
330
6DF
100
AcDbEntity
  8
0
  6
Continuous
 62
    20
 48
0.2
100
AcDbMText
 10
87.31804610995647
 20
130.4823913322562
 30
0.0
 40
1.399999999999999
 41
4.888519999999998
 71
     1
 72
     5
  1
\U+00B10.3
 73
     1
 44
1.0
1001
ACAD
1000
MTEXTBEGIN
1070
    73
1070
     1
1070
    44
1040
1.0
1070
    74
1070
     0
1000
MTEXTEND
  0
MTEXT
  5
730
330
6DF
100
AcDbEntity
  8
0
  6
Continuous
 62
    20
 48
0.2
100
AcDbMText
 10
87.31804610995647
 20
126.7941754258749
 30
0.0
 40
1.399999999999999
 41
4.888519999999998
 71
     1
 72
     5
  1
\U+00B10.5
 73
     1
 44
1.0
1001
ACAD
1000
MTEXTBEGIN
1070
    73
1070
     1
1070
    44
1040
1.0
1070
    74
1070
     0
1000
MTEXTEND
  0
MTEXT
  5
731
330
6DF
100
AcDbEntity
  8
0
  6
Continuous
 62
    20
 48
0.2
100
AcDbMText
 10
87.31804610995647
 20
119.5853890690724
 30
0.0
 40
1.399999999999999
 41
4.888519999999998
 71
     1
 72
     5
  1
\U+00B11.2
 73
     1
 44
1.0
1001
ACAD
1000
MTEXTBEGIN
1070
    73
1070
     1
1070
    44
1040
1.0
1070
    74
1070
     0
1000
MTEXTEND
  0
MTEXT
  5
732
330
6DF
100
AcDbEntity
  8
0
  6
Continuous
 62
    20
 48
0.2
100
AcDbMText
 10
87.31804610995647
 20
123.2736049754536
 30
0.0
 40
1.399999999999999
 41
4.888519999999998
 71
     1
 72
     5
  1
\U+00B10.8
 73
     1
 44
1.0
1001
ACAD
1000
MTEXTBEGIN
1070
    73
1070
     1
1070
    44
1040
1.0
1070
    74
1070
     0
1000
MTEXTEND
  0
MTEXT
  5
733
330
6DF
100
AcDbEntity
  8
0
  6
Continuous
 62
    20
 48
0.2
100
AcDbMText
 10
87.31804610995647
 20
116.0648191478265
 30
0.0
 40
1.399999999999999
 41
4.888519999999998
 71
     1
 72
     5
  1
\U+00B12
 73
     1
 44
1.0
1001
ACAD
1000
MTEXTBEGIN
1070
    73
1070
     1
1070
    44
1040
1.0
1070
    74
1070
     0
1000
MTEXTEND
  0
MTEXT
  5
734
330
6DF
100
AcDbEntity
  8
0
  6
Continuous
 62
    20
 48
0.2
100
AcDbMText
 10
86.89425715843304
 20
134.0086578281566
 30
0.0
 40
1.399999999999999
 41
5.811432597644195
 71
     1
 72
     5
  1
Ｂ  級
 73
     1
 44
1.0
1001
ACAD
1000
MTEXTBEGIN
1070
    73
1070
     1
1070
    44
1040
1.0
1070
    74
1070
     0
1000
MTEXTEND
  0
LINE
  5
735
330
6DF
100
AcDbEntity
  8
1
  6
Continuous
 62
    20
100
AcDbLine
 10
16.83870976064123
 20
113.6890989901925
 30
0.0
 11
95.0
 21
113.6890989901925
 31
0.0
  0
LINE
  5
736
330
6DF
100
AcDbEntity
  8
1
  6
Continuous
 62
    20
100
AcDbLine
 10
16.86031496394794
 20
135.0779562216323
 30
0.0
 11
95.0
 21
135.0779562216323
 31
0.0
  0
LINE
  5
737
330
6DF
100
AcDbEntity
  8
1
  6
Continuous
 62
    20
100
AcDbLine
 10
16.86031496394794
 20
131.5132062216323
 30
0.0
 11
95.0
 21
131.5132062216323
 31
0.0
  0
LINE
  5
738
330
6DF
100
AcDbEntity
  8
1
  6
Continuous
 62
    20
100
AcDbLine
 10
16.86031496394794
 20
127.9484562216323
 30
0.0
 11
95.0
 21
127.9484562216323
 31
0.0
  0
LINE
  5
739
330
6DF
100
AcDbEntity
  8
1
  6
Continuous
 62
    20
100
AcDbLine
 10
16.86031496394794
 20
124.3837062216323
 30
0.0
 11
95.0
 21
124.3837062216323
 31
0.0
  0
LINE
  5
73A
330
6DF
100
AcDbEntity
  8
1
  6
Continuous
 62
    20
100
AcDbLine
 10
16.86031496394794
 20
120.8189562216323
 30
0.0
 11
95.0
 21
120.8189562216323
 31
0.0
  0
LINE
  5
73B
330
6DF
100
AcDbEntity
  8
1
  6
Continuous
 62
    20
100
AcDbLine
 10
16.86031496394794
 20
117.2542062216322
 30
0.0
 11
95.0
 21
117.2542062216322
 31
0.0
  0
MTEXT
  5
73C
330
6DF
100
AcDbEntity
  8
0
  6
Continuous
 62
    20
 48
0.2
100
AcDbMText
 10
20.05151183879351
 20
119.6790256219714
 30
0.0
 40
1.399999999999999
 41
22.54342999999999
 71
     1
 72
     5
  1
１２０  〃     ４００  〃
 73
     1
 44
1.0
1001
ACAD
1000
MTEXTBEGIN
1070
    73
1070
     1
1070
    44
1040
1.0
1070
    74
1070
     0
1000
MTEXTEND
  0
MTEXT
  5
73D
330
6DF
100
AcDbEntity
  8
0
  6
Continuous
 62
    20
 48
0.2
100
AcDbMText
 10
20.05151183879351
 20
116.0775241232913
 30
0.0
 40
1.399999999999999
 41
22.54344644634989
 71
     1
 72
     5
  1
４００  〃   １０００  〃
 73
     1
 44
1.0
1001
ACAD
1000
MTEXTBEGIN
1070
    73
1070
     1
1070
    44
1040
1.0
1070
    74
1070
     0
1000
MTEXTEND
  0
MTEXT
  5
73E
330
6DF
100
AcDbEntity
  8
0
  6
Continuous
 62
    20
 48
0.2
100
AcDbMText
 10
21.29673657038726
 20
134.0086578281566
 30
0.0
 40
1.399999999999999
 41
18.92658372564228
 71
     1
 72
     5
  1
打抜きの普通寸法許容差
 73
     1
 44
1.0
1001
ACAD
1000
MTEXTBEGIN
1070
    73
1070
     1
1070
    44
1040
1.0
1070
    74
1070
     0
1000
MTEXTEND
  0
LINE
  5
73F
330
6DF
100
AcDbEntity
  8
1
  6
Continuous
 62
    20
100
AcDbLine
 10
84.20262529699936
 20
113.6894562216322
 30
0.0
 11
84.20262529699936
 21
135.0779562216323
 31
0.0
  0
LINE
  5
740
330
6DF
100
AcDbEntity
  8
1
  6
Continuous
 62
    20
100
AcDbLine
 10
55.87859706500199
 20
113.6894562216322
 30
0.0
 11
55.87859706500199
 21
135.0779562216323
 31
0.0
  0
LINE
  5
741
330
6DF
100
AcDbEntity
  8
1
  6
Continuous
 62
    20
100
AcDbLine
 10
45.18434706500197
 20
113.6894562216322
 30
0.0
 11
45.18434706500197
 21
135.0779562216323
 31
0.0
  0
MTEXT
  5
742
330
6DF
100
AcDbEntity
  8
0
  6
Continuous
 62
    20
 48
0.2
100
AcDbMText
 10
48.153445720964
 20
116.0648191478265
 30
0.0
 40
1.399999999999999
 41
4.888519999999998
 71
     1
 72
     5
  1
\U+00B10.8
 73
     1
 44
1.0
1001
ACAD
1000
MTEXTBEGIN
1070
    73
1070
     1
1070
    44
1040
1.0
1070
    74
1070
     0
1000
MTEXTEND
  0
MTEXT
  5
743
330
6DF
100
AcDbEntity
  8
0
  6
Continuous
 62
    20
 48
0.2
100
AcDbMText
 10
59.21611222778603
 20
116.0775241232913
 30
0.0
 40
1.399999999999999
 41
22.54344644634989
 71
     1
 72
     5
  1
４００  〃   １０００  〃
 73
     1
 44
1.0
1001
ACAD
1000
MTEXTBEGIN
1070
    73
1070
     1
1070
    44
1040
1.0
1070
    74
1070
     0
1000
MTEXTEND
  0
MTEXT
  5
744
330
6DF
100
AcDbEntity
  8
0
  6
Continuous
 62
    20
 48
0.2
100
AcDbMText
 10
39.44717700824938
 20
137.9626267475075
 30
0.0
 40
2.099999999999999
 41
36.11899175999463
 71
     1
 72
     5
  1
金属プレス加工品普通寸法公差
 73
     1
 44
1.0
1001
ACAD
1000
MTEXTBEGIN
1070
    73
1070
     1
1070
    44
1040
1.0
1070
    74
1070
     0
1000
MTEXTEND
  0
MTEXT
  5
745
330
6DF
100
AcDbEntity
  8
0
  6
Continuous
 62
    20
 48
0.2
100
AcDbMText
 10
36.41542729558151
 20
130.5662148539993
 30
0.0
 40
1.399999999999999
 41
7.796949999999998
 71
     1
 72
     5
  1
６ 以下
 73
     1
 44
1.0
1001
ACAD
1000
MTEXTBEGIN
1070
    73
1070
     1
1070
    44
1040
1.0
1070
    74
1070
     0
1000
MTEXTEND
  0
MTEXT
  5
746
330
6DF
100
AcDbEntity
  8
0
  6
Continuous
 62
    20
 48
0.2
100
AcDbMText
 10
20.05151183879351
 20
123.4870833830132
 30
0.0
 40
1.399999999999999
 41
22.54342999999999
 71
     1
 72
     5
  1
  ３０  〃     １２０  〃
 73
     1
 44
1.0
1001
ACAD
1000
MTEXTBEGIN
1070
    73
1070
     1
1070
    44
1040
1.0
1070
    74
1070
     0
1000
MTEXTEND
  0
MTEXT
  5
747
330
6DF
100
AcDbEntity
  8
0
  6
Continuous
 62
    20
 48
0.2
100
AcDbMText
 10
26.01853477433268
 20
126.7472894149567
 30
0.0
 40
1.399999999999999
 41
18.19387231017151
 71
     1
 72
     5
  1
６を超え  ３０  〃
 73
     1
 44
1.0
1001
ACAD
1000
MTEXTBEGIN
1070
    73
1070
     1
1070
    44
1040
1.0
1070
    74
1070
     0
1000
MTEXTEND
  0
MTEXT
  5
748
330
6DF
100
AcDbEntity
  8
0
  6
Continuous
 62
    20
 48
0.2
100
AcDbMText
 10
48.153445720964
 20
123.2736049754536
 30
0.0
 40
1.399999999999999
 41
4.888519999999998
 71
     1
 72
     5
  1
\U+00B10.3
 73
     1
 44
1.0
1001
ACAD
1000
MTEXTBEGIN
1070
    73
1070
     1
1070
    44
1040
1.0
1070
    74
1070
     0
1000
MTEXTEND
  0
MTEXT
  5
749
330
6DF
100
AcDbEntity
  8
0
  6
Continuous
 62
    20
 48
0.2
100
AcDbMText
 10
48.153445720964
 20
119.5853890690724
 30
0.0
 40
1.399999999999999
 41
4.888519999999998
 71
     1
 72
     5
  1
\U+00B10.5
 73
     1
 44
1.0
1001
ACAD
1000
MTEXTBEGIN
1070
    73
1070
     1
1070
    44
1040
1.0
1070
    74
1070
     0
1000
MTEXTEND
  0
MTEXT
  5
74A
330
6DF
100
AcDbEntity
  8
0
  6
Continuous
 62
    20
 48
0.2
100
AcDbMText
 10
48.153445720964
 20
126.7941754258749
 30
0.0
 40
1.399999999999999
 41
4.888519999999998
 71
     1
 72
     5
  1
\U+00B10.2
 73
     1
 44
1.0
1001
ACAD
1000
MTEXTBEGIN
1070
    73
1070
     1
1070
    44
1040
1.0
1070
    74
1070
     0
1000
MTEXTEND
  0
MTEXT
  5
74B
330
6DF
100
AcDbEntity
  8
0
  6
Continuous
 62
    20
 48
0.2
100
AcDbMText
 10
48.153445720964
 20
130.4823913322562
 30
0.0
 40
1.399999999999999
 41
4.888544016731542
 71
     1
 72
     5
  1
\U+00B10.1
 73
     1
 44
1.0
1001
ACAD
1000
MTEXTBEGIN
1070
    73
1070
     1
1070
    44
1040
1.0
1070
    74
1070
     0
1000
MTEXTEND
  0
MTEXT
  5
74C
330
6DF
100
AcDbEntity
  8
0
  6
Continuous
 62
    20
 48
0.2
100
AcDbMText
 10
47.96131632451364
 20
134.0086578281566
 30
0.0
 40
1.399999999999999
 41
5.811432597644195
 71
     1
 72
     5
  1
Ｂ  級
 73
     1
 44
1.0
1001
ACAD
1000
MTEXTBEGIN
1070
    73
1070
     1
1070
    44
1040
1.0
1070
    74
1070
     0
1000
MTEXTEND
  0
MTEXT
  5
74D
330
6DF
100
AcDbEntity
  8
0
  6
Continuous
 62
    20
 48
0.2
100
AcDbMText
 10
59.21611222778603
 20
123.4870833830132
 30
0.0
 40
1.399999999999999
 41
22.54342999999999
 71
     1
 72
     5
  1
  ３０  〃     １２０  〃
 73
     1
 44
1.0
1001
ACAD
1000
MTEXTBEGIN
1070
    73
1070
     1
1070
    44
1040
1.0
1070
    74
1070
     0
1000
MTEXTEND
  0
MTEXT
  5
74E
330
6DF
100
AcDbEntity
  8
0
  6
Continuous
 62
    20
 48
0.2
100
AcDbMText
 10
65.1831351633252
 20
126.7472894149567
 30
0.0
 40
1.399999999999999
 41
18.19387231017151
 71
     1
 72
     5
  1
６を超え  ３０  〃
 73
     1
 44
1.0
1001
ACAD
1000
MTEXTBEGIN
1070
    73
1070
     1
1070
    44
1040
1.0
1070
    74
1070
     0
1000
MTEXTEND
  0
MTEXT
  5
74F
330
6DF
100
AcDbEntity
  8
0
  6
Continuous
 62
    20
 48
0.2
100
AcDbMText
 10
59.21611222778603
 20
119.6790256219714
 30
0.0
 40
1.399999999999999
 41
22.54342999999999
 71
     1
 72
     5
  1
１２０  〃     ４００  〃
 73
     1
 44
1.0
1001
ACAD
1000
MTEXTBEGIN
1070
    73
1070
     1
1070
    44
1040
1.0
1070
    74
1070
     0
1000
MTEXTEND
  0
MTEXT
  5
750
330
6DF
100
AcDbEntity
  8
0
  6
Continuous
 62
    20
 48
0.2
100
AcDbMText
 10
58.50301564954044
 20
134.0086578281566
 30
0.0
 40
1.399999999999999
 41
24.21103579360724
 71
     1
 72
     5
  1
曲げ及び絞りの普通寸法許容差
 73
     1
 44
1.0
1001
ACAD
1000
MTEXTBEGIN
1070
    73
1070
     1
1070
    44
1040
1.0
1070
    74
1070
     0
1000
MTEXTEND
  0
MTEXT
  5
751
330
6DF
100
AcDbEntity
  8
0
  6
Continuous
 62
    20
 48
0.2
100
AcDbMText
 10
75.580027684574
 20
130.5662148539993
 30
0.0
 40
1.399999999999999
 41
7.796949999999998
 71
     1
 72
     5
  1
６ 以下
 73
     1
 44
1.0
1001
ACAD
1000
MTEXTBEGIN
1070
    73
1070
     1
1070
    44
1040
1.0
1070
    74
1070
     0
1000
MTEXTEND
  0
LINE
  5
752
330
6DF
100
AcDbEntity
  8
1
  6
Continuous
 62
    20
100
AcDbLine
 10
16.83870976064123
 20
113.6890989901925
 30
0.0
 11
16.83870976064123
 21
138.5
 31
0.0
  0
ENDBLK
  5
754
330
6DF
100
AcDbEntity
  8
0
100
AcDbBlockEnd
  0
ENDSEC
  0
SECTION
  2
ENTITIES
  0
LINE
  5
89
330
A
100
AcDbEntity
  8
1
  6
CENTER
 62
     7
 48
0.5
100
AcDbLine
 10
63.846587
 20
-20.8006
 30
0.0
 11
-57.018386
 21
-20.8006
 31
0.0
  0
LINE
  5
8A
330
A
100
AcDbEntity
  8
1
  6
CENTER
 62
     7
 48
0.5
100
AcDbLine
 10
-53.268386
 20
-24.5506
 30
0.0
 11
-53.268386
 21
46.981913
 31
0.0
  0
LINE
  5
9A
330
A
100
AcDbEntity
  8
1
  6
CENTER
 62
     7
 48
0.5
100
AcDbLine
 10
64.44160500000001
 20
42.1994
 30
0.0
 11
-57.018386
 21
42.1994
 31
0.0
  0
LINE
  5
A8
330
A
100
AcDbEntity
  8
1
  6
CENTER
 62
     7
 48
0.5
100
AcDbLine
 10
59.731614
 20
-24.5506
 30
0.0
 11
59.731614
 21
46.386896
 31
0.0
  0
LINE
  5
C2
330
A
100
AcDbEntity
  8
1
  6
Continuous
 62
   140
100
AcDbLine
 10
-56.76838599999999
 20
-24.3006
 30
0.0
 11
63.231614
 21
-24.3006
 31
0.0
  0
LWPOLYLINE
  5
1F7
330
A
100
AcDbEntity
  8
0
  6
Continuous
 62
     5
100
AcDbPolyline
 90
        4
 70
     1
 43
0.0
 10
-56.76838599999999
 20
-24.3006
 10
63.231614
 20
-24.3006
 10
63.231614
 20
45.69939999999999
 10
-56.76838599999999
 20
45.69939999999999
  0
INSERT
  5
209
330
A
100
AcDbEntity
  8
0
  6
Continuous
 62
     5
100
AcDbBlockReference
  2
ネジ留め部
 10
-53.26838599999999
 20
42.1994
 30
0.0
  0
INSERT
  5
20A
330
A
100
AcDbEntity
  8
0
  6
Continuous
 62
     5
100
AcDbBlockReference
  2
ネジ留め部
 10
-53.26838599999999
 20
-20.8006
 30
0.0
  0
INSERT
  5
20B
330
A
100
AcDbEntity
  8
0
  6
Continuous
 62
     5
100
AcDbBlockReference
  2
ネジ留め部
 10
59.73161400000001
 20
42.1994
 30
0.0
  0
INSERT
  5
20C
330
A
100
AcDbEntity
  8
0
  6
Continuous
 62
     5
100
AcDbBlockReference
  2
ネジ留め部
 10
59.73161400000001
 20
-20.8006
 30
0.0
  0
DIMENSION
  5
276
330
A
100
AcDbEntity
  8
0
  6
Continuous
100
AcDbDimension
  2
*D4
 10
-54.78808631585511
 20
41.33163796465281
 30
0.0
 11
-24.83197779975259
 21
50.01445755610514
 31
0.0
 70
   163
  1
4-<>（取付穴）
 71
     5
 42
3.499999999999988
  3
ARTICS2
100
AcDbDiametricDimension
 15
-51.74868568414488
 25
43.06716203534715
 35
0.0
 40
0.0
1001
ACAD
1000
DSTYLE
1002
{
1070
   340
1005
1DA
1070
   172
1070
     0
1002
}
  0
DIMENSION
  5
292
330
A
100
AcDbEntity
  8
0
  6
Continuous
100
AcDbDimension
  2
*D5
 10
-64.39738350283994
 20
-20.8006
 30
0.0
 11
-67.90530444127455
 21
-20.97789113672774
 31
0.0
 70
   160
 71
     5
 42
3.500000000000003
  3
ARTICS2
100
AcDbAlignedDimension
 13
-56.76838599999999
 23
-24.3006
 33
0.0
 14
-57.018386
 24
-20.8006
 34
0.0
 50
90.0
100
AcDbRotatedDimension
1001
ACAD
1000
DSTYLE
1002
{
1070
   279
1070
     2
1002
}
  0
DIMENSION
  5
2A1
330
A
100
AcDbEntity
  8
0
  6
Continuous
100
AcDbDimension
  2
*D6
 10
-64.39738350283993
 20
42.1994
 30
0.0
 11
-66.89738350283994
 21
10.69939999999998
 31
0.0
 70
    32
 71
     5
 42
63.0
  3
ARTICS2
100
AcDbAlignedDimension
 13
-57.018386
 23
-20.8006
 33
0.0
 14
-57.018386
 24
42.1994
 34
0.0
 50
90.0
100
AcDbRotatedDimension
1001
ACAD
1000
DSTYLE
1002
{
1070
   279
1070
     1
1002
}
  0
DIMENSION
  5
2AE
330
A
100
AcDbEntity
  8
0
  6
Continuous
100
AcDbDimension
  2
*D7
 10
-64.39738350283993
 20
45.69939999999999
 30
0.0
 11
-68.00545907345133
 21
42.35121555674886
 31
0.0
 70
   160
 71
     5
 42
3.5
  3
ARTICS2
100
AcDbAlignedDimension
 13
-57.018386
 23
42.1994
 33
0.0
 14
-56.76838599999999
 24
45.69939999999999
 34
0.0
 50
90.0
100
AcDbRotatedDimension
1001
ACAD
1000
DSTYLE
1002
{
1070
   279
1070
     2
1002
}
  0
DIMENSION
  5
2CB
330
A
100
AcDbEntity
  8
0
  6
Continuous
100
AcDbDimension
  2
*D8
 10
-73.38058762686931
 20
45.69939999999999
 30
0.0
 11
-73.38058762686933
 21
10.35222547975382
 31
0.0
 70
   160
 71
     5
 42
70.0
  3
ARTICS2
100
AcDbAlignedDimension
 13
-61.58288475141997
 23
-24.3006
 33
0.0
 14
-61.58288475141997
 24
45.69939999999999
 34
0.0
 50
90.0
100
AcDbRotatedDimension
  0
DIMENSION
  5
2F7
330
A
100
AcDbEntity
  8
0
  6
Continuous
100
AcDbDimension
  2
*D9
 10
-53.268386
 20
-32.93165237446732
 30
0.0
 11
-43.268386
 21
-32.93165237446732
 31
0.0
 70
   160
 71
     5
 42
3.5
  3
ARTICS2
100
AcDbAlignedDimension
 13
-56.76838599999999
 23
-24.3006
 33
0.0
 14
-53.268386
 24
-24.5506
 34
0.0
100
AcDbRotatedDimension
  0
DIMENSION
  5
306
330
A
100
AcDbEntity
  8
0
  6
Continuous
100
AcDbDimension
  2
*D10
 10
59.731614
 20
-32.93165237446732
 30
0.0
 11
3.231613999999999
 21
-30.43165237446732
 31
0.0
 70
    32
 71
     5
 42
113.0
  3
ARTICS2
100
AcDbAlignedDimension
 13
-53.268386
 23
-24.5506
 33
0.0
 14
59.731614
 24
-24.5506
 34
0.0
100
AcDbRotatedDimension
1001
ACAD
1000
DSTYLE
1002
{
1070
   279
1070
     1
1002
}
  0
DIMENSION
  5
313
330
A
100
AcDbEntity
  8
0
  6
Continuous
100
AcDbDimension
  2
*D11
 10
63.231614
 20
-32.92179899358399
 30
0.0
 11
49.731614
 21
-32.92179899358399
 31
0.0
 70
   160
 71
     5
 42
3.500000000000006
  3
ARTICS2
100
AcDbAlignedDimension
 13
59.731614
 23
-24.5506
 33
0.0
 14
63.231614
 24
-24.3006
 34
0.0
100
AcDbRotatedDimension
  0
DIMENSION
  5
330
330
A
100
AcDbEntity
  8
0
  6
Continuous
100
AcDbDimension
  2
*D12
 10
63.231614
 20
-38.97921313630962
 30
0.0
 11
3.686018293430038
 21
-38.97921313630962
 31
0.0
 70
   160
 71
     5
 42
120.0
  3
ARTICS2
100
AcDbAlignedDimension
 13
-56.76838599999999
 23
-29.61612618723366
 33
0.0
 14
63.231614
 24
-29.61119949679199
 34
0.0
100
AcDbRotatedDimension
  0
LWPOLYLINE
  5
554
330
A
100
AcDbEntity
  8
0
  6
Continuous
 62
     1
100
AcDbPolyline
 90
        4
 70
     1
 43
0.0
 10
-55.96096572638725
 20
3.186233308112263
 10
-50.96096572638725
 20
3.186233308112263
 10
-50.96096572638725
 20
21.18623330811226
 10
-55.96096572638725
 20
21.18623330811226
  0
LWPOLYLINE
  5
555
330
A
100
AcDbEntity
  8
0
  6
Continuous
 62
     1
100
AcDbPolyline
 90
        4
 70
     1
 43
0.0
 10
57.23255774842686
 20
-0.9063640446385079
 10
62.23255774842686
 20
-0.9063640446385079
 10
62.23255774842686
 20
17.09363595536149
 10
57.23255774842686
 20
17.09363595536149
  0
LWPOLYLINE
  5
556
330
A
100
AcDbEntity
  8
0
  6
Continuous
 62
     1
100
AcDbPolyline
 90
        4
 70
     1
 43
0.0
 10
57.23255774842686
 20
19.25931322568601
 10
62.23255774842686
 20
19.25931322568601
 10
62.23255774842686
 20
37.25931322568601
 10
57.23255774842686
 20
37.25931322568601
  0
MTEXT
  5
559
330
A
100
AcDbEntity
  8
0
  6
Continuous
 62
   180
100
AcDbMText
 10
-48.79298553730791
 20
13.42329716449364
 30
0.0
 40
3.0
 41
16.86090513349563
 71
     1
 72
     5
  1
映像入出力
  7
幅0.8高さ2.3
 73
     1
 44
1.0
1001
ACAD
1000
MTEXTBEGIN
1070
    73
1070
     1
1070
    44
1040
1.0
1070
    74
1070
     0
1000
MTEXTEND
  0
LWPOLYLINE
  5
5CA
330
A
100
AcDbEntity
  8
0
  6
Continuous
 62
     1
100
AcDbPolyline
 90
        4
 70
     1
 43
0.0
 10
-27.768386
 20
-6.300600000000001
 10
-0.7683859999999996
 20
-6.300600000000001
 10
-0.7683859999999996
 20
20.69939999999999
 10
-27.768386
 20
20.69939999999999
  0
MTEXT
  5
5CB
330
A
100
AcDbEntity
  8
0
  6
Continuous
 62
   180
100
AcDbMText
 10
-18.76210227859905
 20
8.212807710088441
 30
0.0
 40
3.0
 41
16.8609
 71
     1
 72
     5
  1
放熱器
  7
幅0.8高さ2.3
 73
     1
 44
1.0
1001
ACAD
1000
MTEXTBEGIN
1070
    73
1070
     1
1070
    44
1040
1.0
1070
    74
1070
     0
1000
MTEXTEND
  0
LWPOLYLINE
  5
5CC
330
A
100
AcDbEntity
  8
0
  6
Continuous
 62
     5
100
AcDbPolyline
 90
        4
 70
     1
 43
0.0
 10
-56.76838599999999
 20
-80.48890201444292
 10
63.231614
 20
-80.48890201444292
 10
63.231614
 20
-78.88890201444292
 10
-56.76838599999999
 20
-78.88890201444292
  0
LWPOLYLINE
  5
5CE
330
A
100
AcDbEntity
  8
0
  6
Continuous
 62
     1
100
AcDbPolyline
 90
        4
 70
     1
 43
0.0
 10
-27.768386
 20
-78.88890201444292
 10
-0.7683859999999996
 20
-78.88890201444292
 10
-0.7683859999999996
 20
-64.88890201444291
 10
-27.768386
 20
-64.88890201444291
  0
LINE
  5
5CF
330
A
100
AcDbEntity
  8
0
  6
Continuous
 62
     1
100
AcDbLine
 10
-27.768386
 20
-74.88890201444291
 30
0.0
 11
-0.7683859999999996
 21
-74.88890201444291
 31
0.0
  0
MTEXT
  5
5D0
330
A
100
AcDbEntity
  8
0
  6
Continuous
 62
   180
100
AcDbMText
 10
-18.76210227859905
 20
-68.76608539757055
 30
0.0
 40
3.0
 41
16.8609
 71
     1
 72
     5
  1
放熱器
  7
幅0.8高さ2.3
 73
     1
 44
1.0
1001
ACAD
1000
MTEXTBEGIN
1070
    73
1070
     1
1070
    44
1040
1.0
1070
    74
1070
     0
1000
MTEXTEND
  0
LWPOLYLINE
  5
5D1
330
A
100
AcDbEntity
  8
0
  6
Continuous
 62
     1
100
AcDbPolyline
 90
        4
 70
     0
 43
0.0
 10
60.58714559006853
 20
-75.18890201444292
 10
62.23255774842686
 20
-75.18890201444292
 10
62.23255774842686
 20
-78.88890201444292
 10
57.23255774842686
 20
-78.88890201444292
  0
LWPOLYLINE
  5
5D2
330
A
100
AcDbEntity
  8
0
  6
Continuous
 62
     1
100
AcDbPolyline
 90
        4
 70
     1
 43
0.0
 10
-50.96096572638726
 20
-78.88890201444292
 10
-55.96096572638726
 20
-78.88890201444292
 10
-55.96096572638726
 20
-75.18890201444292
 10
-50.96096572638726
 20
-75.18890201444292
  0
LWPOLYLINE
  5
5D3
330
A
100
AcDbEntity
  8
0
  6
Continuous
 62
     5
100
AcDbPolyline
 90
        4
 70
     1
 43
0.0
 10
98.16748629599622
 20
-24.3006
 10
99.76748629599621
 20
-24.3006
 10
99.76748629599621
 20
45.69939999999999
 10
98.16748629599622
 20
45.69939999999999
  0
LWPOLYLINE
  5
5D4
330
A
100
AcDbEntity
  8
0
  6
Continuous
 62
     1
100
AcDbPolyline
 90
        4
 70
     0
 43
0.0
 10
94.46748629599621
 20
20.69939999999999
 10
84.16748629599622
 20
20.69939999999999
 10
84.16748629599622
 20
-6.300600000000001
 10
91.16748629599621
 20
-6.300600000000001
  0
LINE
  5
5D5
330
A
100
AcDbEntity
  8
0
  6
Continuous
 62
     1
100
AcDbLine
 10
94.16748629599622
 20
-3.654471759010085
 30
0.0
 11
94.16748629599622
 21
20.69939999999999
 31
0.0
  0
LWPOLYLINE
  5
5D6
330
A
100
AcDbEntity
  8
0
  6
Continuous
 62
     1
100
AcDbPolyline
 90
        4
 70
     1
 43
0.0
 10
94.46748629599621
 20
-0.9063640446385079
 10
98.16748629599622
 20
-0.9063640446385079
 10
98.16748629599622
 20
17.09363595536149
 10
94.46748629599621
 20
17.09363595536149
  0
LWPOLYLINE
  5
5D7
330
A
100
AcDbEntity
  8
0
  6
Continuous
 62
     1
100
AcDbPolyline
 90
        4
 70
     1
 43
0.0
 10
94.46748629599621
 20
19.25931322568601
 10
98.16748629599622
 20
19.25931322568601
 10
98.16748629599622
 20
37.25931322568601
 10
94.46748629599621
 20
37.25931322568601
  0
LWPOLYLINE
  5
5D8
330
A
100
AcDbEntity
  8
0
  6
Continuous
 62
     5
100
AcDbPolyline
 90
        4
 70
     1
 43
0.0
 10
-55.268386
 20
-85.48890201444292
 10
-51.268386
 20
-85.48890201444292
 10
-51.268386
 20
-80.48890201444292
 10
-55.268386
 20
-80.48890201444292
  0
LWPOLYLINE
  5
5D9
330
A
100
AcDbEntity
  8
0
  6
Continuous
 62
     5
100
AcDbPolyline
 90
        4
 70
     1
 43
0.0
 10
57.731614
 20
-85.48890201444292
 10
61.731614
 20
-85.48890201444292
 10
61.731614
 20
-80.48890201444292
 10
57.731614
 20
-80.48890201444292
  0
LEADER
  5
5DA
330
A
100
AcDbEntity
  8
0
  6
Continuous
100
AcDbLeader
  3
ARTICS2
 73
     0
 74
     0
 75
     1
 40
8.199999999999999
 41
71.03999999999996
 76
     3
 10
-53.268386
 20
-85.48890201444292
 30
0.0
 10
-47.52934982231454
 20
-93.59335658478949
 30
0.0
 10
-44.52934982231453
 20
-93.59335658478949
 30
0.0
340
5DB
1001
ACAD
1000
DSTYLE
1002
{
1070
   147
1040
1.0
1070
    77
1070
     1
1002
}
  0
MTEXT
  5
5DB
102
{ACAD_REACTORS
330
5DA
102
}
330
A
100
AcDbEntity
  8
0
  6
Continuous
 62
     6
100
AcDbMText
 10
-43.52934982231453
 20
-92.59335658478949
 30
0.0
 40
3.0
 41
0.0
 71
     7
 72
     1
  1
\A1;放熱のため､金属スタッドをご使用ください。（４ヶ所）\P高さ５ｍｍ以上
  7
幅0.8高さ2.3
 73
     1
 44
1.0
1001
ACAD
1000
MTEXTBEGIN
1070
    73
1070
     1
1070
    44
1040
1.0
1070
    74
1070
     0
1000
MTEXTEND
  0
DIMENSION
  5
5DC
330
A
100
AcDbEntity
  8
0
  6
Continuous
100
AcDbDimension
  2
*D29
 10
-60.37122642742613
 20
-80.48890201444292
 30
0.0
 11
-60.37122642742611
 21
-92.61690201444292
 31
0.0
 70
   160
  1
<>以上
 71
     5
 42
5.0
  3
ARTICS4
100
AcDbAlignedDimension
 13
-55.268386
 23
-85.48890201444292
 33
0.0
 14
-56.76838599999999
 24
-80.48890201444292
 34
0.0
 50
90.0
100
AcDbRotatedDimension
1001
ACAD
1000
DSTYLE
1002
{
1070
   173
1070
     1
1070
   340
1005
1DA
1070
   342
1005
0
1070
   343
1005
24
1070
   344
1005
672
1002
}
  0
DIMENSION
  5
634
330
A
100
AcDbEntity
  8
0
  6
Continuous
100
AcDbDimension
  2
*D30
 10
-60.37122642742613
 20
-78.88890201444292
 30
0.0
 11
-60.37122642742612
 21
-65.93956868110959
 31
0.0
 70
   160
  1
基板ｔ＝<>
 71
     5
 42
1.599999999999994
  3
ARTICS4
100
AcDbAlignedDimension
 13
-56.76838599999999
 23
-80.48890201444292
 33
0.0
 14
-56.76838599999999
 24
-78.88890201444292
 34
0.0
 50
90.0
100
AcDbRotatedDimension
1001
ACAD
1000
DSTYLE
1002
{
1070
   343
1005
665
1070
   342
1005
0
1070
   173
1070
     1
1070
   344
1005
24
1070
   340
1005
1DA
1002
}
  0
DIMENSION
  5
6D1
330
A
100
AcDbEntity
  8
0
  6
Continuous
100
AcDbDimension
  2
*D33
 10
10.39129116556795
 20
-78.88890201444292
 30
0.0
 11
10.39129116556796
 21
-71.58934852151651
 31
0.0
 70
   160
 71
     5
 42
14.0
  3
ARTICS2
100
AcDbAlignedDimension
 13
-0.7683859999999996
 23
-64.88890201444291
 33
0.0
 14
-0.7683859999999996
 24
-78.88890201444292
 34
0.0
 50
90.0
100
AcDbRotatedDimension
  0
LWPOLYLINE
  5
75B
330
A
100
AcDbEntity
  8
0
  6
Continuous
 62
     1
100
AcDbPolyline
 90
        4
 70
     1
 43
0.0
 10
-54.99502154798097
 20
27.77257485682878
 10
-49.24502154798097
 20
27.77257485682878
 10
-49.24502154798097
 20
35.17257485682878
 10
-54.99502154798097
 20
35.17257485682878
  0
MTEXT
  5
75C
330
A
100
AcDbEntity
  8
0
  6
Continuous
 62
   180
100
AcDbMText
 10
-48.79298553730791
 20
32.28418543648365
 30
0.0
 40
3.0
 41
16.8609
 71
     1
 72
     5
  1
電源入力
  7
幅0.8高さ2.3
 73
     1
 44
1.0
1001
ACAD
1000
MTEXTBEGIN
1070
    73
1070
     1
1070
    44
1040
1.0
1070
    74
1070
     0
1000
MTEXTEND
  0
CIRCLE
  5
783
330
A
100
AcDbEntity
  8
0
  6
Continuous
 62
     1
100
AcDbCircle
 10
-31.76838599999999
 20
-16.8006
 30
0.0
 40
4.0
  0
LWPOLYLINE
  5
784
330
A
100
AcDbEntity
  8
0
  6
Continuous
 62
     1
100
AcDbPolyline
 90
        4
 70
     1
 43
0.0
 10
54.83714559006853
 20
-16.05447175901008
 10
60.58714559006853
 20
-16.05447175901008
 10
60.58714559006853
 20
-3.654471759010084
 10
54.83714559006853
 20
-3.654471759010084
  0
LWPOLYLINE
  5
785
330
A
100
AcDbEntity
  8
0
  6
Continuous
 62
     1
100
AcDbPolyline
 90
        4
 70
     1
 43
0.0
 10
91.16748629599621
 20
-16.05447175901008
 10
98.16748629599622
 20
-16.05447175901008
 10
98.16748629599622
 20
-3.654471759010085
 10
91.16748629599621
 20
-3.654471759010085
  0
LWPOLYLINE
  5
786
330
A
100
AcDbEntity
  8
0
  6
Continuous
 62
     1
100
AcDbPolyline
 90
        2
 70
     0
 43
0.0
 10
98.16748629599622
 20
-6.300600000000001
 10
98.16748629599622
 20
20.69939999999999
  0
LWPOLYLINE
  5
787
330
A
100
AcDbEntity
  8
0
  6
Continuous
 62
     1
100
AcDbPolyline
 90
        4
 70
     1
 43
0.0
 10
54.83714559006853
 20
-78.88890201444292
 10
60.58714559006853
 20
-78.88890201444292
 10
60.58714559006853
 20
-71.88890201444292
 10
54.83714559006853
 20
-71.88890201444292
  0
LWPOLYLINE
  5
788
330
A
100
AcDbEntity
  8
0
  6
Continuous
 62
     1
100
AcDbPolyline
 90
        4
 70
     1
 43
0.0
 10
-35.768386
 20
-78.88890201444292
 10
-27.768386
 20
-78.88890201444292
 10
-27.768386
 20
-68.88890201444292
 10
-35.768386
 20
-68.88890201444292
  0
LWPOLYLINE
  5
789
330
A
100
AcDbEntity
  8
0
  6
Continuous
 62
     1
100
AcDbPolyline
 90
        5
 70
     0
 43
0.0
 10
-54.99502154798097
 20
-78.88890201444292
 10
-49.24502154798098
 20
-78.88890201444292
 10
-49.24502154798098
 20
-71.88890201444292
 10
-54.99502154798097
 20
-71.88890201444292
 10
-54.99502154798097
 20
-75.18890201444292
  0
VIEWPORT
  5
12B
102
{ACAD_XDICTIONARY
360
815
102
}
330
B
100
AcDbEntity
 67
     1
  8
0
  6
Continuous
100
AcDbViewport
 10
257.2599841752559
 20
125.639423208756
 30
0.0
 40
601.0994667140438
 41
268.4372538492659
 68
     1
 69
     1
 12
257.2599841752559
 22
125.639423208756
 13
0.0
 23
0.0
 14
10.0
 24
10.0
 15
10.0
 25
10.0
 16
0.0
 26
0.0
 36
1.0
 17
0.0
 27
0.0
 37
0.0
 42
50.0
 43
0.0
 44
0.0
 45
268.4372538492659
 50
0.0
 51
0.0
 72
   100
 90
    32800
  1

281
     0
 71
     1
 74
     0
110
0.0
120
0.0
130
0.0
111
1.0
121
0.0
131
0.0
112
0.0
122
1.0
132
0.0
 79
     0
146
0.0
  0
VIEWPORT
  5
12D
102
{ACAD_XDICTIONARY
360
817
102
}
330
B
100
AcDbEntity
 67
     1
  8
DEFPOINTS
  6
Continuous
100
AcDbViewport
 10
99.11287712951477
 20
158.6792966971511
 30
0.0
 40
188.73527916268
 41
235.2450948546924
 68
     2
 69
     2
 12
11.42576767202274
 22
-12.45190100642901
 13
0.0
 23
0.0
 14
1.0
 24
1.0
 15
0.0
 25
0.0
 16
0.0
 26
0.0
 36
1.0
 17
0.0
 27
0.0
 37
0.0
 42
50.0
 43
0.0
 44
0.0
 45
235.2450971472815
 50
0.0
 51
0.0
 72
   100
 90
    32800
  1

281
     0
 71
     1
 74
     0
110
0.0
120
0.0
130
0.0
111
1.0
121
0.0
131
0.0
112
0.0
122
1.0
132
0.0
 79
     0
146
0.0
  0
MTEXT
  5
1C3
330
B
100
AcDbEntity
 67
     1
  8
0
  6
Continuous
 62
     4
100
AcDbMText
 10
127.3444466697266
 20
18.63182073033067
 30
0.0
 40
4.0
 41
65.7171
 71
     1
 72
     5
  1
ＤＭＳ－Ｂ４１ 外観図
  7
傾斜 高さ8
 73
     1
 44
1.0
1001
ACAD
1000
MTEXTBEGIN
1070
    73
1070
     1
1070
    44
1040
1.0
1070
    74
1070
     0
1000
MTEXTEND
  0
MTEXT
  5
1F2
330
B
100
AcDbEntity
 67
     1
  8
0
  6
Continuous
 62
     4
100
AcDbMText
 10
137.6979356704411
 20
10.87473198430143
 30
0.0
 40
5.0
 41
76.0143
 71
     1
 72
     5
  1
Ｍ４０５０６０１１
  7
傾斜 高さ8
 73
     1
 44
1.0
1001
ACAD
1000
MTEXTBEGIN
1070
    73
1070
     1
1070
    44
1040
1.0
1070
    74
1070
     0
1000
MTEXTEND
  0
MTEXT
  5
1F4
330
B
100
AcDbEntity
 67
     1
  8
0
  6
Continuous
 62
     4
100
AcDbMText
 10
111.891053281984
 20
24.08811755724139
 30
0.0
 40
4.0
 41
14.08492868840947
 71
     1
 72
     5
  1
１／１
  7
傾斜 高さ8
 73
     1
 44
1.0
1001
ACAD
1000
MTEXTBEGIN
1070
    73
1070
     1
1070
    44
1040
1.0
1070
    74
1070
     0
1000
MTEXTEND
  0
MTEXT
  5
1F5
330
B
100
AcDbEntity
 67
     1
  8
0
  6
Continuous
 62
     4
100
AcDbMText
 10
66.71278852740396
 20
25.88021487405024
 30
0.0
 40
4.0
 41
13.0116
 71
     1
 72
     5
  1
高 島
  7
傾斜 高さ8
 73
     1
 44
1.0
1001
ACAD
1000
MTEXTBEGIN
1070
    73
1070
     1
1070
    44
1040
1.0
1070
    74
1070
     0
1000
MTEXTEND
  0
MTEXT
  5
1F6
330
B
100
AcDbEntity
 67
     1
  8
0
  6
Continuous
 62
     4
100
AcDbMText
 10
66.65480373863942
 20
18.25429769432048
 30
0.0
 40
1.8
 41
14.8938
 71
     1
 72
     5
  1
2005.07.21
  7
傾斜 高さ8
 73
     1
 44
1.0
1001
ACAD
1000
MTEXTBEGIN
1070
    73
1070
     1
1070
    44
1040
1.0
1070
    74
1070
     0
1000
MTEXTEND
  0
INSERT
  5
755
330
B
100
AcDbEntity
 67
     1
  8
0
  6
Continuous
100
AcDbBlockReference
  2
A4zuwaku_ban
 10
98.45507323879305
 20
142.0170146091405
 30
0.0
  0
MTEXT
  5
758
330
B
100
AcDbEntity
 67
     1
  8
0
  6
Continuous
 62
     4
100
AcDbMText
 10
81.71278852740398
 20
25.88021487405024
 30
0.0
 40
4.0
 41
13.0116
 71
     1
 72
     5
  1
加 藤
  7
傾斜 高さ8
 73
     1
 44
1.0
1001
ACAD
1000
MTEXTBEGIN
1070
    73
1070
     1
1070
    44
1040
1.0
1070
    74
1070
     0
1000
MTEXTEND
  0
MTEXT
  5
759
330
B
100
AcDbEntity
 67
     1
  8
0
  6
Continuous
 62
     4
100
AcDbMText
 10
96.712788527404
 20
25.88021487405024
 30
0.0
 40
4.0
 41
13.0116
 71
     1
 72
     5
  1
加 藤
  7
傾斜 高さ8
 73
     1
 44
1.0
1001
ACAD
1000
MTEXTBEGIN
1070
    73
1070
     1
1070
    44
1040
1.0
1070
    74
1070
     0
1000
MTEXTEND
  0
MTEXT
  5
76F
330
B
100
AcDbEntity
 67
     1
  8
0
  6
Continuous
 62
     4
100
AcDbMText
 10
81.65480373863941
 20
18.25429769432048
 30
0.0
 40
1.8
 41
14.8938
 71
     1
 72
     5
  1
2005.07.21
  7
傾斜 高さ8
 73
     1
 44
1.0
1001
ACAD
1000
MTEXTBEGIN
1070
    73
1070
     1
1070
    44
1040
1.0
1070
    74
1070
     0
1000
MTEXTEND
  0
MTEXT
  5
771
330
B
100
AcDbEntity
 67
     1
  8
0
  6
Continuous
 62
     4
100
AcDbMText
 10
96.65480373863942
 20
18.25429769432048
 30
0.0
 40
1.8
 41
14.8938
 71
     1
 72
     5
  1
2005.07.21
  7
傾斜 高さ8
 73
     1
 44
1.0
1001
ACAD
1000
MTEXTBEGIN
1070
    73
1070
     1
1070
    44
1040
1.0
1070
    74
1070
     0
1000
MTEXTEND
  0
MTEXT
  5
772
330
B
100
AcDbEntity
 67
     1
  8
0
  6
Continuous
 62
     4
100
AcDbMText
 10
12.65480373863943
 20
10.25429769432048
 30
0.0
 40
1.7
 41
29.3003
 71
     1
 72
     5
  1
放熱器追加、図面タイトル変更
  7
傾斜 高さ8
 73
     1
 44
1.0
1001
ACAD
1000
MTEXTBEGIN
1070
    73
1070
     1
1070
    44
1040
1.0
1070
    74
1070
     0
1000
MTEXTEND
  0
MTEXT
  5
773
330
B
100
AcDbEntity
 67
     1
  8
0
  6
Continuous
 62
     4
100
AcDbMText
 10
42.65480373863943
 20
10.25429769432048
 30
0.0
 40
2.0
 41
11.8003
 71
     1
 72
     5
  1
2009.02.10
  7
幅0.6高さ2.3
 73
     1
 44
1.0
1001
ACAD
1000
MTEXTBEGIN
1070
    73
1070
     1
1070
    44
1040
1.0
1070
    74
1070
     0
1000
MTEXTEND
  0
MTEXT
  5
774
330
B
100
AcDbEntity
 67
     1
  8
0
  6
Continuous
 62
     4
100
AcDbMText
 10
55.15480373863943
 20
10.25429769432048
 30
0.0
 40
2.0
 41
11.8003
 71
     1
 72
     5
  1
Ｈ.Ｋｉｍｏｔｏ
  7
幅0.6高さ2.3
 73
     1
 44
1.0
1001
ACAD
1000
MTEXTBEGIN
1070
    73
1070
     1
1070
    44
1040
1.0
1070
    74
1070
     0
1000
MTEXTEND
  0
LWPOLYLINE
  5
77A
330
B
100
AcDbEntity
 67
     1
  8
0
  6
Continuous
 62
     4
100
AcDbPolyline
 90
        3
 70
   129
 43
0.0
 10
59.16812026671004
 20
113.6213164850957
 10
56.09572357365078
 20
108.2997693117104
 10
62.24051695976929
 20
108.2997693117104
  0
MTEXT
  5
77B
330
B
100
AcDbEntity
 67
     1
  8
0
  6
Continuous
 62
     4
100
AcDbMText
 10
57.95848861895979
 20
111.5922507793168
 30
0.0
 40
3.0
 41
2.741899999999998
 71
     1
 72
     5
  1
１
 73
     1
 44
1.0
1001
ACAD
1000
MTEXTBEGIN
1070
    73
1070
     1
1070
    44
1040
1.0
1070
    74
1070
     0
1000
MTEXTEND
  0
LWPOLYLINE
  5
77C
330
B
100
AcDbEntity
 67
     1
  8
0
  6
Continuous
 62
     4
100
AcDbPolyline
 90
        3
 70
   129
 43
0.0
 10
186.3956686741082
 20
19.85752003197558
 10
183.323271981049
 20
14.53597285859035
 10
189.4680653671675
 20
14.53597285859035
  0
MTEXT
  5
77D
330
B
100
AcDbEntity
 67
     1
  8
0
  6
Continuous
 62
     4
100
AcDbMText
 10
185.186037026358
 20
17.82845432619671
 30
0.0
 40
3.0
 41
2.741899999999998
 71
     1
 72
     5
  1
１
 73
     1
 44
1.0
1001
ACAD
1000
MTEXTBEGIN
1070
    73
1070
     1
1070
    44
1040
1.0
1070
    74
1070
     0
1000
MTEXTEND
  0
ENDSEC
  0
SECTION
  2
OBJECTS
  0
DICTIONARY
  5
19
330
0
100
AcDbDictionary
281
     1
  3
ACAD_CIP_PREVIOUS_PRODUCT_INFO
350
7EC
  3
ACAD_COLOR
350
7CD
  3
ACAD_DETAILVIEWSTYLE
350
7E6
  3
ACAD_GROUP
350
1A
  3
ACAD_LAYOUT
350
120
  3
ACAD_MATERIAL
350
79B
  3
ACAD_MLEADERSTYLE
350
7E2
  3
ACAD_MLINESTYLE
350
1B
  3
ACAD_PLOTSETTINGS
350
121
  3
ACAD_PLOTSTYLENAME
350
11E
  3
ACAD_SCALELIST
350
7D0
  3
ACAD_SECTIONVIEWSTYLE
350
7E4
  3
ACAD_TABLESTYLE
350
7CE
  3
ACAD_VISUALSTYLE
350
7B4
  3
AcadDim
350
55B
  3
ACDB_RECOMPOSE_DATA
350
807
  3
AcDbVariableDictionary
350
507
  3
AcDsDecomposeData
350
80E
  3
DWGPROPS
350
808
  0
DICTIONARY
  5
7F1
330
2
100
AcDbDictionary
280
     1
281
     1
  3
ACAD_LAYERSTATES
360
7F2
  0
DICTIONARY
  5
7F7
330
14
100
AcDbDictionary
280
     1
281
     1
  3
ADSK_XREC_LAYER_RECONCILED
360
7F8
  0
DICTIONARY
  5
7F9
330
1D
100
AcDbDictionary
280
     1
281
     1
  3
ADSK_XREC_LAYER_RECONCILED
360
7FA
  0
DICTIONARY
  5
7FB
330
376
100
AcDbDictionary
280
     1
281
     1
  3
ADSK_XREC_LAYER_RECONCILED
360
7FC
  0
DICTIONARY
  5
81B
330
5C6
100
AcDbDictionary
280
     1
281
     1
  3
ACAD_MTEXT_RT
360
81C
  0
DICTIONARY
  5
819
330
43D
100
AcDbDictionary
280
     1
281
     1
  3
ACAD_MTEXT_RT
360
81A
  0
DICTIONARY
  5
815
330
12B
100
AcDbDictionary
280
     1
281
     1
  3
ACAD_XREC_ROUNDTRIP
360
816
  0
DICTIONARY
  5
817
330
12D
100
AcDbDictionary
280
     1
281
     1
  3
ACAD_XREC_ROUNDTRIP
360
818
  0
XRECORD
  5
7EC
102
{ACAD_REACTORS
330
19
102
}
330
19
100
AcDbXrecord
280
     1
300
ACDLT
300
2013
300
ACDLT_F_S
  0
DICTIONARY
  5
7CD
102
{ACAD_REACTORS
330
19
102
}
330
19
100
AcDbDictionary
281
     1
  0
DICTIONARY
  5
7E6
102
{ACAD_REACTORS
330
19
102
}
330
19
100
AcDbDictionary
281
     1
  3
Metric50
350
7E7
  0
DICTIONARY
  5
1A
102
{ACAD_REACTORS
330
19
102
}
330
19
100
AcDbDictionary
281
     1
  0
DICTIONARY
  5
120
102
{ACAD_REACTORS
330
19
102
}
330
19
100
AcDbDictionary
281
     1
  3
Model
350
122
  3
ﾚｲｱｳﾄ1
350
123
  0
DICTIONARY
  5
79B
102
{ACAD_REACTORS
330
19
102
}
330
19
100
AcDbDictionary
281
     1
  3
ByBlock
350
7A4
  3
ByLayer
350
79C
  3
Global
350
7AC
  0
DICTIONARY
  5
7E2
102
{ACAD_REACTORS
330
19
102
}
330
19
100
AcDbDictionary
281
     1
  3
Standard
350
7E3
  0
DICTIONARY
  5
1B
102
{ACAD_REACTORS
330
19
102
}
330
19
100
AcDbDictionary
281
     1
  3
STANDARD
350
1C
  0
DICTIONARY
  5
121
102
{ACAD_REACTORS
330
19
102
}
330
19
100
AcDbDictionary
281
     1
  0
ACDBDICTIONARYWDFLT
  5
11E
102
{ACAD_REACTORS
330
19
102
}
330
19
100
AcDbDictionary
281
     1
  3
Normal
350
11F
100
AcDbDictionaryWithDefault
340
11F
  0
DICTIONARY
  5
7D0
102
{ACAD_REACTORS
330
19
102
}
330
19
100
AcDbDictionary
281
     1
  3
A0
350
7D1
  3
A1
350
7D2
  3
A2
350
7D3
  3
A3
350
7D4
  3
A4
350
7D5
  3
A5
350
7D6
  3
A6
350
7D7
  3
A7
350
7D8
  3
A8
350
7D9
  3
A9
350
7DA
  3
B0
350
7DB
  3
B1
350
7DC
  3
B2
350
7DD
  3
B3
350
7DE
  3
B4
350
7DF
  3
B5
350
7E0
  3
B6
350
7E1
  0
DICTIONARY
  5
7E4
102
{ACAD_REACTORS
330
19
102
}
330
19
100
AcDbDictionary
281
     1
  3
Metric50
350
7E5
  0
DICTIONARY
  5
7CE
102
{ACAD_REACTORS
330
19
102
}
330
19
100
AcDbDictionary
281
     1
  3
Standard
350
7CF
  0
DICTIONARY
  5
7B4
102
{ACAD_REACTORS
330
19
102
}
330
19
100
AcDbDictionary
281
     1
  3
2dWireframe
350
7BA
  3
Basic
350
7B9
  3
Brighten
350
7C0
  3
ColorChange
350
7C4
  3
Conceptual
350
7BD
  3
Dim
350
7BF
  3
EdgeColorOff
350
7CC
  3
Facepattern
350
7C3
  3
Flat
350
7B5
  3
FlatWithEdges
350
7B6
  3
Gouraud
350
7B7
  3
GouraudWithEdges
350
7B8
  3
Hidden
350
7BC
  3
JitterOff
350
7CA
  3
Linepattern
350
7C2
  3
OverhangOff
350
7CB
  3
Realistic
350
7BE
  3
Shaded
350
7C9
  3
Shaded with edges
350
7C8
  3
Shades of Gray
350
7C5
  3
Sketchy
350
7C6
  3
Thicken
350
7C1
  3
Wireframe
350
7BB
  3
X-Ray
350
7C7
  0
XRECORD
  5
55B
102
{ACAD_REACTORS
330
19
102
}
330
19
100
AcDbXrecord
280
     1
 90
   990106
  3

 60
     0
 61
     0
 62
     4
 63
     4
 64
     1
 65
     0
 66
     0
 67
     3
 68
     1
 69
     0
 70
     0
 71
     0
 72
     0
 40
0.0
170
     2
340
5DB
  0
XRECORD
  5
807
102
{ACAD_REACTORS
330
19
102
}
330
19
100
AcDbXrecord
280
     1
 90
        1
330
7CF
  0
DICTIONARY
  5
507
102
{ACAD_REACTORS
330
19
102
}
330
19
100
AcDbDictionary
281
     1
  3
CANNOSCALE
350
801
  3
CMLEADERSTYLE
350
7FE
  3
CTABLESTYLE
350
7FD
  3
CVIEWDETAILSTYLE
350
7FF
  3
CVIEWSECTIONSTYLE
350
800
  3
DIMASSOC
350
803
  3
INDEXCTL
350
802
  3
SORTENTS
350
508
  3
XCLIPFRAME
350
804
  0
DICTIONARY
  5
80E
102
{ACAD_REACTORS
330
19
102
}
330
19
100
AcDbDictionary
281
     1
  3
AcDsRecords
350
810
  3
AcDsSchemas
350
80F
1001
ACAD
1070
     2
  0
XRECORD
  5
808
102
{ACAD_REACTORS
330
19
102
}
330
19
100
AcDbXrecord
280
     1
  1
DWGPROPS COOKIE
  2

  3

  4

  6

  7

  8
生産統括部 木本
  9

300
=
301
=
302
=
303
=
304
=
305
=
306
=
307
=
308
=
309
=
 40
0.2856266203703703
 41
2453927.640358796
 42
2456841.494964178
  1

 90
        0
  0
DICTIONARY
  5
7F2
102
{ACAD_REACTORS
330
7F1
102
}
330
7F1
100
AcDbDictionary
281
     1
  0
XRECORD
  5
7F8
102
{ACAD_REACTORS
330
7F7
102
}
330
7F7
100
AcDbXrecord
280
     1
290
     1
  0
XRECORD
  5
7FA
102
{ACAD_REACTORS
330
7F9
102
}
330
7F9
100
AcDbXrecord
280
     1
290
     1
  0
XRECORD
  5
7FC
102
{ACAD_REACTORS
330
7FB
102
}
330
7FB
100
AcDbXrecord
280
     1
290
     1
  0
XRECORD
  5
81C
102
{ACAD_REACTORS
330
81B
102
}
330
81B
100
AcDbXrecord
280
     1
 40
-1156.0
  1
\A1;4-\U+22053.5（取付穴）
  0
XRECORD
  5
81A
102
{ACAD_REACTORS
330
819
102
}
330
819
100
AcDbXrecord
280
     1
 40
52356.0
  1
\A1;2-\U+22054{\A1;\H0.75x;\S +0.1^  -0;}
  0
XRECORD
  5
816
102
{ACAD_REACTORS
330
815
102
}
330
815
100
AcDbXrecord
280
     1
102
SHADEPLOT
 70
     0
  0
XRECORD
  5
818
102
{ACAD_REACTORS
330
817
102
}
330
817
100
AcDbXrecord
280
     1
102
SHADEPLOT
 70
     0
  0
ACDBDETAILVIEWSTYLE
  5
7E7
102
{ACAD_REACTORS
330
7E6
102
}
330
7E6
100
AcDbModelDocViewStyle
 70
     0
  3
Metric50
290
     0
100
AcDbDetailViewStyle
 70
     0
 71
     0
 90
        3
 71
     1
340
11D
 40
5.0
340
0
 40
5.0
300

 40
0.0
280
     1
 71
     2
340
13
 90
       25
 71
     3
340
11D
 40
5.0
 90
        0
 40
15.0
 90
        1
300
%<\AcVar ViewDetailId>% (%<\AcVar ViewScale \f "%sn">%)
 71
     4
340
13
 90
       25
340
13
 90
       25
280
     0
  0
LAYOUT
  5
122
102
{ACAD_XDICTIONARY
360
811
102
}
102
{ACAD_REACTORS
330
120
102
}
330
120
100
AcDbPlotSettings
  1

  2
NEC MULTINA ALPHA3520/2520/1820
  4
A4
  6

 40
5.873749732971191
 41
5.873747825622557
 42
6.000747680664062
 43
5.873748779296875
 44
210.1003265380859
 45
297.0953369140625
 46
0.0
 47
0.0
 48
0.0
 49
0.0
140
0.0
141
0.0
142
1.0
143
1.0
 70
 11952
 72
     1
 73
     1
 74
     0
  7

 75
     0
147
1.0
148
182.3848479798689
149
157.5507652137143
100
AcDbLayout
  1
Model
 70
     1
 71
     0
 10
0.0
 20
0.0
 11
12.0
 21
9.0
 12
0.0
 22
0.0
 32
0.0
 14
0.0
 24
0.0
 34
0.0
 15
0.0
 25
0.0
 35
0.0
146
0.0
 13
0.0
 23
0.0
 33
0.0
 16
1.0
 26
0.0
 36
0.0
 17
0.0
 27
1.0
 37
0.0
 76
     0
330
A
331
795
  0
LAYOUT
  5
123
102
{ACAD_XDICTIONARY
360
813
102
}
102
{ACAD_REACTORS
330
120
102
}
330
120
100
AcDbPlotSettings
  1

  2
Acrobat Distiller
  4
A4
  6

 40
3.174999952316283
 41
3.174999952316283
 42
3.175003051757812
 43
3.17498779296875
 44
209.9098358154297
 45
297.0318298339843
 46
0.0
 47
0.0
 48
0.0
 49
0.0
140
0.0
141
0.0
142
1.0
143
1.0
 70
   688
 72
     1
 73
     0
 74
     5
  7
black.ctb
 75
    16
147
1.0
148
0.0
149
0.0
100
AcDbLayout
  1
ﾚｲｱｳﾄ1
 70
     0
 71
     1
 10
-3.174999952316283
 20
-3.174999952316283
 11
206.7348358631134
 21
293.856829881668
 12
0.0
 22
0.0
 32
0.0
 14
3.455073238793048
 24
3.517014609140488
 34
0.0
 15
193.4805167108548
 25
280.5170146091405
 35
0.0
146
0.0
 13
0.0
 23
0.0
 33
0.0
 16
1.0
 26
0.0
 36
0.0
 17
0.0
 27
1.0
 37
0.0
 76
     0
330
B
331
12B
  0
MATERIAL
  5
7A4
102
{ACAD_XDICTIONARY
360
7A5
102
}
102
{ACAD_REACTORS
330
79B
102
}
330
79B
100
AcDbMaterial
  1
ByBlock
 72
     0
 43
0.0208333333333333
 43
0.0
 43
0.0
 43
0.0
 43
0.0
 43
0.0208333333333333
 43
0.0
 43
0.0
 43
0.0
 43
0.0
 43
1.0
 43
0.0
 43
0.0
 43
0.0
 43
0.0
 43
1.0
 77
     0
 47
0.0208333333333333
 47
0.0
 47
0.0
 47
0.0
 47
0.0
 47
0.0208333333333333
 47
0.0
 47
0.0
 47
0.0
 47
0.0
 47
1.0
 47
0.0
 47
0.0
 47
0.0
 47
0.0
 47
1.0
171
     0
 49
0.0208333333333333
 49
0.0
 49
0.0
 49
0.0
 49
0.0
 49
0.0208333333333333
 49
0.0
 49
0.0
 49
0.0
 49
0.0
 49
1.0
 49
0.0
 49
0.0
 49
0.0
 49
0.0
 49
1.0
175
     0
142
0.0208333333333333
142
0.0
142
0.0
142
0.0
142
0.0
142
0.0208333333333333
142
0.0
142
0.0
142
0.0
142
0.0
142
1.0
142
0.0
142
0.0
142
0.0
142
0.0
142
1.0
179
     0
144
0.0208333333333333
144
0.0
144
0.0
144
0.0
144
0.0
144
0.0208333333333333
144
0.0
144
0.0
144
0.0
144
0.0
144
1.0
144
0.0
144
0.0
144
0.0
144
0.0
144
1.0
147
0.0208333333333333
147
0.0
147
0.0
147
0.0
147
0.0
147
0.0208333333333333
147
0.0
147
0.0
147
0.0
147
0.0
147
1.0
147
0.0
147
0.0
147
0.0
147
0.0
147
1.0
  0
MATERIAL
  5
79C
102
{ACAD_XDICTIONARY
360
79D
102
}
102
{ACAD_REACTORS
330
79B
102
}
330
79B
100
AcDbMaterial
  1
ByLayer
 72
     0
 43
0.0208333333333333
 43
0.0
 43
0.0
 43
0.0
 43
0.0
 43
0.0208333333333333
 43
0.0
 43
0.0
 43
0.0
 43
0.0
 43
1.0
 43
0.0
 43
0.0
 43
0.0
 43
0.0
 43
1.0
 77
     0
 47
0.0208333333333333
 47
0.0
 47
0.0
 47
0.0
 47
0.0
 47
0.0208333333333333
 47
0.0
 47
0.0
 47
0.0
 47
0.0
 47
1.0
 47
0.0
 47
0.0
 47
0.0
 47
0.0
 47
1.0
171
     0
 49
0.0208333333333333
 49
0.0
 49
0.0
 49
0.0
 49
0.0
 49
0.0208333333333333
 49
0.0
 49
0.0
 49
0.0
 49
0.0
 49
1.0
 49
0.0
 49
0.0
 49
0.0
 49
0.0
 49
1.0
175
     0
142
0.0208333333333333
142
0.0
142
0.0
142
0.0
142
0.0
142
0.0208333333333333
142
0.0
142
0.0
142
0.0
142
0.0
142
1.0
142
0.0
142
0.0
142
0.0
142
0.0
142
1.0
179
     0
144
0.0208333333333333
144
0.0
144
0.0
144
0.0
144
0.0
144
0.0208333333333333
144
0.0
144
0.0
144
0.0
144
0.0
144
1.0
144
0.0
144
0.0
144
0.0
144
0.0
144
1.0
147
0.0208333333333333
147
0.0
147
0.0
147
0.0
147
0.0
147
0.0208333333333333
147
0.0
147
0.0
147
0.0
147
0.0
147
1.0
147
0.0
147
0.0
147
0.0
147
0.0
147
1.0
  0
MATERIAL
  5
7AC
102
{ACAD_XDICTIONARY
360
7AD
102
}
102
{ACAD_REACTORS
330
79B
102
}
330
79B
100
AcDbMaterial
  1
Global
 72
     0
 43
0.0208333333333333
 43
0.0
 43
0.0
 43
0.0
 43
0.0
 43
0.0208333333333333
 43
0.0
 43
0.0
 43
0.0
 43
0.0
 43
1.0
 43
0.0
 43
0.0
 43
0.0
 43
0.0
 43
1.0
 77
     0
 47
0.0208333333333333
 47
0.0
 47
0.0
 47
0.0
 47
0.0
 47
0.0208333333333333
 47
0.0
 47
0.0
 47
0.0
 47
0.0
 47
1.0
 47
0.0
 47
0.0
 47
0.0
 47
0.0
 47
1.0
171
     0
 49
0.0208333333333333
 49
0.0
 49
0.0
 49
0.0
 49
0.0
 49
0.0208333333333333
 49
0.0
 49
0.0
 49
0.0
 49
0.0
 49
1.0
 49
0.0
 49
0.0
 49
0.0
 49
0.0
 49
1.0
175
     0
142
0.0208333333333333
142
0.0
142
0.0
142
0.0
142
0.0
142
0.0208333333333333
142
0.0
142
0.0
142
0.0
142
0.0
142
1.0
142
0.0
142
0.0
142
0.0
142
0.0
142
1.0
179
     0
144
0.0208333333333333
144
0.0
144
0.0
144
0.0
144
0.0
144
0.0208333333333333
144
0.0
144
0.0
144
0.0
144
0.0
144
1.0
144
0.0
144
0.0
144
0.0
144
0.0
144
1.0
147
0.0208333333333333
147
0.0
147
0.0
147
0.0
147
0.0
147
0.0208333333333333
147
0.0
147
0.0
147
0.0
147
0.0
147
1.0
147
0.0
147
0.0
147
0.0
147
0.0
147
1.0
  0
MLEADERSTYLE
  5
7E3
102
{ACAD_REACTORS
330
7E2
102
}
330
7E2
100
AcDbMLeaderStyle
170
     2
171
     1
172
     0
 90
        2
 40
0.0
 41
0.0
173
     1
 91
-1056964608
340
11
 92
       -2
290
     1
 42
2.0
291
     1
 43
0.36
  3
Standard
 44
4.0
300

342
17
174
     1
178
     6
175
     1
176
     0
 93
-1056964608
 45
4.0
292
     0
297
     0
 46
4.0
 94
-1056964608
 47
1.0
 49
1.0
140
1.0
293
     1
141
0.0
294
     1
177
     0
142
1.0
295
     0
296
     0
143
0.125
1001
ACAD_MLEADERVER
1070
     2
  0
MLINESTYLE
  5
1C
102
{ACAD_REACTORS
330
1B
102
}
330
1B
100
AcDbMlineStyle
  2
STANDARD
 70
     0
  3

 62
     0
 51
90.0
 52
90.0
 71
     2
 49
0.5
 62
   256
  6
BYLAYER
 49
-0.5
 62
   256
  6
BYLAYER
  0
ACDBPLACEHOLDER
  5
11F
102
{ACAD_REACTORS
330
11E
102
}
330
11E
  0
SCALE
  5
7D1
102
{ACAD_REACTORS
330
7D0
102
}
330
7D0
100
AcDbScale
 70
     0
300
1:1
140
1.0
141
1.0
290
     1
  0
SCALE
  5
7D2
102
{ACAD_REACTORS
330
7D0
102
}
330
7D0
100
AcDbScale
 70
     0
300
1:2
140
1.0
141
2.0
290
     0
  0
SCALE
  5
7D3
102
{ACAD_REACTORS
330
7D0
102
}
330
7D0
100
AcDbScale
 70
     0
300
1:4
140
1.0
141
4.0
290
     0
  0
SCALE
  5
7D4
102
{ACAD_REACTORS
330
7D0
102
}
330
7D0
100
AcDbScale
 70
     0
300
1:5
140
1.0
141
5.0
290
     0
  0
SCALE
  5
7D5
102
{ACAD_REACTORS
330
7D0
102
}
330
7D0
100
AcDbScale
 70
     0
300
1:8
140
1.0
141
8.0
290
     0
  0
SCALE
  5
7D6
102
{ACAD_REACTORS
330
7D0
102
}
330
7D0
100
AcDbScale
 70
     0
300
1:10
140
1.0
141
10.0
290
     0
  0
SCALE
  5
7D7
102
{ACAD_REACTORS
330
7D0
102
}
330
7D0
100
AcDbScale
 70
     0
300
1:16
140
1.0
141
16.0
290
     0
  0
SCALE
  5
7D8
102
{ACAD_REACTORS
330
7D0
102
}
330
7D0
100
AcDbScale
 70
     0
300
1:20
140
1.0
141
20.0
290
     0
  0
SCALE
  5
7D9
102
{ACAD_REACTORS
330
7D0
102
}
330
7D0
100
AcDbScale
 70
     0
300
1:30
140
1.0
141
30.0
290
     0
  0
SCALE
  5
7DA
102
{ACAD_REACTORS
330
7D0
102
}
330
7D0
100
AcDbScale
 70
     0
300
1:40
140
1.0
141
40.0
290
     0
  0
SCALE
  5
7DB
102
{ACAD_REACTORS
330
7D0
102
}
330
7D0
100
AcDbScale
 70
     0
300
1:50
140
1.0
141
50.0
290
     0
  0
SCALE
  5
7DC
102
{ACAD_REACTORS
330
7D0
102
}
330
7D0
100
AcDbScale
 70
     0
300
1:100
140
1.0
141
100.0
290
     0
  0
SCALE
  5
7DD
102
{ACAD_REACTORS
330
7D0
102
}
330
7D0
100
AcDbScale
 70
     0
300
2:1
140
2.0
141
1.0
290
     0
  0
SCALE
  5
7DE
102
{ACAD_REACTORS
330
7D0
102
}
330
7D0
100
AcDbScale
 70
     0
300
4:1
140
4.0
141
1.0
290
     0
  0
SCALE
  5
7DF
102
{ACAD_REACTORS
330
7D0
102
}
330
7D0
100
AcDbScale
 70
     0
300
8:1
140
8.0
141
1.0
290
     0
  0
SCALE
  5
7E0
102
{ACAD_REACTORS
330
7D0
102
}
330
7D0
100
AcDbScale
 70
     0
300
10:1
140
10.0
141
1.0
290
     0
  0
SCALE
  5
7E1
102
{ACAD_REACTORS
330
7D0
102
}
330
7D0
100
AcDbScale
 70
     0
300
100:1
140
100.0
141
1.0
290
     0
  0
ACDBSECTIONVIEWSTYLE
  5
7E5
102
{ACAD_REACTORS
330
7E4
102
}
330
7E4
100
AcDbModelDocViewStyle
 70
     0
  3
Metric50
290
     0
100
AcDbSectionViewStyle
 70
     0
 71
     0
 90
      102
 71
     1
340
11D
 40
5.0
340
0
340
0
 40
5.0
300
I, O, Q, S, X, Z
 40
10.0
 90
        0
 40
2.5
 90
        0
 71
     2
340
13
 90
       25
340
13
 90
       50
 40
5.0
 40
2.5
 40
5.0
 71
     3
340
11D
 40
5.0
 90
        0
 40
15.0
 90
        1
300
%<\AcVar ViewSectionStartId>%-%<\AcVar ViewSectionEndId>% (%<\AcVar ViewScale \f "%sn">%)
 71
     4
300
ANSI31
 40
1.0
 90
        0
290
     0
290
     0
 90
        6
 40
0.0
 40
1.570796326794896
 40
0.2617993877991494
 40
1.308996938995747
 40
-0.2617993877991494
 40
1.832595714594046
  0
TABLESTYLE
  5
7CF
102
{ACAD_XDICTIONARY
360
805
102
}
102
{ACAD_REACTORS
330
7CE
102
}
330
7CE
100
AcDbTableStyle
  3
Standard
 70
     0
 71
     0
 40
1.5
 41
1.5
280
     0
281
     0
  7
MX_NOTE_STANDARD
140
4.5
170
     2
 62
     0
 63
     7
283
     0
274
    -2
284
     1
 64
     0
275
    -2
285
     1
 65
     0
276
    -2
286
     1
 66
     0
277
    -2
287
     1
 67
     0
278
    -2
288
     1
 68
     0
279
    -2
289
     1
 69
     0
  7
MX_NOTE_STANDARD
140
6.0
170
     5
 62
     0
 63
     7
283
     0
274
    -2
284
     1
 64
     0
275
    -2
285
     1
 65
     0
276
    -2
286
     1
 66
     0
277
    -2
287
     1
 67
     0
278
    -2
288
     1
 68
     0
279
    -2
289
     1
 69
     0
  7
MX_NOTE_STANDARD
140
4.5
170
     5
 62
     0
 63
     7
283
     0
274
    -2
284
     1
 64
     0
275
    -2
285
     1
 65
     0
276
    -2
286
     1
 66
     0
277
    -2
287
     1
 67
     0
278
    -2
288
     1
 68
     0
279
    -2
289
     1
 69
     0
  0
VISUALSTYLE
  5
7BA
102
{ACAD_XDICTIONARY
360
82A
102
}
102
{ACAD_REACTORS
330
7B4
102
}
330
7B4
100
AcDbVisualStyle
  2
2dWireframe
 70
     4
 71
     0
 72
     2
 73
     0
 90
        0
 40
-0.6
 41
-30.0
 62
     5
 63
     7
 74
     1
 91
        4
 64
     7
 65
   257
 75
     1
175
     1
 42
1.0
 92
        0
 66
   257
 43
1.0
 76
     1
 77
     6
 78
     2
 67
     7
 79
     5
170
     0
171
     0
290
     0
174
     0
 93
        1
 44
0.0
173
     0
291
     0
 45
0.0
1001
ACAD
1000
AcDbSavedByObjectVersion
1070
     0
  0
VISUALSTYLE
  5
7B9
102
{ACAD_XDICTIONARY
360
828
102
}
102
{ACAD_REACTORS
330
7B4
102
}
330
7B4
100
AcDbVisualStyle
  2
Basic
 70
     7
 71
     1
 72
     0
 73
     1
 90
        0
 40
-0.6
 41
-30.0
 62
     5
 63
     7
 74
     0
 91
        4
 64
     7
 65
   257
 75
     1
175
     1
 42
1.0
 92
        8
 66
     7
 43
1.0
 76
     1
 77
     6
 78
     2
 67
     7
 79
     5
170
     0
171
     0
290
     0
174
     0
 93
        1
 44
0.0
173
     0
291
     1
 45
0.0
1001
ACAD
1000
AcDbSavedByObjectVersion
1070
     0
  0
VISUALSTYLE
  5
7C0
102
{ACAD_XDICTIONARY
360
836
102
}
102
{ACAD_REACTORS
330
7B4
102
}
330
7B4
100
AcDbVisualStyle
  2
Brighten
 70
    12
 71
     2
 72
     2
 73
     0
 90
        0
 40
-0.6
 41
-30.0
 62
     5
 63
     7
 74
     1
 91
        4
 64
     7
 65
   257
 75
     1
175
     1
 42
1.0
 92
        8
 66
     7
 43
1.0
 76
     1
 77
     6
 78
     2
 67
     7
 79
     5
170
     0
171
     0
290
     0
174
     0
 93
        1
 44
50.0
173
     0
291
     1
 45
0.0
1001
ACAD
1000
AcDbSavedByObjectVersion
1070
     0
  0
VISUALSTYLE
  5
7C4
102
{ACAD_XDICTIONARY
360
83E
102
}
102
{ACAD_REACTORS
330
7B4
102
}
330
7B4
100
AcDbVisualStyle
  2
ColorChange
 70
    16
 71
     2
 72
     2
 73
     3
 90
        0
 40
-0.6
 41
-30.0
 62
     5
 63
     8
 74
     1
 91
        4
 64
     7
 65
   257
 75
     1
175
     1
 42
1.0
 92
        8
 66
     8
 43
1.0
 76
     1
 77
     6
 78
     2
 67
     7
 79
     5
170
     0
171
     0
290
     0
174
     0
 93
        1
 44
0.0
173
     0
291
     1
 45
0.0
1001
ACAD
1000
AcDbSavedByObjectVersion
1070
     0
  0
VISUALSTYLE
  5
7BD
102
{ACAD_XDICTIONARY
360
830
102
}
102
{ACAD_REACTORS
330
7B4
102
}
330
7B4
100
AcDbVisualStyle
  2
Conceptual
 70
     9
 71
     3
 72
     2
 73
     0
 90
        0
 40
-0.6
 41
-30.0
 62
     5
 63
     7
 74
     2
 91
        2
 64
     7
 65
   257
 75
     1
175
     1
 42
179.0
 92
        8
 66
     7
 43
1.0
 76
     1
 77
     6
 78
     2
 67
     7
 79
     3
170
     0
171
     0
290
     0
174
     0
 93
        1
 44
0.0
173
     0
291
     0
 45
0.0
1001
ACAD
1000
AcDbSavedByObjectVersion
1070
     0
  0
VISUALSTYLE
  5
7BF
102
{ACAD_XDICTIONARY
360
834
102
}
102
{ACAD_REACTORS
330
7B4
102
}
330
7B4
100
AcDbVisualStyle
  2
Dim
 70
    11
 71
     2
 72
     2
 73
     0
 90
        0
 40
-0.6
 41
-30.0
 62
     5
 63
     7
 74
     1
 91
        4
 64
     7
 65
   257
 75
     1
175
     1
 42
1.0
 92
        8
 66
     7
 43
1.0
 76
     1
 77
     6
 78
     2
 67
     7
 79
     5
170
     0
171
     0
290
     0
174
     0
 93
        1
 44
-50.0
173
     0
291
     1
 45
0.0
1001
ACAD
1000
AcDbSavedByObjectVersion
1070
     0
  0
VISUALSTYLE
  5
7CC
102
{ACAD_XDICTIONARY
360
84E
102
}
102
{ACAD_REACTORS
330
7B4
102
}
330
7B4
100
AcDbVisualStyle
  2
EdgeColorOff
 70
    22
 71
     2
 72
     2
 73
     0
 90
        0
 40
-0.6
 41
-30.0
 62
     5
 63
     7
 74
     1
 91
        4
 64
     7
 65
   257
 75
     1
175
     1
 42
1.0
 92
        8
 66
     7
 43
1.0
 76
     1
 77
     6
 78
     2
 67
     7
 79
     5
170
     0
171
     0
290
     0
174
     0
 93
        1
 44
0.0
173
     0
291
     1
 45
0.0
1001
ACAD
1000
AcDbSavedByObjectVersion
1070
     0
  0
VISUALSTYLE
  5
7C3
102
{ACAD_XDICTIONARY
360
83C
102
}
102
{ACAD_REACTORS
330
7B4
102
}
330
7B4
100
AcDbVisualStyle
  2
Facepattern
 70
    15
 71
     2
 72
     2
 73
     0
 90
        0
 40
-0.6
 41
-30.0
 62
     5
 63
     7
 74
     1
 91
        4
 64
     7
 65
   257
 75
     1
175
     1
 42
1.0
 92
        8
 66
     7
 43
1.0
 76
     1
 77
     6
 78
     2
 67
     7
 79
     5
170
     0
171
     0
290
     0
174
     0
 93
        1
 44
0.0
173
     0
291
     1
 45
0.0
1001
ACAD
1000
AcDbSavedByObjectVersion
1070
     0
  0
VISUALSTYLE
  5
7B5
102
{ACAD_XDICTIONARY
360
820
102
}
102
{ACAD_REACTORS
330
7B4
102
}
330
7B4
100
AcDbVisualStyle
  2
Flat
 70
     0
 71
     2
 72
     1
 73
     1
 90
        2
 40
-0.6
 41
30.0
 62
     5
 63
     7
 74
     0
 91
        0
 64
     7
 65
   257
 75
     1
175
     1
 42
1.0
 92
        8
 66
     7
 43
1.0
 76
     1
 77
     6
 78
     2
 67
     7
 79
     5
170
     0
171
     0
290
     0
174
     0
 93
       13
 44
0.0
173
     0
291
     1
 45
0.0
1001
ACAD
1000
AcDbSavedByObjectVersion
1070
     0
  0
VISUALSTYLE
  5
7B6
102
{ACAD_XDICTIONARY
360
822
102
}
102
{ACAD_REACTORS
330
7B4
102
}
330
7B4
100
AcDbVisualStyle
  2
FlatWithEdges
 70
     1
 71
     2
 72
     1
 73
     1
 90
        2
 40
-0.6
 41
30.0
 62
     5
 63
     7
 74
     1
 91
        0
 64
     7
 65
   257
 75
     1
175
     1
 42
1.0
 92
        0
 66
   257
 43
1.0
 76
     1
 77
     6
 78
     2
 67
     7
 79
     5
170
     0
171
     0
290
     0
174
     0
 93
       13
 44
0.0
173
     0
291
     1
 45
0.0
1001
ACAD
1000
AcDbSavedByObjectVersion
1070
     0
  0
VISUALSTYLE
  5
7B7
102
{ACAD_XDICTIONARY
360
824
102
}
102
{ACAD_REACTORS
330
7B4
102
}
330
7B4
100
AcDbVisualStyle
  2
Gouraud
 70
     2
 71
     2
 72
     2
 73
     1
 90
        2
 40
-0.6
 41
30.0
 62
     5
 63
     7
 74
     0
 91
        0
 64
     7
 65
   257
 75
     1
175
     1
 42
1.0
 92
        0
 66
     7
 43
1.0
 76
     1
 77
     6
 78
     2
 67
     7
 79
     5
170
     0
171
     0
290
     0
174
     0
 93
       13
 44
0.0
173
     0
291
     1
 45
0.0
1001
ACAD
1000
AcDbSavedByObjectVersion
1070
     0
  0
VISUALSTYLE
  5
7B8
102
{ACAD_XDICTIONARY
360
826
102
}
102
{ACAD_REACTORS
330
7B4
102
}
330
7B4
100
AcDbVisualStyle
  2
GouraudWithEdges
 70
     3
 71
     2
 72
     2
 73
     1
 90
        2
 40
-0.6
 41
30.0
 62
     5
 63
     7
 74
     1
 91
        0
 64
     7
 65
   257
 75
     1
175
     1
 42
1.0
 92
        0
 66
   257
 43
1.0
 76
     1
 77
     6
 78
     2
 67
     7
 79
     5
170
     0
171
     0
290
     0
174
     0
 93
       13
 44
0.0
173
     0
291
     1
 45
0.0
1001
ACAD
1000
AcDbSavedByObjectVersion
1070
     0
  0
VISUALSTYLE
  5
7BC
102
{ACAD_XDICTIONARY
360
82E
102
}
102
{ACAD_REACTORS
330
7B4
102
}
330
7B4
100
AcDbVisualStyle
  2
Hidden
 70
     6
 71
     1
 72
     2
 73
     2
 90
        0
 40
-0.6
 41
-30.0
 62
     5
 63
     7
 74
     2
 91
        2
 64
     7
 65
   257
 75
     2
175
     1
 42
40.0
 92
        0
 66
   257
 43
1.0
 76
     1
 77
     6
 78
     2
 67
     7
 79
     3
170
     0
171
     0
290
     0
174
     0
 93
        1
 44
0.0
173
     0
291
     0
 45
0.0
1001
ACAD
1000
AcDbSavedByObjectVersion
1070
     0
  0
VISUALSTYLE
  5
7CA
102
{ACAD_XDICTIONARY
360
84A
102
}
102
{ACAD_REACTORS
330
7B4
102
}
330
7B4
100
AcDbVisualStyle
  2
JitterOff
 70
    20
 71
     2
 72
     2
 73
     0
 90
        0
 40
-0.6
 41
-30.0
 62
     5
 63
     7
 74
     1
 91
        4
 64
     7
 65
   257
 75
     1
175
     1
 42
1.0
 92
       10
 66
     7
 43
1.0
 76
     1
 77
     6
 78
     2
 67
     7
 79
     5
170
     0
171
     0
290
     0
174
     0
 93
        1
 44
0.0
173
     0
291
     1
 45
0.0
1001
ACAD
1000
AcDbSavedByObjectVersion
1070
     0
  0
VISUALSTYLE
  5
7C2
102
{ACAD_XDICTIONARY
360
83A
102
}
102
{ACAD_REACTORS
330
7B4
102
}
330
7B4
100
AcDbVisualStyle
  2
Linepattern
 70
    14
 71
     2
 72
     2
 73
     0
 90
        0
 40
-0.6
 41
-30.0
 62
     5
 63
     7
 74
     1
 91
        4
 64
     7
 65
   257
 75
     7
175
     7
 42
1.0
 92
        8
 66
     7
 43
1.0
 76
     1
 77
     6
 78
     2
 67
     7
 79
     5
170
     0
171
     0
290
     0
174
     0
 93
        1
 44
0.0
173
     0
291
     1
 45
0.0
1001
ACAD
1000
AcDbSavedByObjectVersion
1070
     0
  0
VISUALSTYLE
  5
7CB
102
{ACAD_XDICTIONARY
360
84C
102
}
102
{ACAD_REACTORS
330
7B4
102
}
330
7B4
100
AcDbVisualStyle
  2
OverhangOff
 70
    21
 71
     2
 72
     2
 73
     0
 90
        0
 40
-0.6
 41
-30.0
 62
     5
 63
     7
 74
     1
 91
        4
 64
     7
 65
   257
 75
     1
175
     1
 42
1.0
 92
        9
 66
     7
 43
1.0
 76
     1
 77
     6
 78
     2
 67
     7
 79
     5
170
     0
171
     0
290
     0
174
     0
 93
        1
 44
0.0
173
     0
291
     1
 45
0.0
1001
ACAD
1000
AcDbSavedByObjectVersion
1070
     0
  0
VISUALSTYLE
  5
7BE
102
{ACAD_XDICTIONARY
360
832
102
}
102
{ACAD_REACTORS
330
7B4
102
}
330
7B4
100
AcDbVisualStyle
  2
Realistic
 70
     8
 71
     2
 72
     3
 73
     0
 90
        2
 40
-0.6
 41
30.0
 62
     5
 63
     7
 74
     0
 91
        0
 64
     7
 65
   257
 75
     1
175
     1
 42
1.0
 92
        8
 66
   257
 43
1.0
 76
     1
 77
     6
 78
     2
 67
     7
 79
     3
170
     0
171
     0
290
     0
174
     0
 93
       13
 44
0.0
173
     0
291
     0
 45
0.0
1001
ACAD
1000
AcDbSavedByObjectVersion
1070
     0
  0
VISUALSTYLE
  5
7C9
102
{ACAD_XDICTIONARY
360
848
102
}
102
{ACAD_REACTORS
330
7B4
102
}
330
7B4
100
AcDbVisualStyle
  2
Shaded
 70
    27
 71
     2
 72
     2
 73
     1
 90
        2
 40
-0.6
 41
30.0
 62
     5
 63
     7
 74
     0
 91
        4
 64
     7
 65
   257
 75
     1
175
     1
 42
1.0
 92
        8
 66
   257
 43
1.0
 76
     1
 77
     6
 78
     2
 67
     8
 79
     3
170
     0
171
     0
290
     0
174
     0
 93
        5
 44
0.0
173
     0
291
     0
 45
0.0
1001
ACAD
1000
AcDbSavedByObjectVersion
1070
     0
  0
VISUALSTYLE
  5
7C8
102
{ACAD_XDICTIONARY
360
846
102
}
102
{ACAD_REACTORS
330
7B4
102
}
330
7B4
100
AcDbVisualStyle
  2
Shaded with edges
 70
    26
 71
     2
 72
     2
 73
     1
 90
        2
 40
-0.6
 41
30.0
 62
     5
 63
     7
 74
     1
 91
       10
 64
     7
 65
   257
 75
     2
175
     1
 42
1.0
 92
        8
 66
   257
 43
1.0
 76
     1
 77
     6
 78
     2
 67
     7
 79
     3
170
     0
171
     0
290
     0
174
     0
 93
        5
 44
0.0
173
     0
291
     0
 45
0.0
1001
ACAD
1000
AcDbSavedByObjectVersion
1070
     0
  0
VISUALSTYLE
  5
7C5
102
{ACAD_XDICTIONARY
360
840
102
}
102
{ACAD_REACTORS
330
7B4
102
}
330
7B4
100
AcDbVisualStyle
  2
Shades of Gray
 70
    23
 71
     2
 72
     2
 73
     3
 90
        0
 40
-0.6
 41
-30.0
 62
     5
 63
     7
 74
     2
 91
        2
 64
     7
 65
     7
 75
     1
175
     1
 42
40.0
 92
        8
 66
     7
 43
1.0
 76
     1
 77
     6
 78
     2
 67
     7
 79
     3
170
     0
171
     0
290
     0
174
     0
 93
        1
 44
0.0
173
     0
291
     0
 45
0.0
1001
ACAD
1000
AcDbSavedByObjectVersion
1070
     0
  0
VISUALSTYLE
  5
7C6
102
{ACAD_XDICTIONARY
360
842
102
}
102
{ACAD_REACTORS
330
7B4
102
}
330
7B4
100
AcDbVisualStyle
  2
Sketchy
 70
    24
 71
     1
 72
     2
 73
     2
 90
        0
 40
-0.6
 41
-30.0
 62
     5
 63
     7
 74
     2
 91
        2
 64
     7
 65
     7
 75
     1
175
     1
 42
40.0
 92
       11
 66
     7
 43
1.0
 76
     1
 77
     6
 78
     2
 67
     7
 79
     6
170
     0
171
     0
290
     0
174
     0
 93
        1
 44
0.0
173
     0
291
     0
 45
0.0
1001
ACAD
1000
AcDbSavedByObjectVersion
1070
     0
  0
VISUALSTYLE
  5
7C1
102
{ACAD_XDICTIONARY
360
838
102
}
102
{ACAD_REACTORS
330
7B4
102
}
330
7B4
100
AcDbVisualStyle
  2
Thicken
 70
    13
 71
     2
 72
     2
 73
     0
 90
        0
 40
-0.6
 41
-30.0
 62
     5
 63
     7
 74
     1
 91
        4
 64
     7
 65
   257
 75
     1
175
     1
 42
1.0
 92
       12
 66
     7
 43
1.0
 76
     1
 77
     6
 78
     2
 67
     7
 79
     5
170
     0
171
     0
290
     0
174
     0
 93
        1
 44
0.0
173
     0
291
     1
 45
0.0
1001
ACAD
1000
AcDbSavedByObjectVersion
1070
     0
  0
VISUALSTYLE
  5
7BB
102
{ACAD_XDICTIONARY
360
82C
102
}
102
{ACAD_REACTORS
330
7B4
102
}
330
7B4
100
AcDbVisualStyle
  2
Wireframe
 70
     5
 71
     0
 72
     2
 73
     0
 90
        0
 40
-0.6
 41
-30.0
 62
     5
 63
     7
 74
     1
 91
        4
 64
     7
 65
   257
 75
     1
175
     1
 42
1.0
 92
        0
 66
   257
 43
1.0
 76
     1
 77
     6
 78
     2
 67
     7
 79
     3
170
     0
171
     0
290
     0
174
     0
 93
        1
 44
0.0
173
     0
291
     0
 45
0.0
1001
ACAD
1000
AcDbSavedByObjectVersion
1070
     0
  0
VISUALSTYLE
  5
7C7
102
{ACAD_XDICTIONARY
360
844
102
}
102
{ACAD_REACTORS
330
7B4
102
}
330
7B4
100
AcDbVisualStyle
  2
X-Ray
 70
    25
 71
     2
 72
     2
 73
     1
 90
        1
 40
0.5
 41
-30.0
 62
     5
 63
     7
 74
     1
 91
        0
 64
     7
 65
   257
 75
     1
175
     1
 42
1.0
 92
        8
 66
     7
 43
1.0
 76
     1
 77
     6
 78
     2
 67
     7
 79
     3
170
     0
171
     0
290
     0
174
     0
 93
       13
 44
0.0
173
     0
291
     0
 45
0.0
1001
ACAD
1000
AcDbSavedByObjectVersion
1070
     0
  0
DICTIONARYVAR
  5
801
102
{ACAD_REACTORS
330
507
102
}
330
507
100
DictionaryVariables
280
     0
  1
1:1
  0
DICTIONARYVAR
  5
7FE
102
{ACAD_REACTORS
330
507
102
}
330
507
100
DictionaryVariables
280
     0
  1
STANDARD
  0
DICTIONARYVAR
  5
7FD
102
{ACAD_REACTORS
330
507
102
}
330
507
100
DictionaryVariables
280
     0
  1
STANDARD
  0
DICTIONARYVAR
  5
7FF
102
{ACAD_REACTORS
330
507
102
}
330
507
100
DictionaryVariables
280
     0
  1
Metric50
  0
DICTIONARYVAR
  5
800
102
{ACAD_REACTORS
330
507
102
}
330
507
100
DictionaryVariables
280
     0
  1
Metric50
  0
DICTIONARYVAR
  5
803
102
{ACAD_REACTORS
330
507
102
}
330
507
100
DictionaryVariables
280
     0
  1
1
  0
DICTIONARYVAR
  5
802
102
{ACAD_REACTORS
330
507
102
}
330
507
100
DictionaryVariables
280
     0
  1
0
  0
DICTIONARYVAR
  5
508
102
{ACAD_REACTORS
330
507
102
}
330
507
100
DictionaryVariables
280
     0
  1
96
  0
DICTIONARYVAR
  5
804
102
{ACAD_REACTORS
330
507
102
}
330
507
100
DictionaryVariables
280
     0
  1
2
  0
DICTIONARY
  5
810
102
{ACAD_REACTORS
330
80E
102
}
330
80E
100
AcDbDictionary
281
     1
  0
DICTIONARY
  5
80F
102
{ACAD_REACTORS
330
80E
102
}
330
80E
100
AcDbDictionary
281
     1
  3
8796087932688
350
809
  3
8796087932704
350
80A
  3
8796087932720
350
80B
  3
8796087932736
350
80C
  3
8796087932752
350
80D
  0
DICTIONARY
  5
811
330
122
100
AcDbDictionary
280
     1
281
     1
  3
ACAD_XREC_ROUNDTRIP
360
812
  0
DICTIONARY
  5
813
330
123
100
AcDbDictionary
280
     1
281
     1
  3
ACAD_XREC_ROUNDTRIP
360
814
  0
DICTIONARY
  5
7A5
330
7A4
100
AcDbDictionary
280
     1
281
     1
  3
ACAD_XREC_ROUNDTRIP
360
81E
  3
BUMPTILE
360
7A7
  3
DIFFUSETILE
360
7A6
  3
OPACITYTILE
360
7AA
  3
REFLECTIONTILE
360
7A9
  3
REFRACTIONTILE
360
7AB
  3
SPECULARTILE
360
7A8
  0
DICTIONARY
  5
79D
330
79C
100
AcDbDictionary
280
     1
281
     1
  3
ACAD_XREC_ROUNDTRIP
360
81D
  3
BUMPTILE
360
79F
  3
DIFFUSETILE
360
79E
  3
OPACITYTILE
360
7A2
  3
REFLECTIONTILE
360
7A1
  3
REFRACTIONTILE
360
7A3
  3
SPECULARTILE
360
7A0
  0
DICTIONARY
  5
7AD
330
7AC
100
AcDbDictionary
280
     1
281
     1
  3
ACAD_XREC_ROUNDTRIP
360
81F
  3
BUMPTILE
360
7AF
  3
DIFFUSETILE
360
7AE
  3
OPACITYTILE
360
7B2
  3
REFLECTIONTILE
360
7B1
  3
REFRACTIONTILE
360
7B3
  3
SPECULARTILE
360
7B0
  0
DICTIONARY
  5
805
330
7CF
100
AcDbDictionary
280
     1
281
     1
  3
ACAD_ROUNDTRIP_2008_TABLESTYLE_CELLSTYLEMAP
360
806
  3
ACAD_XREC_ROUNDTRIP
360
850
  0
DICTIONARY
  5
82A
330
7BA
100
AcDbDictionary
280
     1
281
     1
  3
ACAD_XREC_ROUNDTRIP
360
82B
  0
DICTIONARY
  5
828
330
7B9
100
AcDbDictionary
280
     1
281
     1
  3
ACAD_XREC_ROUNDTRIP
360
829
  0
DICTIONARY
  5
836
330
7C0
100
AcDbDictionary
280
     1
281
     1
  3
ACAD_XREC_ROUNDTRIP
360
837
  0
DICTIONARY
  5
83E
330
7C4
100
AcDbDictionary
280
     1
281
     1
  3
ACAD_XREC_ROUNDTRIP
360
83F
  0
DICTIONARY
  5
830
330
7BD
100
AcDbDictionary
280
     1
281
     1
  3
ACAD_XREC_ROUNDTRIP
360
831
  0
DICTIONARY
  5
834
330
7BF
100
AcDbDictionary
280
     1
281
     1
  3
ACAD_XREC_ROUNDTRIP
360
835
  0
DICTIONARY
  5
84E
330
7CC
100
AcDbDictionary
280
     1
281
     1
  3
ACAD_XREC_ROUNDTRIP
360
84F
  0
DICTIONARY
  5
83C
330
7C3
100
AcDbDictionary
280
     1
281
     1
  3
ACAD_XREC_ROUNDTRIP
360
83D
  0
DICTIONARY
  5
820
330
7B5
100
AcDbDictionary
280
     1
281
     1
  3
ACAD_XREC_ROUNDTRIP
360
821
  0
DICTIONARY
  5
822
330
7B6
100
AcDbDictionary
280
     1
281
     1
  3
ACAD_XREC_ROUNDTRIP
360
823
  0
DICTIONARY
  5
824
330
7B7
100
AcDbDictionary
280
     1
281
     1
  3
ACAD_XREC_ROUNDTRIP
360
825
  0
DICTIONARY
  5
826
330
7B8
100
AcDbDictionary
280
     1
281
     1
  3
ACAD_XREC_ROUNDTRIP
360
827
  0
DICTIONARY
  5
82E
330
7BC
100
AcDbDictionary
280
     1
281
     1
  3
ACAD_XREC_ROUNDTRIP
360
82F
  0
DICTIONARY
  5
84A
330
7CA
100
AcDbDictionary
280
     1
281
     1
  3
ACAD_XREC_ROUNDTRIP
360
84B
  0
DICTIONARY
  5
83A
330
7C2
100
AcDbDictionary
280
     1
281
     1
  3
ACAD_XREC_ROUNDTRIP
360
83B
  0
DICTIONARY
  5
84C
330
7CB
100
AcDbDictionary
280
     1
281
     1
  3
ACAD_XREC_ROUNDTRIP
360
84D
  0
DICTIONARY
  5
832
330
7BE
100
AcDbDictionary
280
     1
281
     1
  3
ACAD_XREC_ROUNDTRIP
360
833
  0
DICTIONARY
  5
848
330
7C9
100
AcDbDictionary
280
     1
281
     1
  3
ACAD_XREC_ROUNDTRIP
360
849
  0
DICTIONARY
  5
846
330
7C8
100
AcDbDictionary
280
     1
281
     1
  3
ACAD_XREC_ROUNDTRIP
360
847
  0
DICTIONARY
  5
840
330
7C5
100
AcDbDictionary
280
     1
281
     1
  3
ACAD_XREC_ROUNDTRIP
360
841
  0
DICTIONARY
  5
842
330
7C6
100
AcDbDictionary
280
     1
281
     1
  3
ACAD_XREC_ROUNDTRIP
360
843
  0
DICTIONARY
  5
838
330
7C1
100
AcDbDictionary
280
     1
281
     1
  3
ACAD_XREC_ROUNDTRIP
360
839
  0
DICTIONARY
  5
82C
330
7BB
100
AcDbDictionary
280
     1
281
     1
  3
ACAD_XREC_ROUNDTRIP
360
82D
  0
DICTIONARY
  5
844
330
7C7
100
AcDbDictionary
280
     1
281
     1
  3
ACAD_XREC_ROUNDTRIP
360
845
  0
XRECORD
  5
809
102
{ACAD_REACTORS
330
80F
102
}
330
80F
100
AcDbXrecord
280
     1
  1
AcDb_Thumbnail_Schema
102
{ATTRRECORD
341
80A
  2
AcDbDs::TreatedAsObjectData
280
     1
291
     1
102
ATTRRECORD}
102
{ATTRRECORD
341
80B
  2
AcDbDs::Legacy
280
     1
291
     1
102
ATTRRECORD}
  2
AcDbDs::ID
280
    10
 91
        8
102
{ATTRRECORD
341
80C
  2
AcDs:Indexable
280
     1
291
     1
102
ATTRRECORD}
102
{ATTRRECORD
341
80D
  2
AcDbDs::HandleAttribute
280
     7
282
     1
102
ATTRRECORD}
  2
Thumbnail_Data
280
    15
 91
        0
  0
XRECORD
  5
80A
102
{ACAD_REACTORS
330
80F
102
}
330
80F
100
AcDbXrecord
280
     1
  1
AcDbDs::TreatedAsObjectDataSchema
  2
AcDbDs::TreatedAsObjectData
280
     1
 91
        0
  0
XRECORD
  5
80B
102
{ACAD_REACTORS
330
80F
102
}
330
80F
100
AcDbXrecord
280
     1
  1
AcDbDs::LegacySchema
  2
AcDbDs::Legacy
280
     1
 91
        0
  0
XRECORD
  5
80C
102
{ACAD_REACTORS
330
80F
102
}
330
80F
100
AcDbXrecord
280
     1
  1
AcDbDs::IndexedPropertySchema
  2
AcDs:Indexable
280
     1
 91
        0
  0
XRECORD
  5
80D
102
{ACAD_REACTORS
330
80F
102
}
330
80F
100
AcDbXrecord
280
     1
  1
AcDbDs::HandleAttributeSchema
  2
AcDbDs::HandleAttribute
280
     7
 91
        1
284
     1
  0
XRECORD
  5
812
102
{ACAD_REACTORS
330
811
102
}
330
811
100
AcDbXrecord
280
     1
102
SHADEPLOT
 70
     0
102
SHADEPLOTRESLEVEL
 70
     2
102
SHADEPLOTCUSTOMDPI
 70
   300
  0
XRECORD
  5
814
102
{ACAD_REACTORS
330
813
102
}
330
813
100
AcDbXrecord
280
     1
102
SHADEPLOT
 70
     0
102
SHADEPLOTRESLEVEL
 70
     2
102
SHADEPLOTCUSTOMDPI
 70
   300
  0
XRECORD
  5
81E
102
{ACAD_REACTORS
330
7A5
102
}
330
7A5
100
AcDbXrecord
280
     1
102
MATERIAL
148
0.0
149
0.0
149
0.0
 93
        0
 94
      127
282
     0
 72
     0
 77
     0
171
     0
175
     0
179
     0
273
     0
  0
XRECORD
  5
7A7
102
{ACAD_REACTORS
330
7A5
102
}
330
7A5
100
AcDbXrecord
280
     1
270
     1
271
     1
  0
XRECORD
  5
7A6
102
{ACAD_REACTORS
330
7A5
102
}
330
7A5
100
AcDbXrecord
280
     1
270
     1
271
     1
  0
XRECORD
  5
7AA
102
{ACAD_REACTORS
330
7A5
102
}
330
7A5
100
AcDbXrecord
280
     1
270
     1
271
     1
  0
XRECORD
  5
7A9
102
{ACAD_REACTORS
330
7A5
102
}
330
7A5
100
AcDbXrecord
280
     1
270
     1
271
     1
  0
XRECORD
  5
7AB
102
{ACAD_REACTORS
330
7A5
102
}
330
7A5
100
AcDbXrecord
280
     1
270
     1
271
     1
  0
XRECORD
  5
7A8
102
{ACAD_REACTORS
330
7A5
102
}
330
7A5
100
AcDbXrecord
280
     1
270
     1
271
     1
  0
XRECORD
  5
81D
102
{ACAD_REACTORS
330
79D
102
}
330
79D
100
AcDbXrecord
280
     1
102
MATERIAL
148
0.0
149
0.0
149
0.0
 93
        0
 94
      127
282
     0
 72
     0
 77
     0
171
     0
175
     0
179
     0
273
     0
  0
XRECORD
  5
79F
102
{ACAD_REACTORS
330
79D
102
}
330
79D
100
AcDbXrecord
280
     1
270
     1
271
     1
  0
XRECORD
  5
79E
102
{ACAD_REACTORS
330
79D
102
}
330
79D
100
AcDbXrecord
280
     1
270
     1
271
     1
  0
XRECORD
  5
7A2
102
{ACAD_REACTORS
330
79D
102
}
330
79D
100
AcDbXrecord
280
     1
270
     1
271
     1
  0
XRECORD
  5
7A1
102
{ACAD_REACTORS
330
79D
102
}
330
79D
100
AcDbXrecord
280
     1
270
     1
271
     1
  0
XRECORD
  5
7A3
102
{ACAD_REACTORS
330
79D
102
}
330
79D
100
AcDbXrecord
280
     1
270
     1
271
     1
  0
XRECORD
  5
7A0
102
{ACAD_REACTORS
330
79D
102
}
330
79D
100
AcDbXrecord
280
     1
270
     1
271
     1
  0
XRECORD
  5
81F
102
{ACAD_REACTORS
330
7AD
102
}
330
7AD
100
AcDbXrecord
280
     1
102
MATERIAL
148
0.0
149
0.0
149
0.0
 93
        0
 94
      127
282
     0
 72
     0
 77
     0
171
     0
175
     0
179
     0
273
     0
  0
XRECORD
  5
7AF
102
{ACAD_REACTORS
330
7AD
102
}
330
7AD
100
AcDbXrecord
280
     1
270
     1
271
     1
  0
XRECORD
  5
7AE
102
{ACAD_REACTORS
330
7AD
102
}
330
7AD
100
AcDbXrecord
280
     1
270
     1
271
     1
  0
XRECORD
  5
7B2
102
{ACAD_REACTORS
330
7AD
102
}
330
7AD
100
AcDbXrecord
280
     1
270
     1
271
     1
  0
XRECORD
  5
7B1
102
{ACAD_REACTORS
330
7AD
102
}
330
7AD
100
AcDbXrecord
280
     1
270
     1
271
     1
  0
XRECORD
  5
7B3
102
{ACAD_REACTORS
330
7AD
102
}
330
7AD
100
AcDbXrecord
280
     1
270
     1
271
     1
  0
XRECORD
  5
7B0
102
{ACAD_REACTORS
330
7AD
102
}
330
7AD
100
AcDbXrecord
280
     1
270
     1
271
     1
  0
CELLSTYLEMAP
  5
806
102
{ACAD_REACTORS
330
805
102
}
330
805
100
AcDbCellStyleMap
 90
        3
300
CELLSTYLE
  1
TABLEFORMAT_BEGIN
 90
        5
170
     1
 91
        0
 92
    32768
 62
   257
 93
        1
300
CONTENTFORMAT
  1
CONTENTFORMAT_BEGIN
 90
        0
 91
        0
 92
      512
 93
        0
300

 40
0.0
140
1.0
 94
        5
 62
     0
340
17
144
6.0
309
CONTENTFORMAT_END
171
     1
301
MARGIN
  1
CELLMARGIN_BEGIN
 40
1.5
 40
1.5
 40
1.5
 40
1.5
 40
4.5
 40
4.5
309
CELLMARGIN_END
 94
        6
 95
        1
302
GRIDFORMAT
  1
GRIDFORMAT_BEGIN
 90
        0
 91
        1
 62
     0
 92
       -2
340
0
 93
        0
 40
1.125
309
GRIDFORMAT_END
 95
        2
302
GRIDFORMAT
  1
GRIDFORMAT_BEGIN
 90
        0
 91
        1
 62
     0
 92
       -2
340
0
 93
        0
 40
1.125
309
GRIDFORMAT_END
 95
        4
302
GRIDFORMAT
  1
GRIDFORMAT_BEGIN
 90
        0
 91
        1
 62
     0
 92
       -2
340
0
 93
        0
 40
1.125
309
GRIDFORMAT_END
 95
        8
302
GRIDFORMAT
  1
GRIDFORMAT_BEGIN
 90
        0
 91
        1
 62
     0
 92
       -2
340
0
 93
        0
 40
1.125
309
GRIDFORMAT_END
 95
       16
302
GRIDFORMAT
  1
GRIDFORMAT_BEGIN
 90
        0
 91
        1
 62
     0
 92
       -2
340
0
 93
        0
 40
1.125
309
GRIDFORMAT_END
 95
       32
302
GRIDFORMAT
  1
GRIDFORMAT_BEGIN
 90
        0
 91
        1
 62
     0
 92
       -2
340
0
 93
        0
 40
1.125
309
GRIDFORMAT_END
309
TABLEFORMAT_END
  1
CELLSTYLE_BEGIN
 90
        1
 91
        1
300
_TITLE
309
CELLSTYLE_END
300
CELLSTYLE
  1
TABLEFORMAT_BEGIN
 90
        5
170
     1
 91
        0
 92
        0
 62
   257
 93
        1
300
CONTENTFORMAT
  1
CONTENTFORMAT_BEGIN
 90
        0
 91
        0
 92
      512
 93
        0
300

 40
0.0
140
1.0
 94
        5
 62
     0
340
17
144
4.5
309
CONTENTFORMAT_END
171
     1
301
MARGIN
  1
CELLMARGIN_BEGIN
 40
1.5
 40
1.5
 40
1.5
 40
1.5
 40
4.5
 40
4.5
309
CELLMARGIN_END
 94
        6
 95
        1
302
GRIDFORMAT
  1
GRIDFORMAT_BEGIN
 90
        0
 91
        1
 62
     0
 92
       -2
340
0
 93
        0
 40
1.125
309
GRIDFORMAT_END
 95
        2
302
GRIDFORMAT
  1
GRIDFORMAT_BEGIN
 90
        0
 91
        1
 62
     0
 92
       -2
340
0
 93
        0
 40
1.125
309
GRIDFORMAT_END
 95
        4
302
GRIDFORMAT
  1
GRIDFORMAT_BEGIN
 90
        0
 91
        1
 62
     0
 92
       -2
340
0
 93
        0
 40
1.125
309
GRIDFORMAT_END
 95
        8
302
GRIDFORMAT
  1
GRIDFORMAT_BEGIN
 90
        0
 91
        1
 62
     0
 92
       -2
340
0
 93
        0
 40
1.125
309
GRIDFORMAT_END
 95
       16
302
GRIDFORMAT
  1
GRIDFORMAT_BEGIN
 90
        0
 91
        1
 62
     0
 92
       -2
340
0
 93
        0
 40
1.125
309
GRIDFORMAT_END
 95
       32
302
GRIDFORMAT
  1
GRIDFORMAT_BEGIN
 90
        0
 91
        1
 62
     0
 92
       -2
340
0
 93
        0
 40
1.125
309
GRIDFORMAT_END
309
TABLEFORMAT_END
  1
CELLSTYLE_BEGIN
 90
        2
 91
        1
300
_HEADER
309
CELLSTYLE_END
300
CELLSTYLE
  1
TABLEFORMAT_BEGIN
 90
        5
170
     1
 91
        0
 92
        0
 62
   257
 93
        1
300
CONTENTFORMAT
  1
CONTENTFORMAT_BEGIN
 90
        0
 91
        0
 92
      512
 93
        0
300

 40
0.0
140
1.0
 94
        2
 62
     0
340
17
144
4.5
309
CONTENTFORMAT_END
171
     1
301
MARGIN
  1
CELLMARGIN_BEGIN
 40
1.5
 40
1.5
 40
1.5
 40
1.5
 40
4.5
 40
4.5
309
CELLMARGIN_END
 94
        6
 95
        1
302
GRIDFORMAT
  1
GRIDFORMAT_BEGIN
 90
        0
 91
        1
 62
     0
 92
       -2
340
0
 93
        0
 40
1.125
309
GRIDFORMAT_END
 95
        2
302
GRIDFORMAT
  1
GRIDFORMAT_BEGIN
 90
        0
 91
        1
 62
     0
 92
       -2
340
0
 93
        0
 40
1.125
309
GRIDFORMAT_END
 95
        4
302
GRIDFORMAT
  1
GRIDFORMAT_BEGIN
 90
        0
 91
        1
 62
     0
 92
       -2
340
0
 93
        0
 40
1.125
309
GRIDFORMAT_END
 95
        8
302
GRIDFORMAT
  1
GRIDFORMAT_BEGIN
 90
        0
 91
        1
 62
     0
 92
       -2
340
0
 93
        0
 40
1.125
309
GRIDFORMAT_END
 95
       16
302
GRIDFORMAT
  1
GRIDFORMAT_BEGIN
 90
        0
 91
        1
 62
     0
 92
       -2
340
0
 93
        0
 40
1.125
309
GRIDFORMAT_END
 95
       32
302
GRIDFORMAT
  1
GRIDFORMAT_BEGIN
 90
        0
 91
        1
 62
     0
 92
       -2
340
0
 93
        0
 40
1.125
309
GRIDFORMAT_END
309
TABLEFORMAT_END
  1
CELLSTYLE_BEGIN
 90
        3
 91
        2
300
_DATA
309
CELLSTYLE_END
  0
XRECORD
  5
850
102
{ACAD_REACTORS
330
805
102
}
330
805
100
AcDbXrecord
280
     1
102
ACAD_ROUNDTRIP_PRE2007_TABLESTYLE
 90
      512
 91
        0
  1

 92
      512
 93
        0
  2

 94
      512
 95
        0
  3

  0
XRECORD
  5
82B
102
{ACAD_REACTORS
330
82A
102
}
330
82A
100
AcDbXrecord
280
     1
102
RTVSPost2010Prop28
280
     1
102
RTVSPost2010PropOp28
 70
     1
102
RTVSPost2010Prop29
280
     1
102
RTVSPost2010PropOp29
 70
     1
102
RTVSPost2010Prop30
280
     0
102
RTVSPost2010PropOp30
 70
     1
102
RTVSPost2010Prop31
280
     0
102
RTVSPost2010PropOp31
 70
     1
102
RTVSPost2010Prop32
280
     0
102
RTVSPost2010PropOp32
 70
     1
102
RTVSPost2010Prop33
280
     0
102
RTVSPost2010PropOp33
 70
     1
102
RTVSPost2010Prop34
280
     0
102
RTVSPost2010PropOp34
 70
     1
102
RTVSPost2010Prop35
280
     0
102
RTVSPost2010PropOp35
 70
     1
102
RTVSPost2010Prop36
280
     0
102
RTVSPost2010PropOp36
 70
     1
102
RTVSPost2010Prop37
 90
       50
102
RTVSPost2010PropOp37
 70
     1
102
RTVSPost2010Prop38
140
0.0
102
RTVSPost2010PropOp38
 70
     1
102
RTVSPost2010Prop39
140
1.0
102
RTVSPost2010PropOp39
 70
     1
102
RTVSPost2010Prop40
 90
        0
102
RTVSPost2010PropOp40
 70
     1
102
RTVSPost2010Prop41ColorIndex
 90
       18
102
RTVSPost2010Prop41ColorRGB
 90
        0
102
RTVSPost2010PropOp41
 70
     1
102
RTVSPost2010Prop42
 90
       50
102
RTVSPost2010PropOp42
 70
     1
102
RTVSPost2010Prop43
 90
        3
102
RTVSPost2010PropOp43
 70
     1
102
RTVSPost2010Prop44ColorIndex
 90
        5
102
RTVSPost2010Prop44ColorRGB
 90
      255
102
RTVSPost2010PropOp44
 70
     1
102
RTVSPost2010Prop45
280
     0
102
RTVSPost2010PropOp45
 70
     1
102
RTVSPost2010Prop46
 90
       50
102
RTVSPost2010PropOp46
 70
     1
102
RTVSPost2010Prop47
 90
       50
102
RTVSPost2010PropOp47
 70
     1
102
RTVSPost2010Prop48
 90
       50
102
RTVSPost2010PropOp48
 70
     1
102
RTVSPost2010Prop49
280
     0
102
RTVSPost2010PropOp49
 70
     1
102
RTVSPost2010Prop50
 90
       50
102
RTVSPost2010PropOp50
 70
     1
102
RTVSPost2010Prop51ColorIndex
 90
      256
102
RTVSPost2010Prop51ColorRGB
 90
-16777216
102
RTVSPost2010PropOp51
 70
     0
102
RTVSPost2010Prop52
140
1.0
102
RTVSPost2010PropOp52
 70
     0
102
RTVSPost2010Prop53
 90
        2
102
RTVSPost2010PropOp53
 70
     1
102
RTVSPost2010Prop54
  1
strokes_ogs.tif
102
RTVSPost2010PropOp54
 70
     1
102
RTVSPost2010Prop55
280
     0
102
RTVSPost2010PropOp55
 70
     1
102
RTVSPost2010Prop56
140
1.0
102
RTVSPost2010PropOp56
 70
     1
102
RTVSPost2010Prop57
140
1.0
102
RTVSPost2010PropOp57
 70
     1
102
RTVSPropertyOp0
 70
     1
102
RTVSPropertyOp1
 70
     1
102
RTVSPropertyOp2
 70
     1
102
RTVSPropertyOp3
 70
     1
102
RTVSPropertyOp4
 70
     1
102
RTVSPropertyOp5
 70
     1
102
RTVSPropertyOp6
 70
     1
102
RTVSPropertyOp7
 70
     1
102
RTVSPropertyOp8
 70
     1
102
RTVSPropertyOp9
 70
     1
102
RTVSPropertyOp10
 70
     1
102
RTVSPropertyOp11
 70
     1
102
RTVSPropertyOp12
 70
     1
102
RTVSPropertyOp13
 70
     1
102
RTVSPropertyOp14
 70
     1
102
RTVSPropertyOp15
 70
     1
102
RTVSPropertyOp16
 70
     1
102
RTVSPropertyOp17
 70
     1
102
RTVSPropertyOp18
 70
     1
102
RTVSPropertyOp19
 70
     1
102
RTVSPropertyOp20
 70
     1
102
RTVSPropertyOp21
 70
     1
102
RTVSPropertyOp22
 70
     1
102
RTVSPropertyOp23
 70
     1
102
RTVSPropertyOp24
 70
     1
102
RTVSPropertyOp25
 70
     1
102
RTVSPropertyOp26
 70
     1
102
RTVSPropertyOp27
 70
     1
102
RTVSPropertyOp28
 70
     1
102
RTVSPropertyOp29
 70
     1
102
RTVSPropertyOp30
 70
     1
102
RTVSPropertyOp31
 70
     1
102
RTVSPropertyOp32
 70
     1
102
RTVSPropertyOp33
 70
     1
102
RTVSPropertyOp34
 70
     1
102
RTVSPropertyOp35
 70
     1
102
RTVSPropertyOp36
 70
     1
102
RTVSPropertyOp37
 70
     1
102
RTVSPropertyOp38
 70
     1
102
RTVSPropertyOp39
 70
     1
102
RTVSPropertyOp40
 70
     1
102
RTVSPropertyOp41
 70
     1
102
RTVSPropertyOp42
 70
     1
102
RTVSPropertyOp43
 70
     1
102
RTVSPropertyOp44
 70
     1
102
RTVSPropertyOp45
 70
     1
102
RTVSPropertyOp46
 70
     1
102
RTVSPropertyOp47
 70
     1
102
RTVSPropertyOp48
 70
     1
102
RTVSPropertyOp49
 70
     1
102
RTVSPropertyOp50
 70
     1
102
RTVSPropertyOp51
 70
     0
102
RTVSPropertyOp52
 70
     0
102
RTVSPropertyOp53
 70
     1
102
RTVSPropertyOp54
 70
     1
102
RTVSPropertyOp55
 70
     1
102
RTVSPropertyOp56
 70
     1
102
RTVSPropertyOp57
 70
     1
102
RTVSPropertyOp58
 70
     1
102
RTVSPropertyOp59
 70
     1
102
RTVSPropertyOp60
 70
     1
102
RTVSPropertyOp61
 70
     1
102
RTVSPropertyOp62
 70
     1
  0
XRECORD
  5
829
102
{ACAD_REACTORS
330
828
102
}
330
828
100
AcDbXrecord
280
     1
102
RTVSPost2010Prop28
280
     0
102
RTVSPost2010PropOp28
 70
     1
102
RTVSPost2010Prop29
280
     1
102
RTVSPost2010PropOp29
 70
     1
102
RTVSPost2010Prop30
280
     1
102
RTVSPost2010PropOp30
 70
     1
102
RTVSPost2010Prop31
280
     0
102
RTVSPost2010PropOp31
 70
     1
102
RTVSPost2010Prop32
280
     0
102
RTVSPost2010PropOp32
 70
     1
102
RTVSPost2010Prop33
280
     0
102
RTVSPost2010PropOp33
 70
     1
102
RTVSPost2010Prop34
280
     0
102
RTVSPost2010PropOp34
 70
     1
102
RTVSPost2010Prop35
280
     0
102
RTVSPost2010PropOp35
 70
     1
102
RTVSPost2010Prop36
280
     0
102
RTVSPost2010PropOp36
 70
     1
102
RTVSPost2010Prop37
 90
       50
102
RTVSPost2010PropOp37
 70
     1
102
RTVSPost2010Prop38
140
0.0
102
RTVSPost2010PropOp38
 70
     1
102
RTVSPost2010Prop39
140
1.0
102
RTVSPost2010PropOp39
 70
     1
102
RTVSPost2010Prop40
 90
        0
102
RTVSPost2010PropOp40
 70
     1
102
RTVSPost2010Prop41ColorIndex
 90
       18
102
RTVSPost2010Prop41ColorRGB
 90
        0
102
RTVSPost2010PropOp41
 70
     1
102
RTVSPost2010Prop42
 90
       50
102
RTVSPost2010PropOp42
 70
     1
102
RTVSPost2010Prop43
 90
        3
102
RTVSPost2010PropOp43
 70
     1
102
RTVSPost2010Prop44ColorIndex
 90
        5
102
RTVSPost2010Prop44ColorRGB
 90
      255
102
RTVSPost2010PropOp44
 70
     1
102
RTVSPost2010Prop45
280
     0
102
RTVSPost2010PropOp45
 70
     1
102
RTVSPost2010Prop46
 90
       50
102
RTVSPost2010PropOp46
 70
     1
102
RTVSPost2010Prop47
 90
       50
102
RTVSPost2010PropOp47
 70
     1
102
RTVSPost2010Prop48
 90
       50
102
RTVSPost2010PropOp48
 70
     1
102
RTVSPost2010Prop49
280
     0
102
RTVSPost2010PropOp49
 70
     1
102
RTVSPost2010Prop50
 90
       50
102
RTVSPost2010PropOp50
 70
     1
102
RTVSPost2010Prop51ColorIndex
 90
      256
102
RTVSPost2010Prop51ColorRGB
 90
-16777216
102
RTVSPost2010PropOp51
 70
     0
102
RTVSPost2010Prop52
140
1.0
102
RTVSPost2010PropOp52
 70
     0
102
RTVSPost2010Prop53
 90
        2
102
RTVSPost2010PropOp53
 70
     1
102
RTVSPost2010Prop54
  1
strokes_ogs.tif
102
RTVSPost2010PropOp54
 70
     1
102
RTVSPost2010Prop55
280
     0
102
RTVSPost2010PropOp55
 70
     1
102
RTVSPost2010Prop56
140
1.0
102
RTVSPost2010PropOp56
 70
     1
102
RTVSPost2010Prop57
140
1.0
102
RTVSPost2010PropOp57
 70
     1
102
RTVSPropertyOp0
 70
     1
102
RTVSPropertyOp1
 70
     1
102
RTVSPropertyOp2
 70
     1
102
RTVSPropertyOp3
 70
     1
102
RTVSPropertyOp4
 70
     1
102
RTVSPropertyOp5
 70
     1
102
RTVSPropertyOp6
 70
     1
102
RTVSPropertyOp7
 70
     1
102
RTVSPropertyOp8
 70
     1
102
RTVSPropertyOp9
 70
     1
102
RTVSPropertyOp10
 70
     1
102
RTVSPropertyOp11
 70
     1
102
RTVSPropertyOp12
 70
     1
102
RTVSPropertyOp13
 70
     1
102
RTVSPropertyOp14
 70
     1
102
RTVSPropertyOp15
 70
     1
102
RTVSPropertyOp16
 70
     1
102
RTVSPropertyOp17
 70
     1
102
RTVSPropertyOp18
 70
     1
102
RTVSPropertyOp19
 70
     1
102
RTVSPropertyOp20
 70
     1
102
RTVSPropertyOp21
 70
     1
102
RTVSPropertyOp22
 70
     1
102
RTVSPropertyOp23
 70
     1
102
RTVSPropertyOp24
 70
     1
102
RTVSPropertyOp25
 70
     1
102
RTVSPropertyOp26
 70
     1
102
RTVSPropertyOp27
 70
     1
102
RTVSPropertyOp28
 70
     1
102
RTVSPropertyOp29
 70
     1
102
RTVSPropertyOp30
 70
     1
102
RTVSPropertyOp31
 70
     1
102
RTVSPropertyOp32
 70
     1
102
RTVSPropertyOp33
 70
     1
102
RTVSPropertyOp34
 70
     1
102
RTVSPropertyOp35
 70
     1
102
RTVSPropertyOp36
 70
     1
102
RTVSPropertyOp37
 70
     1
102
RTVSPropertyOp38
 70
     1
102
RTVSPropertyOp39
 70
     1
102
RTVSPropertyOp40
 70
     1
102
RTVSPropertyOp41
 70
     1
102
RTVSPropertyOp42
 70
     1
102
RTVSPropertyOp43
 70
     1
102
RTVSPropertyOp44
 70
     1
102
RTVSPropertyOp45
 70
     1
102
RTVSPropertyOp46
 70
     1
102
RTVSPropertyOp47
 70
     1
102
RTVSPropertyOp48
 70
     1
102
RTVSPropertyOp49
 70
     1
102
RTVSPropertyOp50
 70
     1
102
RTVSPropertyOp51
 70
     0
102
RTVSPropertyOp52
 70
     0
102
RTVSPropertyOp53
 70
     1
102
RTVSPropertyOp54
 70
     1
102
RTVSPropertyOp55
 70
     1
102
RTVSPropertyOp56
 70
     1
102
RTVSPropertyOp57
 70
     1
102
RTVSPropertyOp58
 70
     1
102
RTVSPropertyOp59
 70
     1
102
RTVSPropertyOp60
 70
     1
102
RTVSPropertyOp61
 70
     1
102
RTVSPropertyOp62
 70
     1
  0
XRECORD
  5
837
102
{ACAD_REACTORS
330
836
102
}
330
836
100
AcDbXrecord
280
     1
102
RTVSPost2010Prop28
280
     0
102
RTVSPost2010PropOp28
 70
     1
102
RTVSPost2010Prop29
280
     1
102
RTVSPost2010PropOp29
 70
     1
102
RTVSPost2010Prop30
280
     1
102
RTVSPost2010PropOp30
 70
     1
102
RTVSPost2010Prop31
280
     0
102
RTVSPost2010PropOp31
 70
     1
102
RTVSPost2010Prop32
280
     0
102
RTVSPost2010PropOp32
 70
     1
102
RTVSPost2010Prop33
280
     0
102
RTVSPost2010PropOp33
 70
     1
102
RTVSPost2010Prop34
280
     0
102
RTVSPost2010PropOp34
 70
     1
102
RTVSPost2010Prop35
280
     0
102
RTVSPost2010PropOp35
 70
     1
102
RTVSPost2010Prop36
280
     0
102
RTVSPost2010PropOp36
 70
     1
102
RTVSPost2010Prop37
 90
       50
102
RTVSPost2010PropOp37
 70
     1
102
RTVSPost2010Prop38
140
0.0
102
RTVSPost2010PropOp38
 70
     1
102
RTVSPost2010Prop39
140
1.0
102
RTVSPost2010PropOp39
 70
     1
102
RTVSPost2010Prop40
 90
        0
102
RTVSPost2010PropOp40
 70
     1
102
RTVSPost2010Prop41ColorIndex
 90
       18
102
RTVSPost2010Prop41ColorRGB
 90
        0
102
RTVSPost2010PropOp41
 70
     1
102
RTVSPost2010Prop42
 90
       50
102
RTVSPost2010PropOp42
 70
     1
102
RTVSPost2010Prop43
 90
        3
102
RTVSPost2010PropOp43
 70
     1
102
RTVSPost2010Prop44ColorIndex
 90
        5
102
RTVSPost2010Prop44ColorRGB
 90
      255
102
RTVSPost2010PropOp44
 70
     1
102
RTVSPost2010Prop45
280
     0
102
RTVSPost2010PropOp45
 70
     1
102
RTVSPost2010Prop46
 90
       50
102
RTVSPost2010PropOp46
 70
     1
102
RTVSPost2010Prop47
 90
       50
102
RTVSPost2010PropOp47
 70
     1
102
RTVSPost2010Prop48
 90
       50
102
RTVSPost2010PropOp48
 70
     1
102
RTVSPost2010Prop49
280
     0
102
RTVSPost2010PropOp49
 70
     1
102
RTVSPost2010Prop50
 90
       50
102
RTVSPost2010PropOp50
 70
     1
102
RTVSPost2010Prop51ColorIndex
 90
      256
102
RTVSPost2010Prop51ColorRGB
 90
-16777216
102
RTVSPost2010PropOp51
 70
     0
102
RTVSPost2010Prop52
140
1.0
102
RTVSPost2010PropOp52
 70
     0
102
RTVSPost2010Prop53
 90
        2
102
RTVSPost2010PropOp53
 70
     1
102
RTVSPost2010Prop54
  1
strokes_ogs.tif
102
RTVSPost2010PropOp54
 70
     1
102
RTVSPost2010Prop55
280
     0
102
RTVSPost2010PropOp55
 70
     1
102
RTVSPost2010Prop56
140
1.0
102
RTVSPost2010PropOp56
 70
     1
102
RTVSPost2010Prop57
140
1.0
102
RTVSPost2010PropOp57
 70
     1
102
RTVSPropertyOp0
 70
     1
102
RTVSPropertyOp1
 70
     1
102
RTVSPropertyOp2
 70
     1
102
RTVSPropertyOp3
 70
     1
102
RTVSPropertyOp4
 70
     1
102
RTVSPropertyOp5
 70
     1
102
RTVSPropertyOp6
 70
     1
102
RTVSPropertyOp7
 70
     1
102
RTVSPropertyOp8
 70
     1
102
RTVSPropertyOp9
 70
     1
102
RTVSPropertyOp10
 70
     1
102
RTVSPropertyOp11
 70
     1
102
RTVSPropertyOp12
 70
     1
102
RTVSPropertyOp13
 70
     1
102
RTVSPropertyOp14
 70
     1
102
RTVSPropertyOp15
 70
     1
102
RTVSPropertyOp16
 70
     1
102
RTVSPropertyOp17
 70
     1
102
RTVSPropertyOp18
 70
     1
102
RTVSPropertyOp19
 70
     1
102
RTVSPropertyOp20
 70
     1
102
RTVSPropertyOp21
 70
     1
102
RTVSPropertyOp22
 70
     1
102
RTVSPropertyOp23
 70
     1
102
RTVSPropertyOp24
 70
     1
102
RTVSPropertyOp25
 70
     1
102
RTVSPropertyOp26
 70
     1
102
RTVSPropertyOp27
 70
     1
102
RTVSPropertyOp28
 70
     1
102
RTVSPropertyOp29
 70
     1
102
RTVSPropertyOp30
 70
     1
102
RTVSPropertyOp31
 70
     1
102
RTVSPropertyOp32
 70
     1
102
RTVSPropertyOp33
 70
     1
102
RTVSPropertyOp34
 70
     1
102
RTVSPropertyOp35
 70
     1
102
RTVSPropertyOp36
 70
     1
102
RTVSPropertyOp37
 70
     1
102
RTVSPropertyOp38
 70
     1
102
RTVSPropertyOp39
 70
     1
102
RTVSPropertyOp40
 70
     1
102
RTVSPropertyOp41
 70
     1
102
RTVSPropertyOp42
 70
     1
102
RTVSPropertyOp43
 70
     1
102
RTVSPropertyOp44
 70
     1
102
RTVSPropertyOp45
 70
     1
102
RTVSPropertyOp46
 70
     1
102
RTVSPropertyOp47
 70
     1
102
RTVSPropertyOp48
 70
     1
102
RTVSPropertyOp49
 70
     1
102
RTVSPropertyOp50
 70
     1
102
RTVSPropertyOp51
 70
     0
102
RTVSPropertyOp52
 70
     0
102
RTVSPropertyOp53
 70
     1
102
RTVSPropertyOp54
 70
     1
102
RTVSPropertyOp55
 70
     1
102
RTVSPropertyOp56
 70
     1
102
RTVSPropertyOp57
 70
     1
102
RTVSPropertyOp58
 70
     1
102
RTVSPropertyOp59
 70
     1
102
RTVSPropertyOp60
 70
     1
102
RTVSPropertyOp61
 70
     1
102
RTVSPropertyOp62
 70
     1
  0
XRECORD
  5
83F
102
{ACAD_REACTORS
330
83E
102
}
330
83E
100
AcDbXrecord
280
     1
102
RTVSPost2010Prop28
280
     0
102
RTVSPost2010PropOp28
 70
     1
102
RTVSPost2010Prop29
280
     1
102
RTVSPost2010PropOp29
 70
     1
102
RTVSPost2010Prop30
280
     1
102
RTVSPost2010PropOp30
 70
     1
102
RTVSPost2010Prop31
280
     0
102
RTVSPost2010PropOp31
 70
     1
102
RTVSPost2010Prop32
280
     0
102
RTVSPost2010PropOp32
 70
     1
102
RTVSPost2010Prop33
280
     0
102
RTVSPost2010PropOp33
 70
     1
102
RTVSPost2010Prop34
280
     0
102
RTVSPost2010PropOp34
 70
     1
102
RTVSPost2010Prop35
280
     0
102
RTVSPost2010PropOp35
 70
     1
102
RTVSPost2010Prop36
280
     0
102
RTVSPost2010PropOp36
 70
     1
102
RTVSPost2010Prop37
 90
       50
102
RTVSPost2010PropOp37
 70
     1
102
RTVSPost2010Prop38
140
0.0
102
RTVSPost2010PropOp38
 70
     1
102
RTVSPost2010Prop39
140
1.0
102
RTVSPost2010PropOp39
 70
     1
102
RTVSPost2010Prop40
 90
        0
102
RTVSPost2010PropOp40
 70
     1
102
RTVSPost2010Prop41ColorIndex
 90
       18
102
RTVSPost2010Prop41ColorRGB
 90
        0
102
RTVSPost2010PropOp41
 70
     1
102
RTVSPost2010Prop42
 90
       50
102
RTVSPost2010PropOp42
 70
     1
102
RTVSPost2010Prop43
 90
        3
102
RTVSPost2010PropOp43
 70
     1
102
RTVSPost2010Prop44ColorIndex
 90
        5
102
RTVSPost2010Prop44ColorRGB
 90
      255
102
RTVSPost2010PropOp44
 70
     1
102
RTVSPost2010Prop45
280
     0
102
RTVSPost2010PropOp45
 70
     1
102
RTVSPost2010Prop46
 90
       50
102
RTVSPost2010PropOp46
 70
     1
102
RTVSPost2010Prop47
 90
       50
102
RTVSPost2010PropOp47
 70
     1
102
RTVSPost2010Prop48
 90
       50
102
RTVSPost2010PropOp48
 70
     1
102
RTVSPost2010Prop49
280
     0
102
RTVSPost2010PropOp49
 70
     1
102
RTVSPost2010Prop50
 90
       50
102
RTVSPost2010PropOp50
 70
     1
102
RTVSPost2010Prop51ColorIndex
 90
      256
102
RTVSPost2010Prop51ColorRGB
 90
-16777216
102
RTVSPost2010PropOp51
 70
     0
102
RTVSPost2010Prop52
140
1.0
102
RTVSPost2010PropOp52
 70
     0
102
RTVSPost2010Prop53
 90
        2
102
RTVSPost2010PropOp53
 70
     1
102
RTVSPost2010Prop54
  1
strokes_ogs.tif
102
RTVSPost2010PropOp54
 70
     1
102
RTVSPost2010Prop55
280
     0
102
RTVSPost2010PropOp55
 70
     1
102
RTVSPost2010Prop56
140
1.0
102
RTVSPost2010PropOp56
 70
     1
102
RTVSPost2010Prop57
140
1.0
102
RTVSPost2010PropOp57
 70
     1
102
RTVSPropertyOp0
 70
     1
102
RTVSPropertyOp1
 70
     1
102
RTVSPropertyOp2
 70
     1
102
RTVSPropertyOp3
 70
     1
102
RTVSPropertyOp4
 70
     1
102
RTVSPropertyOp5
 70
     1
102
RTVSPropertyOp6
 70
     1
102
RTVSPropertyOp7
 70
     1
102
RTVSPropertyOp8
 70
     1
102
RTVSPropertyOp9
 70
     1
102
RTVSPropertyOp10
 70
     1
102
RTVSPropertyOp11
 70
     1
102
RTVSPropertyOp12
 70
     1
102
RTVSPropertyOp13
 70
     1
102
RTVSPropertyOp14
 70
     1
102
RTVSPropertyOp15
 70
     1
102
RTVSPropertyOp16
 70
     1
102
RTVSPropertyOp17
 70
     1
102
RTVSPropertyOp18
 70
     1
102
RTVSPropertyOp19
 70
     1
102
RTVSPropertyOp20
 70
     1
102
RTVSPropertyOp21
 70
     1
102
RTVSPropertyOp22
 70
     1
102
RTVSPropertyOp23
 70
     1
102
RTVSPropertyOp24
 70
     1
102
RTVSPropertyOp25
 70
     1
102
RTVSPropertyOp26
 70
     1
102
RTVSPropertyOp27
 70
     1
102
RTVSPropertyOp28
 70
     1
102
RTVSPropertyOp29
 70
     1
102
RTVSPropertyOp30
 70
     1
102
RTVSPropertyOp31
 70
     1
102
RTVSPropertyOp32
 70
     1
102
RTVSPropertyOp33
 70
     1
102
RTVSPropertyOp34
 70
     1
102
RTVSPropertyOp35
 70
     1
102
RTVSPropertyOp36
 70
     1
102
RTVSPropertyOp37
 70
     1
102
RTVSPropertyOp38
 70
     1
102
RTVSPropertyOp39
 70
     1
102
RTVSPropertyOp40
 70
     1
102
RTVSPropertyOp41
 70
     1
102
RTVSPropertyOp42
 70
     1
102
RTVSPropertyOp43
 70
     1
102
RTVSPropertyOp44
 70
     1
102
RTVSPropertyOp45
 70
     1
102
RTVSPropertyOp46
 70
     1
102
RTVSPropertyOp47
 70
     1
102
RTVSPropertyOp48
 70
     1
102
RTVSPropertyOp49
 70
     1
102
RTVSPropertyOp50
 70
     1
102
RTVSPropertyOp51
 70
     0
102
RTVSPropertyOp52
 70
     0
102
RTVSPropertyOp53
 70
     1
102
RTVSPropertyOp54
 70
     1
102
RTVSPropertyOp55
 70
     1
102
RTVSPropertyOp56
 70
     1
102
RTVSPropertyOp57
 70
     1
102
RTVSPropertyOp58
 70
     1
102
RTVSPropertyOp59
 70
     1
102
RTVSPropertyOp60
 70
     1
102
RTVSPropertyOp61
 70
     1
102
RTVSPropertyOp62
 70
     1
  0
XRECORD
  5
831
102
{ACAD_REACTORS
330
830
102
}
330
830
100
AcDbXrecord
280
     1
102
RTVSPost2010Prop28
280
     0
102
RTVSPost2010PropOp28
 70
     1
102
RTVSPost2010Prop29
280
     1
102
RTVSPost2010PropOp29
 70
     1
102
RTVSPost2010Prop30
280
     1
102
RTVSPost2010PropOp30
 70
     1
102
RTVSPost2010Prop31
280
     0
102
RTVSPost2010PropOp31
 70
     1
102
RTVSPost2010Prop32
280
     0
102
RTVSPost2010PropOp32
 70
     1
102
RTVSPost2010Prop33
280
     0
102
RTVSPost2010PropOp33
 70
     1
102
RTVSPost2010Prop34
280
     0
102
RTVSPost2010PropOp34
 70
     1
102
RTVSPost2010Prop35
280
     0
102
RTVSPost2010PropOp35
 70
     1
102
RTVSPost2010Prop36
280
     0
102
RTVSPost2010PropOp36
 70
     1
102
RTVSPost2010Prop37
 90
       50
102
RTVSPost2010PropOp37
 70
     1
102
RTVSPost2010Prop38
140
0.0
102
RTVSPost2010PropOp38
 70
     1
102
RTVSPost2010Prop39
140
1.0
102
RTVSPost2010PropOp39
 70
     1
102
RTVSPost2010Prop40
 90
        0
102
RTVSPost2010PropOp40
 70
     1
102
RTVSPost2010Prop41ColorIndex
 90
       18
102
RTVSPost2010Prop41ColorRGB
 90
        0
102
RTVSPost2010PropOp41
 70
     1
102
RTVSPost2010Prop42
 90
       50
102
RTVSPost2010PropOp42
 70
     1
102
RTVSPost2010Prop43
 90
        3
102
RTVSPost2010PropOp43
 70
     1
102
RTVSPost2010Prop44ColorIndex
 90
        5
102
RTVSPost2010Prop44ColorRGB
 90
      255
102
RTVSPost2010PropOp44
 70
     1
102
RTVSPost2010Prop45
280
     0
102
RTVSPost2010PropOp45
 70
     1
102
RTVSPost2010Prop46
 90
       50
102
RTVSPost2010PropOp46
 70
     1
102
RTVSPost2010Prop47
 90
       50
102
RTVSPost2010PropOp47
 70
     1
102
RTVSPost2010Prop48
 90
       50
102
RTVSPost2010PropOp48
 70
     1
102
RTVSPost2010Prop49
280
     0
102
RTVSPost2010PropOp49
 70
     1
102
RTVSPost2010Prop50
 90
       50
102
RTVSPost2010PropOp50
 70
     1
102
RTVSPost2010Prop51ColorIndex
 90
      256
102
RTVSPost2010Prop51ColorRGB
 90
-16777216
102
RTVSPost2010PropOp51
 70
     0
102
RTVSPost2010Prop52
140
1.0
102
RTVSPost2010PropOp52
 70
     0
102
RTVSPost2010Prop53
 90
        2
102
RTVSPost2010PropOp53
 70
     1
102
RTVSPost2010Prop54
  1
strokes_ogs.tif
102
RTVSPost2010PropOp54
 70
     1
102
RTVSPost2010Prop55
280
     0
102
RTVSPost2010PropOp55
 70
     1
102
RTVSPost2010Prop56
140
1.0
102
RTVSPost2010PropOp56
 70
     1
102
RTVSPost2010Prop57
140
1.0
102
RTVSPost2010PropOp57
 70
     1
102
RTVSPropertyOp0
 70
     1
102
RTVSPropertyOp1
 70
     1
102
RTVSPropertyOp2
 70
     1
102
RTVSPropertyOp3
 70
     1
102
RTVSPropertyOp4
 70
     1
102
RTVSPropertyOp5
 70
     1
102
RTVSPropertyOp6
 70
     1
102
RTVSPropertyOp7
 70
     1
102
RTVSPropertyOp8
 70
     1
102
RTVSPropertyOp9
 70
     1
102
RTVSPropertyOp10
 70
     1
102
RTVSPropertyOp11
 70
     1
102
RTVSPropertyOp12
 70
     1
102
RTVSPropertyOp13
 70
     1
102
RTVSPropertyOp14
 70
     1
102
RTVSPropertyOp15
 70
     1
102
RTVSPropertyOp16
 70
     1
102
RTVSPropertyOp17
 70
     1
102
RTVSPropertyOp18
 70
     1
102
RTVSPropertyOp19
 70
     1
102
RTVSPropertyOp20
 70
     1
102
RTVSPropertyOp21
 70
     1
102
RTVSPropertyOp22
 70
     1
102
RTVSPropertyOp23
 70
     1
102
RTVSPropertyOp24
 70
     1
102
RTVSPropertyOp25
 70
     1
102
RTVSPropertyOp26
 70
     1
102
RTVSPropertyOp27
 70
     1
102
RTVSPropertyOp28
 70
     1
102
RTVSPropertyOp29
 70
     1
102
RTVSPropertyOp30
 70
     1
102
RTVSPropertyOp31
 70
     1
102
RTVSPropertyOp32
 70
     1
102
RTVSPropertyOp33
 70
     1
102
RTVSPropertyOp34
 70
     1
102
RTVSPropertyOp35
 70
     1
102
RTVSPropertyOp36
 70
     1
102
RTVSPropertyOp37
 70
     1
102
RTVSPropertyOp38
 70
     1
102
RTVSPropertyOp39
 70
     1
102
RTVSPropertyOp40
 70
     1
102
RTVSPropertyOp41
 70
     1
102
RTVSPropertyOp42
 70
     1
102
RTVSPropertyOp43
 70
     1
102
RTVSPropertyOp44
 70
     1
102
RTVSPropertyOp45
 70
     1
102
RTVSPropertyOp46
 70
     1
102
RTVSPropertyOp47
 70
     1
102
RTVSPropertyOp48
 70
     1
102
RTVSPropertyOp49
 70
     1
102
RTVSPropertyOp50
 70
     1
102
RTVSPropertyOp51
 70
     0
102
RTVSPropertyOp52
 70
     0
102
RTVSPropertyOp53
 70
     1
102
RTVSPropertyOp54
 70
     1
102
RTVSPropertyOp55
 70
     1
102
RTVSPropertyOp56
 70
     1
102
RTVSPropertyOp57
 70
     1
102
RTVSPropertyOp58
 70
     1
102
RTVSPropertyOp59
 70
     1
102
RTVSPropertyOp60
 70
     1
102
RTVSPropertyOp61
 70
     1
102
RTVSPropertyOp62
 70
     1
  0
XRECORD
  5
835
102
{ACAD_REACTORS
330
834
102
}
330
834
100
AcDbXrecord
280
     1
102
RTVSPost2010Prop28
280
     0
102
RTVSPost2010PropOp28
 70
     1
102
RTVSPost2010Prop29
280
     1
102
RTVSPost2010PropOp29
 70
     1
102
RTVSPost2010Prop30
280
     1
102
RTVSPost2010PropOp30
 70
     1
102
RTVSPost2010Prop31
280
     0
102
RTVSPost2010PropOp31
 70
     1
102
RTVSPost2010Prop32
280
     0
102
RTVSPost2010PropOp32
 70
     1
102
RTVSPost2010Prop33
280
     0
102
RTVSPost2010PropOp33
 70
     1
102
RTVSPost2010Prop34
280
     0
102
RTVSPost2010PropOp34
 70
     1
102
RTVSPost2010Prop35
280
     0
102
RTVSPost2010PropOp35
 70
     1
102
RTVSPost2010Prop36
280
     0
102
RTVSPost2010PropOp36
 70
     1
102
RTVSPost2010Prop37
 90
       50
102
RTVSPost2010PropOp37
 70
     1
102
RTVSPost2010Prop38
140
0.0
102
RTVSPost2010PropOp38
 70
     1
102
RTVSPost2010Prop39
140
1.0
102
RTVSPost2010PropOp39
 70
     1
102
RTVSPost2010Prop40
 90
        0
102
RTVSPost2010PropOp40
 70
     1
102
RTVSPost2010Prop41ColorIndex
 90
       18
102
RTVSPost2010Prop41ColorRGB
 90
        0
102
RTVSPost2010PropOp41
 70
     1
102
RTVSPost2010Prop42
 90
       50
102
RTVSPost2010PropOp42
 70
     1
102
RTVSPost2010Prop43
 90
        3
102
RTVSPost2010PropOp43
 70
     1
102
RTVSPost2010Prop44ColorIndex
 90
        5
102
RTVSPost2010Prop44ColorRGB
 90
      255
102
RTVSPost2010PropOp44
 70
     1
102
RTVSPost2010Prop45
280
     0
102
RTVSPost2010PropOp45
 70
     1
102
RTVSPost2010Prop46
 90
       50
102
RTVSPost2010PropOp46
 70
     1
102
RTVSPost2010Prop47
 90
       50
102
RTVSPost2010PropOp47
 70
     1
102
RTVSPost2010Prop48
 90
       50
102
RTVSPost2010PropOp48
 70
     1
102
RTVSPost2010Prop49
280
     0
102
RTVSPost2010PropOp49
 70
     1
102
RTVSPost2010Prop50
 90
       50
102
RTVSPost2010PropOp50
 70
     1
102
RTVSPost2010Prop51ColorIndex
 90
      256
102
RTVSPost2010Prop51ColorRGB
 90
-16777216
102
RTVSPost2010PropOp51
 70
     0
102
RTVSPost2010Prop52
140
1.0
102
RTVSPost2010PropOp52
 70
     0
102
RTVSPost2010Prop53
 90
        2
102
RTVSPost2010PropOp53
 70
     1
102
RTVSPost2010Prop54
  1
strokes_ogs.tif
102
RTVSPost2010PropOp54
 70
     1
102
RTVSPost2010Prop55
280
     0
102
RTVSPost2010PropOp55
 70
     1
102
RTVSPost2010Prop56
140
1.0
102
RTVSPost2010PropOp56
 70
     1
102
RTVSPost2010Prop57
140
1.0
102
RTVSPost2010PropOp57
 70
     1
102
RTVSPropertyOp0
 70
     1
102
RTVSPropertyOp1
 70
     1
102
RTVSPropertyOp2
 70
     1
102
RTVSPropertyOp3
 70
     1
102
RTVSPropertyOp4
 70
     1
102
RTVSPropertyOp5
 70
     1
102
RTVSPropertyOp6
 70
     1
102
RTVSPropertyOp7
 70
     1
102
RTVSPropertyOp8
 70
     1
102
RTVSPropertyOp9
 70
     1
102
RTVSPropertyOp10
 70
     1
102
RTVSPropertyOp11
 70
     1
102
RTVSPropertyOp12
 70
     1
102
RTVSPropertyOp13
 70
     1
102
RTVSPropertyOp14
 70
     1
102
RTVSPropertyOp15
 70
     1
102
RTVSPropertyOp16
 70
     1
102
RTVSPropertyOp17
 70
     1
102
RTVSPropertyOp18
 70
     1
102
RTVSPropertyOp19
 70
     1
102
RTVSPropertyOp20
 70
     1
102
RTVSPropertyOp21
 70
     1
102
RTVSPropertyOp22
 70
     1
102
RTVSPropertyOp23
 70
     1
102
RTVSPropertyOp24
 70
     1
102
RTVSPropertyOp25
 70
     1
102
RTVSPropertyOp26
 70
     1
102
RTVSPropertyOp27
 70
     1
102
RTVSPropertyOp28
 70
     1
102
RTVSPropertyOp29
 70
     1
102
RTVSPropertyOp30
 70
     1
102
RTVSPropertyOp31
 70
     1
102
RTVSPropertyOp32
 70
     1
102
RTVSPropertyOp33
 70
     1
102
RTVSPropertyOp34
 70
     1
102
RTVSPropertyOp35
 70
     1
102
RTVSPropertyOp36
 70
     1
102
RTVSPropertyOp37
 70
     1
102
RTVSPropertyOp38
 70
     1
102
RTVSPropertyOp39
 70
     1
102
RTVSPropertyOp40
 70
     1
102
RTVSPropertyOp41
 70
     1
102
RTVSPropertyOp42
 70
     1
102
RTVSPropertyOp43
 70
     1
102
RTVSPropertyOp44
 70
     1
102
RTVSPropertyOp45
 70
     1
102
RTVSPropertyOp46
 70
     1
102
RTVSPropertyOp47
 70
     1
102
RTVSPropertyOp48
 70
     1
102
RTVSPropertyOp49
 70
     1
102
RTVSPropertyOp50
 70
     1
102
RTVSPropertyOp51
 70
     0
102
RTVSPropertyOp52
 70
     0
102
RTVSPropertyOp53
 70
     1
102
RTVSPropertyOp54
 70
     1
102
RTVSPropertyOp55
 70
     1
102
RTVSPropertyOp56
 70
     1
102
RTVSPropertyOp57
 70
     1
102
RTVSPropertyOp58
 70
     1
102
RTVSPropertyOp59
 70
     1
102
RTVSPropertyOp60
 70
     1
102
RTVSPropertyOp61
 70
     1
102
RTVSPropertyOp62
 70
     1
  0
XRECORD
  5
84F
102
{ACAD_REACTORS
330
84E
102
}
330
84E
100
AcDbXrecord
280
     1
102
RTVSPost2010Prop28
280
     0
102
RTVSPost2010PropOp28
 70
     1
102
RTVSPost2010Prop29
280
     1
102
RTVSPost2010PropOp29
 70
     1
102
RTVSPost2010Prop30
280
     1
102
RTVSPost2010PropOp30
 70
     1
102
RTVSPost2010Prop31
280
     0
102
RTVSPost2010PropOp31
 70
     1
102
RTVSPost2010Prop32
280
     0
102
RTVSPost2010PropOp32
 70
     1
102
RTVSPost2010Prop33
280
     0
102
RTVSPost2010PropOp33
 70
     1
102
RTVSPost2010Prop34
280
     0
102
RTVSPost2010PropOp34
 70
     1
102
RTVSPost2010Prop35
280
     0
102
RTVSPost2010PropOp35
 70
     1
102
RTVSPost2010Prop36
280
     0
102
RTVSPost2010PropOp36
 70
     1
102
RTVSPost2010Prop37
 90
       50
102
RTVSPost2010PropOp37
 70
     0
102
RTVSPost2010Prop38
140
0.0
102
RTVSPost2010PropOp38
 70
     0
102
RTVSPost2010Prop39
140
1.0
102
RTVSPost2010PropOp39
 70
     0
102
RTVSPost2010Prop40
 90
        0
102
RTVSPost2010PropOp40
 70
     0
102
RTVSPost2010Prop41ColorIndex
 90
       18
102
RTVSPost2010Prop41ColorRGB
 90
        0
102
RTVSPost2010PropOp41
 70
     0
102
RTVSPost2010Prop42
 90
       50
102
RTVSPost2010PropOp42
 70
     0
102
RTVSPost2010Prop43
 90
        3
102
RTVSPost2010PropOp43
 70
     0
102
RTVSPost2010Prop44ColorIndex
 90
        5
102
RTVSPost2010Prop44ColorRGB
 90
      255
102
RTVSPost2010PropOp44
 70
     0
102
RTVSPost2010Prop45
280
     0
102
RTVSPost2010PropOp45
 70
     1
102
RTVSPost2010Prop46
 90
       50
102
RTVSPost2010PropOp46
 70
     0
102
RTVSPost2010Prop47
 90
       50
102
RTVSPost2010PropOp47
 70
     0
102
RTVSPost2010Prop48
 90
       50
102
RTVSPost2010PropOp48
 70
     0
102
RTVSPost2010Prop49
280
     0
102
RTVSPost2010PropOp49
 70
     1
102
RTVSPost2010Prop50
 90
       50
102
RTVSPost2010PropOp50
 70
     0
102
RTVSPost2010Prop51ColorIndex
 90
      256
102
RTVSPost2010Prop51ColorRGB
 90
-16777216
102
RTVSPost2010PropOp51
 70
     0
102
RTVSPost2010Prop52
140
1.0
102
RTVSPost2010PropOp52
 70
     0
102
RTVSPost2010Prop53
 90
        2
102
RTVSPost2010PropOp53
 70
     0
102
RTVSPost2010Prop54
  1
strokes_ogs.tif
102
RTVSPost2010PropOp54
 70
     0
102
RTVSPost2010Prop55
280
     0
102
RTVSPost2010PropOp55
 70
     1
102
RTVSPost2010Prop56
140
1.0
102
RTVSPost2010PropOp56
 70
     0
102
RTVSPost2010Prop57
140
1.0
102
RTVSPost2010PropOp57
 70
     0
102
RTVSPropertyOp0
 70
     0
102
RTVSPropertyOp1
 70
     0
102
RTVSPropertyOp2
 70
     0
102
RTVSPropertyOp3
 70
     0
102
RTVSPropertyOp4
 70
     0
102
RTVSPropertyOp5
 70
     0
102
RTVSPropertyOp6
 70
     0
102
RTVSPropertyOp7
 70
     0
102
RTVSPropertyOp8
 70
     0
102
RTVSPropertyOp9
 70
     0
102
RTVSPropertyOp10
 70
     0
102
RTVSPropertyOp11
 70
     0
102
RTVSPropertyOp12
 70
     0
102
RTVSPropertyOp13
 70
     0
102
RTVSPropertyOp14
 70
     2
102
RTVSPropertyOp15
 70
     0
102
RTVSPropertyOp16
 70
     0
102
RTVSPropertyOp17
 70
     0
102
RTVSPropertyOp18
 70
     0
102
RTVSPropertyOp19
 70
     0
102
RTVSPropertyOp20
 70
     0
102
RTVSPropertyOp21
 70
     0
102
RTVSPropertyOp22
 70
     0
102
RTVSPropertyOp23
 70
     0
102
RTVSPropertyOp24
 70
     0
102
RTVSPropertyOp25
 70
     0
102
RTVSPropertyOp26
 70
     0
102
RTVSPropertyOp27
 70
     0
102
RTVSPropertyOp28
 70
     1
102
RTVSPropertyOp29
 70
     1
102
RTVSPropertyOp30
 70
     1
102
RTVSPropertyOp31
 70
     1
102
RTVSPropertyOp32
 70
     1
102
RTVSPropertyOp33
 70
     1
102
RTVSPropertyOp34
 70
     1
102
RTVSPropertyOp35
 70
     1
102
RTVSPropertyOp36
 70
     1
102
RTVSPropertyOp37
 70
     0
102
RTVSPropertyOp38
 70
     0
102
RTVSPropertyOp39
 70
     0
102
RTVSPropertyOp40
 70
     0
102
RTVSPropertyOp41
 70
     0
102
RTVSPropertyOp42
 70
     0
102
RTVSPropertyOp43
 70
     0
102
RTVSPropertyOp44
 70
     0
102
RTVSPropertyOp45
 70
     1
102
RTVSPropertyOp46
 70
     0
102
RTVSPropertyOp47
 70
     0
102
RTVSPropertyOp48
 70
     0
102
RTVSPropertyOp49
 70
     1
102
RTVSPropertyOp50
 70
     0
102
RTVSPropertyOp51
 70
     0
102
RTVSPropertyOp52
 70
     0
102
RTVSPropertyOp53
 70
     0
102
RTVSPropertyOp54
 70
     0
102
RTVSPropertyOp55
 70
     1
102
RTVSPropertyOp56
 70
     0
102
RTVSPropertyOp57
 70
     0
102
RTVSPropertyOp58
 70
     0
102
RTVSPropertyOp59
 70
     0
102
RTVSPropertyOp60
 70
     0
102
RTVSPropertyOp61
 70
     0
102
RTVSPropertyOp62
 70
     0
  0
XRECORD
  5
83D
102
{ACAD_REACTORS
330
83C
102
}
330
83C
100
AcDbXrecord
280
     1
102
RTVSPost2010Prop28
280
     0
102
RTVSPost2010PropOp28
 70
     1
102
RTVSPost2010Prop29
280
     1
102
RTVSPost2010PropOp29
 70
     1
102
RTVSPost2010Prop30
280
     1
102
RTVSPost2010PropOp30
 70
     1
102
RTVSPost2010Prop31
280
     0
102
RTVSPost2010PropOp31
 70
     1
102
RTVSPost2010Prop32
280
     0
102
RTVSPost2010PropOp32
 70
     1
102
RTVSPost2010Prop33
280
     0
102
RTVSPost2010PropOp33
 70
     1
102
RTVSPost2010Prop34
280
     0
102
RTVSPost2010PropOp34
 70
     1
102
RTVSPost2010Prop35
280
     0
102
RTVSPost2010PropOp35
 70
     1
102
RTVSPost2010Prop36
280
     0
102
RTVSPost2010PropOp36
 70
     1
102
RTVSPost2010Prop37
 90
       50
102
RTVSPost2010PropOp37
 70
     1
102
RTVSPost2010Prop38
140
0.0
102
RTVSPost2010PropOp38
 70
     1
102
RTVSPost2010Prop39
140
1.0
102
RTVSPost2010PropOp39
 70
     1
102
RTVSPost2010Prop40
 90
        0
102
RTVSPost2010PropOp40
 70
     1
102
RTVSPost2010Prop41ColorIndex
 90
       18
102
RTVSPost2010Prop41ColorRGB
 90
        0
102
RTVSPost2010PropOp41
 70
     1
102
RTVSPost2010Prop42
 90
       50
102
RTVSPost2010PropOp42
 70
     1
102
RTVSPost2010Prop43
 90
        3
102
RTVSPost2010PropOp43
 70
     1
102
RTVSPost2010Prop44ColorIndex
 90
        5
102
RTVSPost2010Prop44ColorRGB
 90
      255
102
RTVSPost2010PropOp44
 70
     1
102
RTVSPost2010Prop45
280
     0
102
RTVSPost2010PropOp45
 70
     1
102
RTVSPost2010Prop46
 90
       50
102
RTVSPost2010PropOp46
 70
     1
102
RTVSPost2010Prop47
 90
       50
102
RTVSPost2010PropOp47
 70
     1
102
RTVSPost2010Prop48
 90
       50
102
RTVSPost2010PropOp48
 70
     1
102
RTVSPost2010Prop49
280
     0
102
RTVSPost2010PropOp49
 70
     1
102
RTVSPost2010Prop50
 90
       50
102
RTVSPost2010PropOp50
 70
     1
102
RTVSPost2010Prop51ColorIndex
 90
      256
102
RTVSPost2010Prop51ColorRGB
 90
-16777216
102
RTVSPost2010PropOp51
 70
     0
102
RTVSPost2010Prop52
140
1.0
102
RTVSPost2010PropOp52
 70
     0
102
RTVSPost2010Prop53
 90
        2
102
RTVSPost2010PropOp53
 70
     1
102
RTVSPost2010Prop54
  1
strokes_ogs.tif
102
RTVSPost2010PropOp54
 70
     1
102
RTVSPost2010Prop55
280
     0
102
RTVSPost2010PropOp55
 70
     1
102
RTVSPost2010Prop56
140
1.0
102
RTVSPost2010PropOp56
 70
     1
102
RTVSPost2010Prop57
140
1.0
102
RTVSPost2010PropOp57
 70
     1
102
RTVSPropertyOp0
 70
     1
102
RTVSPropertyOp1
 70
     1
102
RTVSPropertyOp2
 70
     1
102
RTVSPropertyOp3
 70
     1
102
RTVSPropertyOp4
 70
     1
102
RTVSPropertyOp5
 70
     1
102
RTVSPropertyOp6
 70
     1
102
RTVSPropertyOp7
 70
     1
102
RTVSPropertyOp8
 70
     1
102
RTVSPropertyOp9
 70
     1
102
RTVSPropertyOp10
 70
     1
102
RTVSPropertyOp11
 70
     1
102
RTVSPropertyOp12
 70
     1
102
RTVSPropertyOp13
 70
     1
102
RTVSPropertyOp14
 70
     1
102
RTVSPropertyOp15
 70
     1
102
RTVSPropertyOp16
 70
     1
102
RTVSPropertyOp17
 70
     1
102
RTVSPropertyOp18
 70
     1
102
RTVSPropertyOp19
 70
     1
102
RTVSPropertyOp20
 70
     1
102
RTVSPropertyOp21
 70
     1
102
RTVSPropertyOp22
 70
     1
102
RTVSPropertyOp23
 70
     1
102
RTVSPropertyOp24
 70
     1
102
RTVSPropertyOp25
 70
     1
102
RTVSPropertyOp26
 70
     1
102
RTVSPropertyOp27
 70
     1
102
RTVSPropertyOp28
 70
     1
102
RTVSPropertyOp29
 70
     1
102
RTVSPropertyOp30
 70
     1
102
RTVSPropertyOp31
 70
     1
102
RTVSPropertyOp32
 70
     1
102
RTVSPropertyOp33
 70
     1
102
RTVSPropertyOp34
 70
     1
102
RTVSPropertyOp35
 70
     1
102
RTVSPropertyOp36
 70
     1
102
RTVSPropertyOp37
 70
     1
102
RTVSPropertyOp38
 70
     1
102
RTVSPropertyOp39
 70
     1
102
RTVSPropertyOp40
 70
     1
102
RTVSPropertyOp41
 70
     1
102
RTVSPropertyOp42
 70
     1
102
RTVSPropertyOp43
 70
     1
102
RTVSPropertyOp44
 70
     1
102
RTVSPropertyOp45
 70
     1
102
RTVSPropertyOp46
 70
     1
102
RTVSPropertyOp47
 70
     1
102
RTVSPropertyOp48
 70
     1
102
RTVSPropertyOp49
 70
     1
102
RTVSPropertyOp50
 70
     1
102
RTVSPropertyOp51
 70
     0
102
RTVSPropertyOp52
 70
     0
102
RTVSPropertyOp53
 70
     1
102
RTVSPropertyOp54
 70
     1
102
RTVSPropertyOp55
 70
     1
102
RTVSPropertyOp56
 70
     1
102
RTVSPropertyOp57
 70
     1
102
RTVSPropertyOp58
 70
     1
102
RTVSPropertyOp59
 70
     1
102
RTVSPropertyOp60
 70
     1
102
RTVSPropertyOp61
 70
     1
102
RTVSPropertyOp62
 70
     1
  0
XRECORD
  5
821
102
{ACAD_REACTORS
330
820
102
}
330
820
100
AcDbXrecord
280
     1
102
RTVSPost2010Prop28
280
     0
102
RTVSPost2010PropOp28
 70
     1
102
RTVSPost2010Prop29
280
     1
102
RTVSPost2010PropOp29
 70
     1
102
RTVSPost2010Prop30
280
     1
102
RTVSPost2010PropOp30
 70
     1
102
RTVSPost2010Prop31
280
     0
102
RTVSPost2010PropOp31
 70
     1
102
RTVSPost2010Prop32
280
     0
102
RTVSPost2010PropOp32
 70
     1
102
RTVSPost2010Prop33
280
     0
102
RTVSPost2010PropOp33
 70
     1
102
RTVSPost2010Prop34
280
     0
102
RTVSPost2010PropOp34
 70
     1
102
RTVSPost2010Prop35
280
     0
102
RTVSPost2010PropOp35
 70
     1
102
RTVSPost2010Prop36
280
     0
102
RTVSPost2010PropOp36
 70
     1
102
RTVSPost2010Prop37
 90
       50
102
RTVSPost2010PropOp37
 70
     1
102
RTVSPost2010Prop38
140
0.0
102
RTVSPost2010PropOp38
 70
     1
102
RTVSPost2010Prop39
140
1.0
102
RTVSPost2010PropOp39
 70
     1
102
RTVSPost2010Prop40
 90
        0
102
RTVSPost2010PropOp40
 70
     1
102
RTVSPost2010Prop41ColorIndex
 90
       18
102
RTVSPost2010Prop41ColorRGB
 90
        0
102
RTVSPost2010PropOp41
 70
     1
102
RTVSPost2010Prop42
 90
       50
102
RTVSPost2010PropOp42
 70
     1
102
RTVSPost2010Prop43
 90
        3
102
RTVSPost2010PropOp43
 70
     1
102
RTVSPost2010Prop44ColorIndex
 90
        5
102
RTVSPost2010Prop44ColorRGB
 90
      255
102
RTVSPost2010PropOp44
 70
     1
102
RTVSPost2010Prop45
280
     0
102
RTVSPost2010PropOp45
 70
     1
102
RTVSPost2010Prop46
 90
       50
102
RTVSPost2010PropOp46
 70
     1
102
RTVSPost2010Prop47
 90
       50
102
RTVSPost2010PropOp47
 70
     1
102
RTVSPost2010Prop48
 90
       50
102
RTVSPost2010PropOp48
 70
     1
102
RTVSPost2010Prop49
280
     0
102
RTVSPost2010PropOp49
 70
     1
102
RTVSPost2010Prop50
 90
       50
102
RTVSPost2010PropOp50
 70
     1
102
RTVSPost2010Prop51ColorIndex
 90
      256
102
RTVSPost2010Prop51ColorRGB
 90
-16777216
102
RTVSPost2010PropOp51
 70
     0
102
RTVSPost2010Prop52
140
1.0
102
RTVSPost2010PropOp52
 70
     0
102
RTVSPost2010Prop53
 90
        2
102
RTVSPost2010PropOp53
 70
     1
102
RTVSPost2010Prop54
  1
strokes_ogs.tif
102
RTVSPost2010PropOp54
 70
     1
102
RTVSPost2010Prop55
280
     0
102
RTVSPost2010PropOp55
 70
     1
102
RTVSPost2010Prop56
140
1.0
102
RTVSPost2010PropOp56
 70
     1
102
RTVSPost2010Prop57
140
1.0
102
RTVSPost2010PropOp57
 70
     1
102
RTVSPropertyOp0
 70
     1
102
RTVSPropertyOp1
 70
     1
102
RTVSPropertyOp2
 70
     1
102
RTVSPropertyOp3
 70
     1
102
RTVSPropertyOp4
 70
     1
102
RTVSPropertyOp5
 70
     1
102
RTVSPropertyOp6
 70
     1
102
RTVSPropertyOp7
 70
     1
102
RTVSPropertyOp8
 70
     1
102
RTVSPropertyOp9
 70
     1
102
RTVSPropertyOp10
 70
     1
102
RTVSPropertyOp11
 70
     1
102
RTVSPropertyOp12
 70
     1
102
RTVSPropertyOp13
 70
     1
102
RTVSPropertyOp14
 70
     1
102
RTVSPropertyOp15
 70
     1
102
RTVSPropertyOp16
 70
     1
102
RTVSPropertyOp17
 70
     1
102
RTVSPropertyOp18
 70
     1
102
RTVSPropertyOp19
 70
     1
102
RTVSPropertyOp20
 70
     1
102
RTVSPropertyOp21
 70
     1
102
RTVSPropertyOp22
 70
     1
102
RTVSPropertyOp23
 70
     1
102
RTVSPropertyOp24
 70
     1
102
RTVSPropertyOp25
 70
     1
102
RTVSPropertyOp26
 70
     1
102
RTVSPropertyOp27
 70
     1
102
RTVSPropertyOp28
 70
     1
102
RTVSPropertyOp29
 70
     1
102
RTVSPropertyOp30
 70
     1
102
RTVSPropertyOp31
 70
     1
102
RTVSPropertyOp32
 70
     1
102
RTVSPropertyOp33
 70
     1
102
RTVSPropertyOp34
 70
     1
102
RTVSPropertyOp35
 70
     1
102
RTVSPropertyOp36
 70
     1
102
RTVSPropertyOp37
 70
     1
102
RTVSPropertyOp38
 70
     1
102
RTVSPropertyOp39
 70
     1
102
RTVSPropertyOp40
 70
     1
102
RTVSPropertyOp41
 70
     1
102
RTVSPropertyOp42
 70
     1
102
RTVSPropertyOp43
 70
     1
102
RTVSPropertyOp44
 70
     1
102
RTVSPropertyOp45
 70
     1
102
RTVSPropertyOp46
 70
     1
102
RTVSPropertyOp47
 70
     1
102
RTVSPropertyOp48
 70
     1
102
RTVSPropertyOp49
 70
     1
102
RTVSPropertyOp50
 70
     1
102
RTVSPropertyOp51
 70
     0
102
RTVSPropertyOp52
 70
     0
102
RTVSPropertyOp53
 70
     1
102
RTVSPropertyOp54
 70
     1
102
RTVSPropertyOp55
 70
     1
102
RTVSPropertyOp56
 70
     1
102
RTVSPropertyOp57
 70
     1
102
RTVSPropertyOp58
 70
     1
102
RTVSPropertyOp59
 70
     1
102
RTVSPropertyOp60
 70
     1
102
RTVSPropertyOp61
 70
     1
102
RTVSPropertyOp62
 70
     1
  0
XRECORD
  5
823
102
{ACAD_REACTORS
330
822
102
}
330
822
100
AcDbXrecord
280
     1
102
RTVSPost2010Prop28
280
     0
102
RTVSPost2010PropOp28
 70
     1
102
RTVSPost2010Prop29
280
     1
102
RTVSPost2010PropOp29
 70
     1
102
RTVSPost2010Prop30
280
     1
102
RTVSPost2010PropOp30
 70
     1
102
RTVSPost2010Prop31
280
     0
102
RTVSPost2010PropOp31
 70
     1
102
RTVSPost2010Prop32
280
     0
102
RTVSPost2010PropOp32
 70
     1
102
RTVSPost2010Prop33
280
     0
102
RTVSPost2010PropOp33
 70
     1
102
RTVSPost2010Prop34
280
     0
102
RTVSPost2010PropOp34
 70
     1
102
RTVSPost2010Prop35
280
     0
102
RTVSPost2010PropOp35
 70
     1
102
RTVSPost2010Prop36
280
     0
102
RTVSPost2010PropOp36
 70
     1
102
RTVSPost2010Prop37
 90
       50
102
RTVSPost2010PropOp37
 70
     1
102
RTVSPost2010Prop38
140
0.0
102
RTVSPost2010PropOp38
 70
     1
102
RTVSPost2010Prop39
140
1.0
102
RTVSPost2010PropOp39
 70
     1
102
RTVSPost2010Prop40
 90
        0
102
RTVSPost2010PropOp40
 70
     1
102
RTVSPost2010Prop41ColorIndex
 90
       18
102
RTVSPost2010Prop41ColorRGB
 90
        0
102
RTVSPost2010PropOp41
 70
     1
102
RTVSPost2010Prop42
 90
       50
102
RTVSPost2010PropOp42
 70
     1
102
RTVSPost2010Prop43
 90
        3
102
RTVSPost2010PropOp43
 70
     1
102
RTVSPost2010Prop44ColorIndex
 90
        5
102
RTVSPost2010Prop44ColorRGB
 90
      255
102
RTVSPost2010PropOp44
 70
     1
102
RTVSPost2010Prop45
280
     0
102
RTVSPost2010PropOp45
 70
     1
102
RTVSPost2010Prop46
 90
       50
102
RTVSPost2010PropOp46
 70
     1
102
RTVSPost2010Prop47
 90
       50
102
RTVSPost2010PropOp47
 70
     1
102
RTVSPost2010Prop48
 90
       50
102
RTVSPost2010PropOp48
 70
     1
102
RTVSPost2010Prop49
280
     0
102
RTVSPost2010PropOp49
 70
     1
102
RTVSPost2010Prop50
 90
       50
102
RTVSPost2010PropOp50
 70
     1
102
RTVSPost2010Prop51ColorIndex
 90
      256
102
RTVSPost2010Prop51ColorRGB
 90
-16777216
102
RTVSPost2010PropOp51
 70
     0
102
RTVSPost2010Prop52
140
1.0
102
RTVSPost2010PropOp52
 70
     0
102
RTVSPost2010Prop53
 90
        2
102
RTVSPost2010PropOp53
 70
     1
102
RTVSPost2010Prop54
  1
strokes_ogs.tif
102
RTVSPost2010PropOp54
 70
     1
102
RTVSPost2010Prop55
280
     0
102
RTVSPost2010PropOp55
 70
     1
102
RTVSPost2010Prop56
140
1.0
102
RTVSPost2010PropOp56
 70
     1
102
RTVSPost2010Prop57
140
1.0
102
RTVSPost2010PropOp57
 70
     1
102
RTVSPropertyOp0
 70
     1
102
RTVSPropertyOp1
 70
     1
102
RTVSPropertyOp2
 70
     1
102
RTVSPropertyOp3
 70
     1
102
RTVSPropertyOp4
 70
     1
102
RTVSPropertyOp5
 70
     1
102
RTVSPropertyOp6
 70
     1
102
RTVSPropertyOp7
 70
     1
102
RTVSPropertyOp8
 70
     1
102
RTVSPropertyOp9
 70
     1
102
RTVSPropertyOp10
 70
     1
102
RTVSPropertyOp11
 70
     1
102
RTVSPropertyOp12
 70
     1
102
RTVSPropertyOp13
 70
     1
102
RTVSPropertyOp14
 70
     1
102
RTVSPropertyOp15
 70
     1
102
RTVSPropertyOp16
 70
     1
102
RTVSPropertyOp17
 70
     1
102
RTVSPropertyOp18
 70
     1
102
RTVSPropertyOp19
 70
     1
102
RTVSPropertyOp20
 70
     1
102
RTVSPropertyOp21
 70
     1
102
RTVSPropertyOp22
 70
     1
102
RTVSPropertyOp23
 70
     1
102
RTVSPropertyOp24
 70
     1
102
RTVSPropertyOp25
 70
     1
102
RTVSPropertyOp26
 70
     1
102
RTVSPropertyOp27
 70
     1
102
RTVSPropertyOp28
 70
     1
102
RTVSPropertyOp29
 70
     1
102
RTVSPropertyOp30
 70
     1
102
RTVSPropertyOp31
 70
     1
102
RTVSPropertyOp32
 70
     1
102
RTVSPropertyOp33
 70
     1
102
RTVSPropertyOp34
 70
     1
102
RTVSPropertyOp35
 70
     1
102
RTVSPropertyOp36
 70
     1
102
RTVSPropertyOp37
 70
     1
102
RTVSPropertyOp38
 70
     1
102
RTVSPropertyOp39
 70
     1
102
RTVSPropertyOp40
 70
     1
102
RTVSPropertyOp41
 70
     1
102
RTVSPropertyOp42
 70
     1
102
RTVSPropertyOp43
 70
     1
102
RTVSPropertyOp44
 70
     1
102
RTVSPropertyOp45
 70
     1
102
RTVSPropertyOp46
 70
     1
102
RTVSPropertyOp47
 70
     1
102
RTVSPropertyOp48
 70
     1
102
RTVSPropertyOp49
 70
     1
102
RTVSPropertyOp50
 70
     1
102
RTVSPropertyOp51
 70
     0
102
RTVSPropertyOp52
 70
     0
102
RTVSPropertyOp53
 70
     1
102
RTVSPropertyOp54
 70
     1
102
RTVSPropertyOp55
 70
     1
102
RTVSPropertyOp56
 70
     1
102
RTVSPropertyOp57
 70
     1
102
RTVSPropertyOp58
 70
     1
102
RTVSPropertyOp59
 70
     1
102
RTVSPropertyOp60
 70
     1
102
RTVSPropertyOp61
 70
     1
102
RTVSPropertyOp62
 70
     1
  0
XRECORD
  5
825
102
{ACAD_REACTORS
330
824
102
}
330
824
100
AcDbXrecord
280
     1
102
RTVSPost2010Prop28
280
     0
102
RTVSPost2010PropOp28
 70
     1
102
RTVSPost2010Prop29
280
     1
102
RTVSPost2010PropOp29
 70
     1
102
RTVSPost2010Prop30
280
     1
102
RTVSPost2010PropOp30
 70
     1
102
RTVSPost2010Prop31
280
     0
102
RTVSPost2010PropOp31
 70
     1
102
RTVSPost2010Prop32
280
     0
102
RTVSPost2010PropOp32
 70
     1
102
RTVSPost2010Prop33
280
     0
102
RTVSPost2010PropOp33
 70
     1
102
RTVSPost2010Prop34
280
     0
102
RTVSPost2010PropOp34
 70
     1
102
RTVSPost2010Prop35
280
     0
102
RTVSPost2010PropOp35
 70
     1
102
RTVSPost2010Prop36
280
     0
102
RTVSPost2010PropOp36
 70
     1
102
RTVSPost2010Prop37
 90
       50
102
RTVSPost2010PropOp37
 70
     1
102
RTVSPost2010Prop38
140
0.0
102
RTVSPost2010PropOp38
 70
     1
102
RTVSPost2010Prop39
140
1.0
102
RTVSPost2010PropOp39
 70
     1
102
RTVSPost2010Prop40
 90
        0
102
RTVSPost2010PropOp40
 70
     1
102
RTVSPost2010Prop41ColorIndex
 90
       18
102
RTVSPost2010Prop41ColorRGB
 90
        0
102
RTVSPost2010PropOp41
 70
     1
102
RTVSPost2010Prop42
 90
       50
102
RTVSPost2010PropOp42
 70
     1
102
RTVSPost2010Prop43
 90
        3
102
RTVSPost2010PropOp43
 70
     1
102
RTVSPost2010Prop44ColorIndex
 90
        5
102
RTVSPost2010Prop44ColorRGB
 90
      255
102
RTVSPost2010PropOp44
 70
     1
102
RTVSPost2010Prop45
280
     0
102
RTVSPost2010PropOp45
 70
     1
102
RTVSPost2010Prop46
 90
       50
102
RTVSPost2010PropOp46
 70
     1
102
RTVSPost2010Prop47
 90
       50
102
RTVSPost2010PropOp47
 70
     1
102
RTVSPost2010Prop48
 90
       50
102
RTVSPost2010PropOp48
 70
     1
102
RTVSPost2010Prop49
280
     0
102
RTVSPost2010PropOp49
 70
     1
102
RTVSPost2010Prop50
 90
       50
102
RTVSPost2010PropOp50
 70
     1
102
RTVSPost2010Prop51ColorIndex
 90
      256
102
RTVSPost2010Prop51ColorRGB
 90
-16777216
102
RTVSPost2010PropOp51
 70
     0
102
RTVSPost2010Prop52
140
1.0
102
RTVSPost2010PropOp52
 70
     0
102
RTVSPost2010Prop53
 90
        2
102
RTVSPost2010PropOp53
 70
     1
102
RTVSPost2010Prop54
  1
strokes_ogs.tif
102
RTVSPost2010PropOp54
 70
     1
102
RTVSPost2010Prop55
280
     0
102
RTVSPost2010PropOp55
 70
     1
102
RTVSPost2010Prop56
140
1.0
102
RTVSPost2010PropOp56
 70
     1
102
RTVSPost2010Prop57
140
1.0
102
RTVSPost2010PropOp57
 70
     1
102
RTVSPropertyOp0
 70
     1
102
RTVSPropertyOp1
 70
     1
102
RTVSPropertyOp2
 70
     1
102
RTVSPropertyOp3
 70
     1
102
RTVSPropertyOp4
 70
     1
102
RTVSPropertyOp5
 70
     1
102
RTVSPropertyOp6
 70
     1
102
RTVSPropertyOp7
 70
     1
102
RTVSPropertyOp8
 70
     1
102
RTVSPropertyOp9
 70
     1
102
RTVSPropertyOp10
 70
     1
102
RTVSPropertyOp11
 70
     1
102
RTVSPropertyOp12
 70
     1
102
RTVSPropertyOp13
 70
     1
102
RTVSPropertyOp14
 70
     1
102
RTVSPropertyOp15
 70
     1
102
RTVSPropertyOp16
 70
     1
102
RTVSPropertyOp17
 70
     1
102
RTVSPropertyOp18
 70
     1
102
RTVSPropertyOp19
 70
     1
102
RTVSPropertyOp20
 70
     1
102
RTVSPropertyOp21
 70
     1
102
RTVSPropertyOp22
 70
     1
102
RTVSPropertyOp23
 70
     1
102
RTVSPropertyOp24
 70
     1
102
RTVSPropertyOp25
 70
     1
102
RTVSPropertyOp26
 70
     1
102
RTVSPropertyOp27
 70
     1
102
RTVSPropertyOp28
 70
     1
102
RTVSPropertyOp29
 70
     1
102
RTVSPropertyOp30
 70
     1
102
RTVSPropertyOp31
 70
     1
102
RTVSPropertyOp32
 70
     1
102
RTVSPropertyOp33
 70
     1
102
RTVSPropertyOp34
 70
     1
102
RTVSPropertyOp35
 70
     1
102
RTVSPropertyOp36
 70
     1
102
RTVSPropertyOp37
 70
     1
102
RTVSPropertyOp38
 70
     1
102
RTVSPropertyOp39
 70
     1
102
RTVSPropertyOp40
 70
     1
102
RTVSPropertyOp41
 70
     1
102
RTVSPropertyOp42
 70
     1
102
RTVSPropertyOp43
 70
     1
102
RTVSPropertyOp44
 70
     1
102
RTVSPropertyOp45
 70
     1
102
RTVSPropertyOp46
 70
     1
102
RTVSPropertyOp47
 70
     1
102
RTVSPropertyOp48
 70
     1
102
RTVSPropertyOp49
 70
     1
102
RTVSPropertyOp50
 70
     1
102
RTVSPropertyOp51
 70
     0
102
RTVSPropertyOp52
 70
     0
102
RTVSPropertyOp53
 70
     1
102
RTVSPropertyOp54
 70
     1
102
RTVSPropertyOp55
 70
     1
102
RTVSPropertyOp56
 70
     1
102
RTVSPropertyOp57
 70
     1
102
RTVSPropertyOp58
 70
     1
102
RTVSPropertyOp59
 70
     1
102
RTVSPropertyOp60
 70
     1
102
RTVSPropertyOp61
 70
     1
102
RTVSPropertyOp62
 70
     1
  0
XRECORD
  5
827
102
{ACAD_REACTORS
330
826
102
}
330
826
100
AcDbXrecord
280
     1
102
RTVSPost2010Prop28
280
     0
102
RTVSPost2010PropOp28
 70
     1
102
RTVSPost2010Prop29
280
     1
102
RTVSPost2010PropOp29
 70
     1
102
RTVSPost2010Prop30
280
     1
102
RTVSPost2010PropOp30
 70
     1
102
RTVSPost2010Prop31
280
     0
102
RTVSPost2010PropOp31
 70
     1
102
RTVSPost2010Prop32
280
     0
102
RTVSPost2010PropOp32
 70
     1
102
RTVSPost2010Prop33
280
     0
102
RTVSPost2010PropOp33
 70
     1
102
RTVSPost2010Prop34
280
     0
102
RTVSPost2010PropOp34
 70
     1
102
RTVSPost2010Prop35
280
     0
102
RTVSPost2010PropOp35
 70
     1
102
RTVSPost2010Prop36
280
     0
102
RTVSPost2010PropOp36
 70
     1
102
RTVSPost2010Prop37
 90
       50
102
RTVSPost2010PropOp37
 70
     1
102
RTVSPost2010Prop38
140
0.0
102
RTVSPost2010PropOp38
 70
     1
102
RTVSPost2010Prop39
140
1.0
102
RTVSPost2010PropOp39
 70
     1
102
RTVSPost2010Prop40
 90
        0
102
RTVSPost2010PropOp40
 70
     1
102
RTVSPost2010Prop41ColorIndex
 90
       18
102
RTVSPost2010Prop41ColorRGB
 90
        0
102
RTVSPost2010PropOp41
 70
     1
102
RTVSPost2010Prop42
 90
       50
102
RTVSPost2010PropOp42
 70
     1
102
RTVSPost2010Prop43
 90
        3
102
RTVSPost2010PropOp43
 70
     1
102
RTVSPost2010Prop44ColorIndex
 90
        5
102
RTVSPost2010Prop44ColorRGB
 90
      255
102
RTVSPost2010PropOp44
 70
     1
102
RTVSPost2010Prop45
280
     0
102
RTVSPost2010PropOp45
 70
     1
102
RTVSPost2010Prop46
 90
       50
102
RTVSPost2010PropOp46
 70
     1
102
RTVSPost2010Prop47
 90
       50
102
RTVSPost2010PropOp47
 70
     1
102
RTVSPost2010Prop48
 90
       50
102
RTVSPost2010PropOp48
 70
     1
102
RTVSPost2010Prop49
280
     0
102
RTVSPost2010PropOp49
 70
     1
102
RTVSPost2010Prop50
 90
       50
102
RTVSPost2010PropOp50
 70
     1
102
RTVSPost2010Prop51ColorIndex
 90
      256
102
RTVSPost2010Prop51ColorRGB
 90
-16777216
102
RTVSPost2010PropOp51
 70
     0
102
RTVSPost2010Prop52
140
1.0
102
RTVSPost2010PropOp52
 70
     0
102
RTVSPost2010Prop53
 90
        2
102
RTVSPost2010PropOp53
 70
     1
102
RTVSPost2010Prop54
  1
strokes_ogs.tif
102
RTVSPost2010PropOp54
 70
     1
102
RTVSPost2010Prop55
280
     0
102
RTVSPost2010PropOp55
 70
     1
102
RTVSPost2010Prop56
140
1.0
102
RTVSPost2010PropOp56
 70
     1
102
RTVSPost2010Prop57
140
1.0
102
RTVSPost2010PropOp57
 70
     1
102
RTVSPropertyOp0
 70
     1
102
RTVSPropertyOp1
 70
     1
102
RTVSPropertyOp2
 70
     1
102
RTVSPropertyOp3
 70
     1
102
RTVSPropertyOp4
 70
     1
102
RTVSPropertyOp5
 70
     1
102
RTVSPropertyOp6
 70
     1
102
RTVSPropertyOp7
 70
     1
102
RTVSPropertyOp8
 70
     1
102
RTVSPropertyOp9
 70
     1
102
RTVSPropertyOp10
 70
     1
102
RTVSPropertyOp11
 70
     1
102
RTVSPropertyOp12
 70
     1
102
RTVSPropertyOp13
 70
     1
102
RTVSPropertyOp14
 70
     1
102
RTVSPropertyOp15
 70
     1
102
RTVSPropertyOp16
 70
     1
102
RTVSPropertyOp17
 70
     1
102
RTVSPropertyOp18
 70
     1
102
RTVSPropertyOp19
 70
     1
102
RTVSPropertyOp20
 70
     1
102
RTVSPropertyOp21
 70
     1
102
RTVSPropertyOp22
 70
     1
102
RTVSPropertyOp23
 70
     1
102
RTVSPropertyOp24
 70
     1
102
RTVSPropertyOp25
 70
     1
102
RTVSPropertyOp26
 70
     1
102
RTVSPropertyOp27
 70
     1
102
RTVSPropertyOp28
 70
     1
102
RTVSPropertyOp29
 70
     1
102
RTVSPropertyOp30
 70
     1
102
RTVSPropertyOp31
 70
     1
102
RTVSPropertyOp32
 70
     1
102
RTVSPropertyOp33
 70
     1
102
RTVSPropertyOp34
 70
     1
102
RTVSPropertyOp35
 70
     1
102
RTVSPropertyOp36
 70
     1
102
RTVSPropertyOp37
 70
     1
102
RTVSPropertyOp38
 70
     1
102
RTVSPropertyOp39
 70
     1
102
RTVSPropertyOp40
 70
     1
102
RTVSPropertyOp41
 70
     1
102
RTVSPropertyOp42
 70
     1
102
RTVSPropertyOp43
 70
     1
102
RTVSPropertyOp44
 70
     1
102
RTVSPropertyOp45
 70
     1
102
RTVSPropertyOp46
 70
     1
102
RTVSPropertyOp47
 70
     1
102
RTVSPropertyOp48
 70
     1
102
RTVSPropertyOp49
 70
     1
102
RTVSPropertyOp50
 70
     1
102
RTVSPropertyOp51
 70
     0
102
RTVSPropertyOp52
 70
     0
102
RTVSPropertyOp53
 70
     1
102
RTVSPropertyOp54
 70
     1
102
RTVSPropertyOp55
 70
     1
102
RTVSPropertyOp56
 70
     1
102
RTVSPropertyOp57
 70
     1
102
RTVSPropertyOp58
 70
     1
102
RTVSPropertyOp59
 70
     1
102
RTVSPropertyOp60
 70
     1
102
RTVSPropertyOp61
 70
     1
102
RTVSPropertyOp62
 70
     1
  0
XRECORD
  5
82F
102
{ACAD_REACTORS
330
82E
102
}
330
82E
100
AcDbXrecord
280
     1
102
RTVSPost2010Prop28
280
     0
102
RTVSPost2010PropOp28
 70
     1
102
RTVSPost2010Prop29
280
     1
102
RTVSPost2010PropOp29
 70
     1
102
RTVSPost2010Prop30
280
     1
102
RTVSPost2010PropOp30
 70
     1
102
RTVSPost2010Prop31
280
     0
102
RTVSPost2010PropOp31
 70
     1
102
RTVSPost2010Prop32
280
     0
102
RTVSPost2010PropOp32
 70
     1
102
RTVSPost2010Prop33
280
     0
102
RTVSPost2010PropOp33
 70
     1
102
RTVSPost2010Prop34
280
     0
102
RTVSPost2010PropOp34
 70
     1
102
RTVSPost2010Prop35
280
     0
102
RTVSPost2010PropOp35
 70
     1
102
RTVSPost2010Prop36
280
     0
102
RTVSPost2010PropOp36
 70
     1
102
RTVSPost2010Prop37
 90
       50
102
RTVSPost2010PropOp37
 70
     1
102
RTVSPost2010Prop38
140
0.0
102
RTVSPost2010PropOp38
 70
     1
102
RTVSPost2010Prop39
140
1.0
102
RTVSPost2010PropOp39
 70
     1
102
RTVSPost2010Prop40
 90
        0
102
RTVSPost2010PropOp40
 70
     1
102
RTVSPost2010Prop41ColorIndex
 90
       18
102
RTVSPost2010Prop41ColorRGB
 90
        0
102
RTVSPost2010PropOp41
 70
     1
102
RTVSPost2010Prop42
 90
       50
102
RTVSPost2010PropOp42
 70
     1
102
RTVSPost2010Prop43
 90
        3
102
RTVSPost2010PropOp43
 70
     1
102
RTVSPost2010Prop44ColorIndex
 90
        5
102
RTVSPost2010Prop44ColorRGB
 90
      255
102
RTVSPost2010PropOp44
 70
     1
102
RTVSPost2010Prop45
280
     0
102
RTVSPost2010PropOp45
 70
     1
102
RTVSPost2010Prop46
 90
       50
102
RTVSPost2010PropOp46
 70
     1
102
RTVSPost2010Prop47
 90
       50
102
RTVSPost2010PropOp47
 70
     1
102
RTVSPost2010Prop48
 90
       50
102
RTVSPost2010PropOp48
 70
     1
102
RTVSPost2010Prop49
280
     0
102
RTVSPost2010PropOp49
 70
     1
102
RTVSPost2010Prop50
 90
       50
102
RTVSPost2010PropOp50
 70
     1
102
RTVSPost2010Prop51ColorIndex
 90
      256
102
RTVSPost2010Prop51ColorRGB
 90
-16777216
102
RTVSPost2010PropOp51
 70
     0
102
RTVSPost2010Prop52
140
1.0
102
RTVSPost2010PropOp52
 70
     0
102
RTVSPost2010Prop53
 90
        2
102
RTVSPost2010PropOp53
 70
     1
102
RTVSPost2010Prop54
  1
strokes_ogs.tif
102
RTVSPost2010PropOp54
 70
     1
102
RTVSPost2010Prop55
280
     0
102
RTVSPost2010PropOp55
 70
     1
102
RTVSPost2010Prop56
140
1.0
102
RTVSPost2010PropOp56
 70
     1
102
RTVSPost2010Prop57
140
1.0
102
RTVSPost2010PropOp57
 70
     1
102
RTVSPropertyOp0
 70
     1
102
RTVSPropertyOp1
 70
     1
102
RTVSPropertyOp2
 70
     1
102
RTVSPropertyOp3
 70
     1
102
RTVSPropertyOp4
 70
     1
102
RTVSPropertyOp5
 70
     1
102
RTVSPropertyOp6
 70
     1
102
RTVSPropertyOp7
 70
     1
102
RTVSPropertyOp8
 70
     1
102
RTVSPropertyOp9
 70
     1
102
RTVSPropertyOp10
 70
     1
102
RTVSPropertyOp11
 70
     1
102
RTVSPropertyOp12
 70
     1
102
RTVSPropertyOp13
 70
     1
102
RTVSPropertyOp14
 70
     1
102
RTVSPropertyOp15
 70
     1
102
RTVSPropertyOp16
 70
     1
102
RTVSPropertyOp17
 70
     1
102
RTVSPropertyOp18
 70
     1
102
RTVSPropertyOp19
 70
     1
102
RTVSPropertyOp20
 70
     1
102
RTVSPropertyOp21
 70
     1
102
RTVSPropertyOp22
 70
     1
102
RTVSPropertyOp23
 70
     1
102
RTVSPropertyOp24
 70
     1
102
RTVSPropertyOp25
 70
     1
102
RTVSPropertyOp26
 70
     1
102
RTVSPropertyOp27
 70
     1
102
RTVSPropertyOp28
 70
     1
102
RTVSPropertyOp29
 70
     1
102
RTVSPropertyOp30
 70
     1
102
RTVSPropertyOp31
 70
     1
102
RTVSPropertyOp32
 70
     1
102
RTVSPropertyOp33
 70
     1
102
RTVSPropertyOp34
 70
     1
102
RTVSPropertyOp35
 70
     1
102
RTVSPropertyOp36
 70
     1
102
RTVSPropertyOp37
 70
     1
102
RTVSPropertyOp38
 70
     1
102
RTVSPropertyOp39
 70
     1
102
RTVSPropertyOp40
 70
     1
102
RTVSPropertyOp41
 70
     1
102
RTVSPropertyOp42
 70
     1
102
RTVSPropertyOp43
 70
     1
102
RTVSPropertyOp44
 70
     1
102
RTVSPropertyOp45
 70
     1
102
RTVSPropertyOp46
 70
     1
102
RTVSPropertyOp47
 70
     1
102
RTVSPropertyOp48
 70
     1
102
RTVSPropertyOp49
 70
     1
102
RTVSPropertyOp50
 70
     1
102
RTVSPropertyOp51
 70
     0
102
RTVSPropertyOp52
 70
     0
102
RTVSPropertyOp53
 70
     1
102
RTVSPropertyOp54
 70
     1
102
RTVSPropertyOp55
 70
     1
102
RTVSPropertyOp56
 70
     1
102
RTVSPropertyOp57
 70
     1
102
RTVSPropertyOp58
 70
     1
102
RTVSPropertyOp59
 70
     1
102
RTVSPropertyOp60
 70
     1
102
RTVSPropertyOp61
 70
     1
102
RTVSPropertyOp62
 70
     1
  0
XRECORD
  5
84B
102
{ACAD_REACTORS
330
84A
102
}
330
84A
100
AcDbXrecord
280
     1
102
RTVSPost2010Prop28
280
     0
102
RTVSPost2010PropOp28
 70
     1
102
RTVSPost2010Prop29
280
     1
102
RTVSPost2010PropOp29
 70
     1
102
RTVSPost2010Prop30
280
     1
102
RTVSPost2010PropOp30
 70
     1
102
RTVSPost2010Prop31
280
     0
102
RTVSPost2010PropOp31
 70
     1
102
RTVSPost2010Prop32
280
     0
102
RTVSPost2010PropOp32
 70
     1
102
RTVSPost2010Prop33
280
     0
102
RTVSPost2010PropOp33
 70
     1
102
RTVSPost2010Prop34
280
     0
102
RTVSPost2010PropOp34
 70
     1
102
RTVSPost2010Prop35
280
     0
102
RTVSPost2010PropOp35
 70
     1
102
RTVSPost2010Prop36
280
     0
102
RTVSPost2010PropOp36
 70
     1
102
RTVSPost2010Prop37
 90
       50
102
RTVSPost2010PropOp37
 70
     0
102
RTVSPost2010Prop38
140
0.0
102
RTVSPost2010PropOp38
 70
     0
102
RTVSPost2010Prop39
140
1.0
102
RTVSPost2010PropOp39
 70
     0
102
RTVSPost2010Prop40
 90
        0
102
RTVSPost2010PropOp40
 70
     0
102
RTVSPost2010Prop41ColorIndex
 90
       18
102
RTVSPost2010Prop41ColorRGB
 90
        0
102
RTVSPost2010PropOp41
 70
     0
102
RTVSPost2010Prop42
 90
       50
102
RTVSPost2010PropOp42
 70
     0
102
RTVSPost2010Prop43
 90
        3
102
RTVSPost2010PropOp43
 70
     0
102
RTVSPost2010Prop44ColorIndex
 90
        5
102
RTVSPost2010Prop44ColorRGB
 90
      255
102
RTVSPost2010PropOp44
 70
     0
102
RTVSPost2010Prop45
280
     0
102
RTVSPost2010PropOp45
 70
     1
102
RTVSPost2010Prop46
 90
       50
102
RTVSPost2010PropOp46
 70
     0
102
RTVSPost2010Prop47
 90
       50
102
RTVSPost2010PropOp47
 70
     0
102
RTVSPost2010Prop48
 90
       50
102
RTVSPost2010PropOp48
 70
     0
102
RTVSPost2010Prop49
280
     0
102
RTVSPost2010PropOp49
 70
     1
102
RTVSPost2010Prop50
 90
       50
102
RTVSPost2010PropOp50
 70
     0
102
RTVSPost2010Prop51ColorIndex
 90
      256
102
RTVSPost2010Prop51ColorRGB
 90
-16777216
102
RTVSPost2010PropOp51
 70
     0
102
RTVSPost2010Prop52
140
1.0
102
RTVSPost2010PropOp52
 70
     0
102
RTVSPost2010Prop53
 90
        2
102
RTVSPost2010PropOp53
 70
     0
102
RTVSPost2010Prop54
  1
strokes_ogs.tif
102
RTVSPost2010PropOp54
 70
     0
102
RTVSPost2010Prop55
280
     0
102
RTVSPost2010PropOp55
 70
     1
102
RTVSPost2010Prop56
140
1.0
102
RTVSPost2010PropOp56
 70
     0
102
RTVSPost2010Prop57
140
1.0
102
RTVSPost2010PropOp57
 70
     0
102
RTVSPropertyOp0
 70
     0
102
RTVSPropertyOp1
 70
     0
102
RTVSPropertyOp2
 70
     0
102
RTVSPropertyOp3
 70
     0
102
RTVSPropertyOp4
 70
     0
102
RTVSPropertyOp5
 70
     0
102
RTVSPropertyOp6
 70
     0
102
RTVSPropertyOp7
 70
     0
102
RTVSPropertyOp8
 70
     0
102
RTVSPropertyOp9
 70
     0
102
RTVSPropertyOp10
 70
     0
102
RTVSPropertyOp11
 70
     0
102
RTVSPropertyOp12
 70
     0
102
RTVSPropertyOp13
 70
     0
102
RTVSPropertyOp14
 70
     2
102
RTVSPropertyOp15
 70
     0
102
RTVSPropertyOp16
 70
     0
102
RTVSPropertyOp17
 70
     0
102
RTVSPropertyOp18
 70
     0
102
RTVSPropertyOp19
 70
     0
102
RTVSPropertyOp20
 70
     0
102
RTVSPropertyOp21
 70
     0
102
RTVSPropertyOp22
 70
     0
102
RTVSPropertyOp23
 70
     0
102
RTVSPropertyOp24
 70
     0
102
RTVSPropertyOp25
 70
     0
102
RTVSPropertyOp26
 70
     0
102
RTVSPropertyOp27
 70
     0
102
RTVSPropertyOp28
 70
     1
102
RTVSPropertyOp29
 70
     1
102
RTVSPropertyOp30
 70
     1
102
RTVSPropertyOp31
 70
     1
102
RTVSPropertyOp32
 70
     1
102
RTVSPropertyOp33
 70
     1
102
RTVSPropertyOp34
 70
     1
102
RTVSPropertyOp35
 70
     1
102
RTVSPropertyOp36
 70
     1
102
RTVSPropertyOp37
 70
     0
102
RTVSPropertyOp38
 70
     0
102
RTVSPropertyOp39
 70
     0
102
RTVSPropertyOp40
 70
     0
102
RTVSPropertyOp41
 70
     0
102
RTVSPropertyOp42
 70
     0
102
RTVSPropertyOp43
 70
     0
102
RTVSPropertyOp44
 70
     0
102
RTVSPropertyOp45
 70
     1
102
RTVSPropertyOp46
 70
     0
102
RTVSPropertyOp47
 70
     0
102
RTVSPropertyOp48
 70
     0
102
RTVSPropertyOp49
 70
     1
102
RTVSPropertyOp50
 70
     0
102
RTVSPropertyOp51
 70
     0
102
RTVSPropertyOp52
 70
     0
102
RTVSPropertyOp53
 70
     0
102
RTVSPropertyOp54
 70
     0
102
RTVSPropertyOp55
 70
     1
102
RTVSPropertyOp56
 70
     0
102
RTVSPropertyOp57
 70
     0
102
RTVSPropertyOp58
 70
     0
102
RTVSPropertyOp59
 70
     0
102
RTVSPropertyOp60
 70
     0
102
RTVSPropertyOp61
 70
     0
102
RTVSPropertyOp62
 70
     0
  0
XRECORD
  5
83B
102
{ACAD_REACTORS
330
83A
102
}
330
83A
100
AcDbXrecord
280
     1
102
RTVSPost2010Prop28
280
     0
102
RTVSPost2010PropOp28
 70
     1
102
RTVSPost2010Prop29
280
     1
102
RTVSPost2010PropOp29
 70
     1
102
RTVSPost2010Prop30
280
     1
102
RTVSPost2010PropOp30
 70
     1
102
RTVSPost2010Prop31
280
     0
102
RTVSPost2010PropOp31
 70
     1
102
RTVSPost2010Prop32
280
     0
102
RTVSPost2010PropOp32
 70
     1
102
RTVSPost2010Prop33
280
     0
102
RTVSPost2010PropOp33
 70
     1
102
RTVSPost2010Prop34
280
     0
102
RTVSPost2010PropOp34
 70
     1
102
RTVSPost2010Prop35
280
     0
102
RTVSPost2010PropOp35
 70
     1
102
RTVSPost2010Prop36
280
     0
102
RTVSPost2010PropOp36
 70
     1
102
RTVSPost2010Prop37
 90
       50
102
RTVSPost2010PropOp37
 70
     1
102
RTVSPost2010Prop38
140
0.0
102
RTVSPost2010PropOp38
 70
     1
102
RTVSPost2010Prop39
140
1.0
102
RTVSPost2010PropOp39
 70
     1
102
RTVSPost2010Prop40
 90
        0
102
RTVSPost2010PropOp40
 70
     1
102
RTVSPost2010Prop41ColorIndex
 90
       18
102
RTVSPost2010Prop41ColorRGB
 90
        0
102
RTVSPost2010PropOp41
 70
     1
102
RTVSPost2010Prop42
 90
       50
102
RTVSPost2010PropOp42
 70
     1
102
RTVSPost2010Prop43
 90
        3
102
RTVSPost2010PropOp43
 70
     1
102
RTVSPost2010Prop44ColorIndex
 90
        5
102
RTVSPost2010Prop44ColorRGB
 90
      255
102
RTVSPost2010PropOp44
 70
     1
102
RTVSPost2010Prop45
280
     0
102
RTVSPost2010PropOp45
 70
     1
102
RTVSPost2010Prop46
 90
       50
102
RTVSPost2010PropOp46
 70
     1
102
RTVSPost2010Prop47
 90
       50
102
RTVSPost2010PropOp47
 70
     1
102
RTVSPost2010Prop48
 90
       50
102
RTVSPost2010PropOp48
 70
     1
102
RTVSPost2010Prop49
280
     0
102
RTVSPost2010PropOp49
 70
     1
102
RTVSPost2010Prop50
 90
       50
102
RTVSPost2010PropOp50
 70
     1
102
RTVSPost2010Prop51ColorIndex
 90
      256
102
RTVSPost2010Prop51ColorRGB
 90
-16777216
102
RTVSPost2010PropOp51
 70
     0
102
RTVSPost2010Prop52
140
1.0
102
RTVSPost2010PropOp52
 70
     0
102
RTVSPost2010Prop53
 90
        2
102
RTVSPost2010PropOp53
 70
     1
102
RTVSPost2010Prop54
  1
strokes_ogs.tif
102
RTVSPost2010PropOp54
 70
     1
102
RTVSPost2010Prop55
280
     0
102
RTVSPost2010PropOp55
 70
     1
102
RTVSPost2010Prop56
140
1.0
102
RTVSPost2010PropOp56
 70
     1
102
RTVSPost2010Prop57
140
1.0
102
RTVSPost2010PropOp57
 70
     1
102
RTVSPropertyOp0
 70
     1
102
RTVSPropertyOp1
 70
     1
102
RTVSPropertyOp2
 70
     1
102
RTVSPropertyOp3
 70
     1
102
RTVSPropertyOp4
 70
     1
102
RTVSPropertyOp5
 70
     1
102
RTVSPropertyOp6
 70
     1
102
RTVSPropertyOp7
 70
     1
102
RTVSPropertyOp8
 70
     1
102
RTVSPropertyOp9
 70
     1
102
RTVSPropertyOp10
 70
     1
102
RTVSPropertyOp11
 70
     1
102
RTVSPropertyOp12
 70
     1
102
RTVSPropertyOp13
 70
     1
102
RTVSPropertyOp14
 70
     1
102
RTVSPropertyOp15
 70
     1
102
RTVSPropertyOp16
 70
     1
102
RTVSPropertyOp17
 70
     1
102
RTVSPropertyOp18
 70
     1
102
RTVSPropertyOp19
 70
     1
102
RTVSPropertyOp20
 70
     1
102
RTVSPropertyOp21
 70
     1
102
RTVSPropertyOp22
 70
     1
102
RTVSPropertyOp23
 70
     1
102
RTVSPropertyOp24
 70
     1
102
RTVSPropertyOp25
 70
     1
102
RTVSPropertyOp26
 70
     1
102
RTVSPropertyOp27
 70
     1
102
RTVSPropertyOp28
 70
     1
102
RTVSPropertyOp29
 70
     1
102
RTVSPropertyOp30
 70
     1
102
RTVSPropertyOp31
 70
     1
102
RTVSPropertyOp32
 70
     1
102
RTVSPropertyOp33
 70
     1
102
RTVSPropertyOp34
 70
     1
102
RTVSPropertyOp35
 70
     1
102
RTVSPropertyOp36
 70
     1
102
RTVSPropertyOp37
 70
     1
102
RTVSPropertyOp38
 70
     1
102
RTVSPropertyOp39
 70
     1
102
RTVSPropertyOp40
 70
     1
102
RTVSPropertyOp41
 70
     1
102
RTVSPropertyOp42
 70
     1
102
RTVSPropertyOp43
 70
     1
102
RTVSPropertyOp44
 70
     1
102
RTVSPropertyOp45
 70
     1
102
RTVSPropertyOp46
 70
     1
102
RTVSPropertyOp47
 70
     1
102
RTVSPropertyOp48
 70
     1
102
RTVSPropertyOp49
 70
     1
102
RTVSPropertyOp50
 70
     1
102
RTVSPropertyOp51
 70
     0
102
RTVSPropertyOp52
 70
     0
102
RTVSPropertyOp53
 70
     1
102
RTVSPropertyOp54
 70
     1
102
RTVSPropertyOp55
 70
     1
102
RTVSPropertyOp56
 70
     1
102
RTVSPropertyOp57
 70
     1
102
RTVSPropertyOp58
 70
     1
102
RTVSPropertyOp59
 70
     1
102
RTVSPropertyOp60
 70
     1
102
RTVSPropertyOp61
 70
     1
102
RTVSPropertyOp62
 70
     1
  0
XRECORD
  5
84D
102
{ACAD_REACTORS
330
84C
102
}
330
84C
100
AcDbXrecord
280
     1
102
RTVSPost2010Prop28
280
     0
102
RTVSPost2010PropOp28
 70
     1
102
RTVSPost2010Prop29
280
     1
102
RTVSPost2010PropOp29
 70
     1
102
RTVSPost2010Prop30
280
     1
102
RTVSPost2010PropOp30
 70
     1
102
RTVSPost2010Prop31
280
     0
102
RTVSPost2010PropOp31
 70
     1
102
RTVSPost2010Prop32
280
     0
102
RTVSPost2010PropOp32
 70
     1
102
RTVSPost2010Prop33
280
     0
102
RTVSPost2010PropOp33
 70
     1
102
RTVSPost2010Prop34
280
     0
102
RTVSPost2010PropOp34
 70
     1
102
RTVSPost2010Prop35
280
     0
102
RTVSPost2010PropOp35
 70
     1
102
RTVSPost2010Prop36
280
     0
102
RTVSPost2010PropOp36
 70
     1
102
RTVSPost2010Prop37
 90
       50
102
RTVSPost2010PropOp37
 70
     0
102
RTVSPost2010Prop38
140
0.0
102
RTVSPost2010PropOp38
 70
     0
102
RTVSPost2010Prop39
140
1.0
102
RTVSPost2010PropOp39
 70
     0
102
RTVSPost2010Prop40
 90
        0
102
RTVSPost2010PropOp40
 70
     0
102
RTVSPost2010Prop41ColorIndex
 90
       18
102
RTVSPost2010Prop41ColorRGB
 90
        0
102
RTVSPost2010PropOp41
 70
     0
102
RTVSPost2010Prop42
 90
       50
102
RTVSPost2010PropOp42
 70
     0
102
RTVSPost2010Prop43
 90
        3
102
RTVSPost2010PropOp43
 70
     0
102
RTVSPost2010Prop44ColorIndex
 90
        5
102
RTVSPost2010Prop44ColorRGB
 90
      255
102
RTVSPost2010PropOp44
 70
     0
102
RTVSPost2010Prop45
280
     0
102
RTVSPost2010PropOp45
 70
     1
102
RTVSPost2010Prop46
 90
       50
102
RTVSPost2010PropOp46
 70
     0
102
RTVSPost2010Prop47
 90
       50
102
RTVSPost2010PropOp47
 70
     0
102
RTVSPost2010Prop48
 90
       50
102
RTVSPost2010PropOp48
 70
     0
102
RTVSPost2010Prop49
280
     0
102
RTVSPost2010PropOp49
 70
     1
102
RTVSPost2010Prop50
 90
       50
102
RTVSPost2010PropOp50
 70
     0
102
RTVSPost2010Prop51ColorIndex
 90
      256
102
RTVSPost2010Prop51ColorRGB
 90
-16777216
102
RTVSPost2010PropOp51
 70
     0
102
RTVSPost2010Prop52
140
1.0
102
RTVSPost2010PropOp52
 70
     0
102
RTVSPost2010Prop53
 90
        2
102
RTVSPost2010PropOp53
 70
     0
102
RTVSPost2010Prop54
  1
strokes_ogs.tif
102
RTVSPost2010PropOp54
 70
     0
102
RTVSPost2010Prop55
280
     0
102
RTVSPost2010PropOp55
 70
     1
102
RTVSPost2010Prop56
140
1.0
102
RTVSPost2010PropOp56
 70
     0
102
RTVSPost2010Prop57
140
1.0
102
RTVSPost2010PropOp57
 70
     0
102
RTVSPropertyOp0
 70
     0
102
RTVSPropertyOp1
 70
     0
102
RTVSPropertyOp2
 70
     0
102
RTVSPropertyOp3
 70
     0
102
RTVSPropertyOp4
 70
     0
102
RTVSPropertyOp5
 70
     0
102
RTVSPropertyOp6
 70
     0
102
RTVSPropertyOp7
 70
     0
102
RTVSPropertyOp8
 70
     0
102
RTVSPropertyOp9
 70
     0
102
RTVSPropertyOp10
 70
     0
102
RTVSPropertyOp11
 70
     0
102
RTVSPropertyOp12
 70
     0
102
RTVSPropertyOp13
 70
     0
102
RTVSPropertyOp14
 70
     2
102
RTVSPropertyOp15
 70
     0
102
RTVSPropertyOp16
 70
     0
102
RTVSPropertyOp17
 70
     0
102
RTVSPropertyOp18
 70
     0
102
RTVSPropertyOp19
 70
     0
102
RTVSPropertyOp20
 70
     0
102
RTVSPropertyOp21
 70
     0
102
RTVSPropertyOp22
 70
     0
102
RTVSPropertyOp23
 70
     0
102
RTVSPropertyOp24
 70
     0
102
RTVSPropertyOp25
 70
     0
102
RTVSPropertyOp26
 70
     0
102
RTVSPropertyOp27
 70
     0
102
RTVSPropertyOp28
 70
     1
102
RTVSPropertyOp29
 70
     1
102
RTVSPropertyOp30
 70
     1
102
RTVSPropertyOp31
 70
     1
102
RTVSPropertyOp32
 70
     1
102
RTVSPropertyOp33
 70
     1
102
RTVSPropertyOp34
 70
     1
102
RTVSPropertyOp35
 70
     1
102
RTVSPropertyOp36
 70
     1
102
RTVSPropertyOp37
 70
     0
102
RTVSPropertyOp38
 70
     0
102
RTVSPropertyOp39
 70
     0
102
RTVSPropertyOp40
 70
     0
102
RTVSPropertyOp41
 70
     0
102
RTVSPropertyOp42
 70
     0
102
RTVSPropertyOp43
 70
     0
102
RTVSPropertyOp44
 70
     0
102
RTVSPropertyOp45
 70
     1
102
RTVSPropertyOp46
 70
     0
102
RTVSPropertyOp47
 70
     0
102
RTVSPropertyOp48
 70
     0
102
RTVSPropertyOp49
 70
     1
102
RTVSPropertyOp50
 70
     0
102
RTVSPropertyOp51
 70
     0
102
RTVSPropertyOp52
 70
     0
102
RTVSPropertyOp53
 70
     0
102
RTVSPropertyOp54
 70
     0
102
RTVSPropertyOp55
 70
     1
102
RTVSPropertyOp56
 70
     0
102
RTVSPropertyOp57
 70
     0
102
RTVSPropertyOp58
 70
     0
102
RTVSPropertyOp59
 70
     0
102
RTVSPropertyOp60
 70
     0
102
RTVSPropertyOp61
 70
     0
102
RTVSPropertyOp62
 70
     0
  0
XRECORD
  5
833
102
{ACAD_REACTORS
330
832
102
}
330
832
100
AcDbXrecord
280
     1
102
RTVSPost2010Prop28
280
     0
102
RTVSPost2010PropOp28
 70
     1
102
RTVSPost2010Prop29
280
     1
102
RTVSPost2010PropOp29
 70
     1
102
RTVSPost2010Prop30
280
     1
102
RTVSPost2010PropOp30
 70
     1
102
RTVSPost2010Prop31
280
     0
102
RTVSPost2010PropOp31
 70
     1
102
RTVSPost2010Prop32
280
     0
102
RTVSPost2010PropOp32
 70
     1
102
RTVSPost2010Prop33
280
     0
102
RTVSPost2010PropOp33
 70
     1
102
RTVSPost2010Prop34
280
     0
102
RTVSPost2010PropOp34
 70
     1
102
RTVSPost2010Prop35
280
     0
102
RTVSPost2010PropOp35
 70
     1
102
RTVSPost2010Prop36
280
     0
102
RTVSPost2010PropOp36
 70
     1
102
RTVSPost2010Prop37
 90
       50
102
RTVSPost2010PropOp37
 70
     1
102
RTVSPost2010Prop38
140
0.0
102
RTVSPost2010PropOp38
 70
     1
102
RTVSPost2010Prop39
140
1.0
102
RTVSPost2010PropOp39
 70
     1
102
RTVSPost2010Prop40
 90
        0
102
RTVSPost2010PropOp40
 70
     1
102
RTVSPost2010Prop41ColorIndex
 90
       18
102
RTVSPost2010Prop41ColorRGB
 90
        0
102
RTVSPost2010PropOp41
 70
     1
102
RTVSPost2010Prop42
 90
       50
102
RTVSPost2010PropOp42
 70
     1
102
RTVSPost2010Prop43
 90
        3
102
RTVSPost2010PropOp43
 70
     1
102
RTVSPost2010Prop44ColorIndex
 90
        5
102
RTVSPost2010Prop44ColorRGB
 90
      255
102
RTVSPost2010PropOp44
 70
     1
102
RTVSPost2010Prop45
280
     0
102
RTVSPost2010PropOp45
 70
     1
102
RTVSPost2010Prop46
 90
       50
102
RTVSPost2010PropOp46
 70
     1
102
RTVSPost2010Prop47
 90
       50
102
RTVSPost2010PropOp47
 70
     1
102
RTVSPost2010Prop48
 90
       50
102
RTVSPost2010PropOp48
 70
     1
102
RTVSPost2010Prop49
280
     0
102
RTVSPost2010PropOp49
 70
     1
102
RTVSPost2010Prop50
 90
       50
102
RTVSPost2010PropOp50
 70
     1
102
RTVSPost2010Prop51ColorIndex
 90
      256
102
RTVSPost2010Prop51ColorRGB
 90
-16777216
102
RTVSPost2010PropOp51
 70
     0
102
RTVSPost2010Prop52
140
1.0
102
RTVSPost2010PropOp52
 70
     0
102
RTVSPost2010Prop53
 90
        2
102
RTVSPost2010PropOp53
 70
     1
102
RTVSPost2010Prop54
  1
strokes_ogs.tif
102
RTVSPost2010PropOp54
 70
     1
102
RTVSPost2010Prop55
280
     0
102
RTVSPost2010PropOp55
 70
     1
102
RTVSPost2010Prop56
140
1.0
102
RTVSPost2010PropOp56
 70
     1
102
RTVSPost2010Prop57
140
1.0
102
RTVSPost2010PropOp57
 70
     1
102
RTVSPropertyOp0
 70
     1
102
RTVSPropertyOp1
 70
     1
102
RTVSPropertyOp2
 70
     1
102
RTVSPropertyOp3
 70
     1
102
RTVSPropertyOp4
 70
     1
102
RTVSPropertyOp5
 70
     1
102
RTVSPropertyOp6
 70
     1
102
RTVSPropertyOp7
 70
     1
102
RTVSPropertyOp8
 70
     1
102
RTVSPropertyOp9
 70
     1
102
RTVSPropertyOp10
 70
     1
102
RTVSPropertyOp11
 70
     1
102
RTVSPropertyOp12
 70
     1
102
RTVSPropertyOp13
 70
     1
102
RTVSPropertyOp14
 70
     1
102
RTVSPropertyOp15
 70
     1
102
RTVSPropertyOp16
 70
     1
102
RTVSPropertyOp17
 70
     1
102
RTVSPropertyOp18
 70
     1
102
RTVSPropertyOp19
 70
     1
102
RTVSPropertyOp20
 70
     1
102
RTVSPropertyOp21
 70
     1
102
RTVSPropertyOp22
 70
     1
102
RTVSPropertyOp23
 70
     1
102
RTVSPropertyOp24
 70
     1
102
RTVSPropertyOp25
 70
     1
102
RTVSPropertyOp26
 70
     1
102
RTVSPropertyOp27
 70
     1
102
RTVSPropertyOp28
 70
     1
102
RTVSPropertyOp29
 70
     1
102
RTVSPropertyOp30
 70
     1
102
RTVSPropertyOp31
 70
     1
102
RTVSPropertyOp32
 70
     1
102
RTVSPropertyOp33
 70
     1
102
RTVSPropertyOp34
 70
     1
102
RTVSPropertyOp35
 70
     1
102
RTVSPropertyOp36
 70
     1
102
RTVSPropertyOp37
 70
     1
102
RTVSPropertyOp38
 70
     1
102
RTVSPropertyOp39
 70
     1
102
RTVSPropertyOp40
 70
     1
102
RTVSPropertyOp41
 70
     1
102
RTVSPropertyOp42
 70
     1
102
RTVSPropertyOp43
 70
     1
102
RTVSPropertyOp44
 70
     1
102
RTVSPropertyOp45
 70
     1
102
RTVSPropertyOp46
 70
     1
102
RTVSPropertyOp47
 70
     1
102
RTVSPropertyOp48
 70
     1
102
RTVSPropertyOp49
 70
     1
102
RTVSPropertyOp50
 70
     1
102
RTVSPropertyOp51
 70
     0
102
RTVSPropertyOp52
 70
     0
102
RTVSPropertyOp53
 70
     1
102
RTVSPropertyOp54
 70
     1
102
RTVSPropertyOp55
 70
     1
102
RTVSPropertyOp56
 70
     1
102
RTVSPropertyOp57
 70
     1
102
RTVSPropertyOp58
 70
     1
102
RTVSPropertyOp59
 70
     1
102
RTVSPropertyOp60
 70
     1
102
RTVSPropertyOp61
 70
     1
102
RTVSPropertyOp62
 70
     1
  0
XRECORD
  5
849
102
{ACAD_REACTORS
330
848
102
}
330
848
100
AcDbXrecord
280
     1
102
RTVSPost2010Prop28
280
     0
102
RTVSPost2010PropOp28
 70
     1
102
RTVSPost2010Prop29
280
     1
102
RTVSPost2010PropOp29
 70
     1
102
RTVSPost2010Prop30
280
     1
102
RTVSPost2010PropOp30
 70
     1
102
RTVSPost2010Prop31
280
     0
102
RTVSPost2010PropOp31
 70
     1
102
RTVSPost2010Prop32
280
     0
102
RTVSPost2010PropOp32
 70
     1
102
RTVSPost2010Prop33
280
     0
102
RTVSPost2010PropOp33
 70
     1
102
RTVSPost2010Prop34
280
     0
102
RTVSPost2010PropOp34
 70
     1
102
RTVSPost2010Prop35
280
     0
102
RTVSPost2010PropOp35
 70
     1
102
RTVSPost2010Prop36
280
     0
102
RTVSPost2010PropOp36
 70
     1
102
RTVSPost2010Prop37
 90
       50
102
RTVSPost2010PropOp37
 70
     1
102
RTVSPost2010Prop38
140
0.0
102
RTVSPost2010PropOp38
 70
     1
102
RTVSPost2010Prop39
140
1.0
102
RTVSPost2010PropOp39
 70
     1
102
RTVSPost2010Prop40
 90
        0
102
RTVSPost2010PropOp40
 70
     1
102
RTVSPost2010Prop41ColorIndex
 90
       18
102
RTVSPost2010Prop41ColorRGB
 90
        0
102
RTVSPost2010PropOp41
 70
     1
102
RTVSPost2010Prop42
 90
       50
102
RTVSPost2010PropOp42
 70
     1
102
RTVSPost2010Prop43
 90
        3
102
RTVSPost2010PropOp43
 70
     1
102
RTVSPost2010Prop44ColorIndex
 90
        5
102
RTVSPost2010Prop44ColorRGB
 90
      255
102
RTVSPost2010PropOp44
 70
     1
102
RTVSPost2010Prop45
280
     0
102
RTVSPost2010PropOp45
 70
     1
102
RTVSPost2010Prop46
 90
       50
102
RTVSPost2010PropOp46
 70
     1
102
RTVSPost2010Prop47
 90
       50
102
RTVSPost2010PropOp47
 70
     1
102
RTVSPost2010Prop48
 90
       50
102
RTVSPost2010PropOp48
 70
     1
102
RTVSPost2010Prop49
280
     0
102
RTVSPost2010PropOp49
 70
     1
102
RTVSPost2010Prop50
 90
       50
102
RTVSPost2010PropOp50
 70
     1
102
RTVSPost2010Prop51ColorIndex
 90
      256
102
RTVSPost2010Prop51ColorRGB
 90
-16777216
102
RTVSPost2010PropOp51
 70
     0
102
RTVSPost2010Prop52
140
1.0
102
RTVSPost2010PropOp52
 70
     0
102
RTVSPost2010Prop53
 90
        2
102
RTVSPost2010PropOp53
 70
     1
102
RTVSPost2010Prop54
  1
strokes_ogs.tif
102
RTVSPost2010PropOp54
 70
     1
102
RTVSPost2010Prop55
280
     0
102
RTVSPost2010PropOp55
 70
     1
102
RTVSPost2010Prop56
140
1.0
102
RTVSPost2010PropOp56
 70
     1
102
RTVSPost2010Prop57
140
1.0
102
RTVSPost2010PropOp57
 70
     1
102
RTVSPropertyOp0
 70
     1
102
RTVSPropertyOp1
 70
     1
102
RTVSPropertyOp2
 70
     1
102
RTVSPropertyOp3
 70
     1
102
RTVSPropertyOp4
 70
     1
102
RTVSPropertyOp5
 70
     1
102
RTVSPropertyOp6
 70
     1
102
RTVSPropertyOp7
 70
     1
102
RTVSPropertyOp8
 70
     1
102
RTVSPropertyOp9
 70
     1
102
RTVSPropertyOp10
 70
     1
102
RTVSPropertyOp11
 70
     1
102
RTVSPropertyOp12
 70
     1
102
RTVSPropertyOp13
 70
     1
102
RTVSPropertyOp14
 70
     1
102
RTVSPropertyOp15
 70
     1
102
RTVSPropertyOp16
 70
     1
102
RTVSPropertyOp17
 70
     1
102
RTVSPropertyOp18
 70
     1
102
RTVSPropertyOp19
 70
     1
102
RTVSPropertyOp20
 70
     1
102
RTVSPropertyOp21
 70
     1
102
RTVSPropertyOp22
 70
     1
102
RTVSPropertyOp23
 70
     1
102
RTVSPropertyOp24
 70
     1
102
RTVSPropertyOp25
 70
     1
102
RTVSPropertyOp26
 70
     1
102
RTVSPropertyOp27
 70
     1
102
RTVSPropertyOp28
 70
     1
102
RTVSPropertyOp29
 70
     1
102
RTVSPropertyOp30
 70
     1
102
RTVSPropertyOp31
 70
     1
102
RTVSPropertyOp32
 70
     1
102
RTVSPropertyOp33
 70
     1
102
RTVSPropertyOp34
 70
     1
102
RTVSPropertyOp35
 70
     1
102
RTVSPropertyOp36
 70
     1
102
RTVSPropertyOp37
 70
     1
102
RTVSPropertyOp38
 70
     1
102
RTVSPropertyOp39
 70
     1
102
RTVSPropertyOp40
 70
     1
102
RTVSPropertyOp41
 70
     1
102
RTVSPropertyOp42
 70
     1
102
RTVSPropertyOp43
 70
     1
102
RTVSPropertyOp44
 70
     1
102
RTVSPropertyOp45
 70
     1
102
RTVSPropertyOp46
 70
     1
102
RTVSPropertyOp47
 70
     1
102
RTVSPropertyOp48
 70
     1
102
RTVSPropertyOp49
 70
     1
102
RTVSPropertyOp50
 70
     1
102
RTVSPropertyOp51
 70
     0
102
RTVSPropertyOp52
 70
     0
102
RTVSPropertyOp53
 70
     1
102
RTVSPropertyOp54
 70
     1
102
RTVSPropertyOp55
 70
     1
102
RTVSPropertyOp56
 70
     1
102
RTVSPropertyOp57
 70
     1
102
RTVSPropertyOp58
 70
     1
102
RTVSPropertyOp59
 70
     1
102
RTVSPropertyOp60
 70
     1
102
RTVSPropertyOp61
 70
     1
102
RTVSPropertyOp62
 70
     1
  0
XRECORD
  5
847
102
{ACAD_REACTORS
330
846
102
}
330
846
100
AcDbXrecord
280
     1
102
RTVSPost2010Prop28
280
     0
102
RTVSPost2010PropOp28
 70
     1
102
RTVSPost2010Prop29
280
     1
102
RTVSPost2010PropOp29
 70
     1
102
RTVSPost2010Prop30
280
     1
102
RTVSPost2010PropOp30
 70
     1
102
RTVSPost2010Prop31
280
     0
102
RTVSPost2010PropOp31
 70
     1
102
RTVSPost2010Prop32
280
     0
102
RTVSPost2010PropOp32
 70
     1
102
RTVSPost2010Prop33
280
     0
102
RTVSPost2010PropOp33
 70
     1
102
RTVSPost2010Prop34
280
     0
102
RTVSPost2010PropOp34
 70
     1
102
RTVSPost2010Prop35
280
     0
102
RTVSPost2010PropOp35
 70
     1
102
RTVSPost2010Prop36
280
     0
102
RTVSPost2010PropOp36
 70
     1
102
RTVSPost2010Prop37
 90
       50
102
RTVSPost2010PropOp37
 70
     1
102
RTVSPost2010Prop38
140
0.0
102
RTVSPost2010PropOp38
 70
     1
102
RTVSPost2010Prop39
140
1.0
102
RTVSPost2010PropOp39
 70
     1
102
RTVSPost2010Prop40
 90
        0
102
RTVSPost2010PropOp40
 70
     1
102
RTVSPost2010Prop41ColorIndex
 90
       18
102
RTVSPost2010Prop41ColorRGB
 90
        0
102
RTVSPost2010PropOp41
 70
     1
102
RTVSPost2010Prop42
 90
       50
102
RTVSPost2010PropOp42
 70
     1
102
RTVSPost2010Prop43
 90
        3
102
RTVSPost2010PropOp43
 70
     1
102
RTVSPost2010Prop44ColorIndex
 90
        5
102
RTVSPost2010Prop44ColorRGB
 90
      255
102
RTVSPost2010PropOp44
 70
     1
102
RTVSPost2010Prop45
280
     0
102
RTVSPost2010PropOp45
 70
     1
102
RTVSPost2010Prop46
 90
       50
102
RTVSPost2010PropOp46
 70
     1
102
RTVSPost2010Prop47
 90
       50
102
RTVSPost2010PropOp47
 70
     1
102
RTVSPost2010Prop48
 90
       50
102
RTVSPost2010PropOp48
 70
     1
102
RTVSPost2010Prop49
280
     0
102
RTVSPost2010PropOp49
 70
     1
102
RTVSPost2010Prop50
 90
       50
102
RTVSPost2010PropOp50
 70
     1
102
RTVSPost2010Prop51ColorIndex
 90
      256
102
RTVSPost2010Prop51ColorRGB
 90
-16777216
102
RTVSPost2010PropOp51
 70
     0
102
RTVSPost2010Prop52
140
1.0
102
RTVSPost2010PropOp52
 70
     0
102
RTVSPost2010Prop53
 90
        2
102
RTVSPost2010PropOp53
 70
     1
102
RTVSPost2010Prop54
  1
strokes_ogs.tif
102
RTVSPost2010PropOp54
 70
     1
102
RTVSPost2010Prop55
280
     0
102
RTVSPost2010PropOp55
 70
     1
102
RTVSPost2010Prop56
140
1.0
102
RTVSPost2010PropOp56
 70
     1
102
RTVSPost2010Prop57
140
1.0
102
RTVSPost2010PropOp57
 70
     1
102
RTVSPropertyOp0
 70
     1
102
RTVSPropertyOp1
 70
     1
102
RTVSPropertyOp2
 70
     1
102
RTVSPropertyOp3
 70
     1
102
RTVSPropertyOp4
 70
     1
102
RTVSPropertyOp5
 70
     1
102
RTVSPropertyOp6
 70
     1
102
RTVSPropertyOp7
 70
     1
102
RTVSPropertyOp8
 70
     1
102
RTVSPropertyOp9
 70
     1
102
RTVSPropertyOp10
 70
     1
102
RTVSPropertyOp11
 70
     1
102
RTVSPropertyOp12
 70
     1
102
RTVSPropertyOp13
 70
     1
102
RTVSPropertyOp14
 70
     1
102
RTVSPropertyOp15
 70
     1
102
RTVSPropertyOp16
 70
     1
102
RTVSPropertyOp17
 70
     1
102
RTVSPropertyOp18
 70
     1
102
RTVSPropertyOp19
 70
     1
102
RTVSPropertyOp20
 70
     1
102
RTVSPropertyOp21
 70
     1
102
RTVSPropertyOp22
 70
     1
102
RTVSPropertyOp23
 70
     1
102
RTVSPropertyOp24
 70
     1
102
RTVSPropertyOp25
 70
     1
102
RTVSPropertyOp26
 70
     1
102
RTVSPropertyOp27
 70
     1
102
RTVSPropertyOp28
 70
     1
102
RTVSPropertyOp29
 70
     1
102
RTVSPropertyOp30
 70
     1
102
RTVSPropertyOp31
 70
     1
102
RTVSPropertyOp32
 70
     1
102
RTVSPropertyOp33
 70
     1
102
RTVSPropertyOp34
 70
     1
102
RTVSPropertyOp35
 70
     1
102
RTVSPropertyOp36
 70
     1
102
RTVSPropertyOp37
 70
     1
102
RTVSPropertyOp38
 70
     1
102
RTVSPropertyOp39
 70
     1
102
RTVSPropertyOp40
 70
     1
102
RTVSPropertyOp41
 70
     1
102
RTVSPropertyOp42
 70
     1
102
RTVSPropertyOp43
 70
     1
102
RTVSPropertyOp44
 70
     1
102
RTVSPropertyOp45
 70
     1
102
RTVSPropertyOp46
 70
     1
102
RTVSPropertyOp47
 70
     1
102
RTVSPropertyOp48
 70
     1
102
RTVSPropertyOp49
 70
     1
102
RTVSPropertyOp50
 70
     1
102
RTVSPropertyOp51
 70
     0
102
RTVSPropertyOp52
 70
     0
102
RTVSPropertyOp53
 70
     1
102
RTVSPropertyOp54
 70
     1
102
RTVSPropertyOp55
 70
     1
102
RTVSPropertyOp56
 70
     1
102
RTVSPropertyOp57
 70
     1
102
RTVSPropertyOp58
 70
     1
102
RTVSPropertyOp59
 70
     1
102
RTVSPropertyOp60
 70
     1
102
RTVSPropertyOp61
 70
     1
102
RTVSPropertyOp62
 70
     1
  0
XRECORD
  5
841
102
{ACAD_REACTORS
330
840
102
}
330
840
100
AcDbXrecord
280
     1
102
RTVSPost2010Prop28
280
     0
102
RTVSPost2010PropOp28
 70
     1
102
RTVSPost2010Prop29
280
     1
102
RTVSPost2010PropOp29
 70
     1
102
RTVSPost2010Prop30
280
     1
102
RTVSPost2010PropOp30
 70
     1
102
RTVSPost2010Prop31
280
     0
102
RTVSPost2010PropOp31
 70
     1
102
RTVSPost2010Prop32
280
     0
102
RTVSPost2010PropOp32
 70
     1
102
RTVSPost2010Prop33
280
     0
102
RTVSPost2010PropOp33
 70
     1
102
RTVSPost2010Prop34
280
     0
102
RTVSPost2010PropOp34
 70
     1
102
RTVSPost2010Prop35
280
     0
102
RTVSPost2010PropOp35
 70
     1
102
RTVSPost2010Prop36
280
     0
102
RTVSPost2010PropOp36
 70
     1
102
RTVSPost2010Prop37
 90
       50
102
RTVSPost2010PropOp37
 70
     1
102
RTVSPost2010Prop38
140
0.0
102
RTVSPost2010PropOp38
 70
     1
102
RTVSPost2010Prop39
140
1.0
102
RTVSPost2010PropOp39
 70
     1
102
RTVSPost2010Prop40
 90
        0
102
RTVSPost2010PropOp40
 70
     1
102
RTVSPost2010Prop41ColorIndex
 90
       18
102
RTVSPost2010Prop41ColorRGB
 90
        0
102
RTVSPost2010PropOp41
 70
     1
102
RTVSPost2010Prop42
 90
       50
102
RTVSPost2010PropOp42
 70
     1
102
RTVSPost2010Prop43
 90
        3
102
RTVSPost2010PropOp43
 70
     1
102
RTVSPost2010Prop44ColorIndex
 90
        5
102
RTVSPost2010Prop44ColorRGB
 90
      255
102
RTVSPost2010PropOp44
 70
     1
102
RTVSPost2010Prop45
280
     0
102
RTVSPost2010PropOp45
 70
     1
102
RTVSPost2010Prop46
 90
       50
102
RTVSPost2010PropOp46
 70
     1
102
RTVSPost2010Prop47
 90
       50
102
RTVSPost2010PropOp47
 70
     1
102
RTVSPost2010Prop48
 90
       50
102
RTVSPost2010PropOp48
 70
     1
102
RTVSPost2010Prop49
280
     0
102
RTVSPost2010PropOp49
 70
     1
102
RTVSPost2010Prop50
 90
       50
102
RTVSPost2010PropOp50
 70
     1
102
RTVSPost2010Prop51ColorIndex
 90
      256
102
RTVSPost2010Prop51ColorRGB
 90
-16777216
102
RTVSPost2010PropOp51
 70
     0
102
RTVSPost2010Prop52
140
1.0
102
RTVSPost2010PropOp52
 70
     0
102
RTVSPost2010Prop53
 90
        2
102
RTVSPost2010PropOp53
 70
     1
102
RTVSPost2010Prop54
  1
strokes_ogs.tif
102
RTVSPost2010PropOp54
 70
     1
102
RTVSPost2010Prop55
280
     0
102
RTVSPost2010PropOp55
 70
     1
102
RTVSPost2010Prop56
140
1.0
102
RTVSPost2010PropOp56
 70
     1
102
RTVSPost2010Prop57
140
1.0
102
RTVSPost2010PropOp57
 70
     1
102
RTVSPropertyOp0
 70
     1
102
RTVSPropertyOp1
 70
     1
102
RTVSPropertyOp2
 70
     1
102
RTVSPropertyOp3
 70
     1
102
RTVSPropertyOp4
 70
     1
102
RTVSPropertyOp5
 70
     1
102
RTVSPropertyOp6
 70
     1
102
RTVSPropertyOp7
 70
     1
102
RTVSPropertyOp8
 70
     1
102
RTVSPropertyOp9
 70
     1
102
RTVSPropertyOp10
 70
     1
102
RTVSPropertyOp11
 70
     1
102
RTVSPropertyOp12
 70
     1
102
RTVSPropertyOp13
 70
     1
102
RTVSPropertyOp14
 70
     1
102
RTVSPropertyOp15
 70
     1
102
RTVSPropertyOp16
 70
     1
102
RTVSPropertyOp17
 70
     1
102
RTVSPropertyOp18
 70
     1
102
RTVSPropertyOp19
 70
     1
102
RTVSPropertyOp20
 70
     1
102
RTVSPropertyOp21
 70
     1
102
RTVSPropertyOp22
 70
     1
102
RTVSPropertyOp23
 70
     1
102
RTVSPropertyOp24
 70
     1
102
RTVSPropertyOp25
 70
     1
102
RTVSPropertyOp26
 70
     1
102
RTVSPropertyOp27
 70
     1
102
RTVSPropertyOp28
 70
     1
102
RTVSPropertyOp29
 70
     1
102
RTVSPropertyOp30
 70
     1
102
RTVSPropertyOp31
 70
     1
102
RTVSPropertyOp32
 70
     1
102
RTVSPropertyOp33
 70
     1
102
RTVSPropertyOp34
 70
     1
102
RTVSPropertyOp35
 70
     1
102
RTVSPropertyOp36
 70
     1
102
RTVSPropertyOp37
 70
     1
102
RTVSPropertyOp38
 70
     1
102
RTVSPropertyOp39
 70
     1
102
RTVSPropertyOp40
 70
     1
102
RTVSPropertyOp41
 70
     1
102
RTVSPropertyOp42
 70
     1
102
RTVSPropertyOp43
 70
     1
102
RTVSPropertyOp44
 70
     1
102
RTVSPropertyOp45
 70
     1
102
RTVSPropertyOp46
 70
     1
102
RTVSPropertyOp47
 70
     1
102
RTVSPropertyOp48
 70
     1
102
RTVSPropertyOp49
 70
     1
102
RTVSPropertyOp50
 70
     1
102
RTVSPropertyOp51
 70
     0
102
RTVSPropertyOp52
 70
     0
102
RTVSPropertyOp53
 70
     1
102
RTVSPropertyOp54
 70
     1
102
RTVSPropertyOp55
 70
     1
102
RTVSPropertyOp56
 70
     1
102
RTVSPropertyOp57
 70
     1
102
RTVSPropertyOp58
 70
     1
102
RTVSPropertyOp59
 70
     1
102
RTVSPropertyOp60
 70
     1
102
RTVSPropertyOp61
 70
     1
102
RTVSPropertyOp62
 70
     1
  0
XRECORD
  5
843
102
{ACAD_REACTORS
330
842
102
}
330
842
100
AcDbXrecord
280
     1
102
RTVSPost2010Prop28
280
     0
102
RTVSPost2010PropOp28
 70
     1
102
RTVSPost2010Prop29
280
     1
102
RTVSPost2010PropOp29
 70
     1
102
RTVSPost2010Prop30
280
     1
102
RTVSPost2010PropOp30
 70
     1
102
RTVSPost2010Prop31
280
     0
102
RTVSPost2010PropOp31
 70
     1
102
RTVSPost2010Prop32
280
     0
102
RTVSPost2010PropOp32
 70
     1
102
RTVSPost2010Prop33
280
     0
102
RTVSPost2010PropOp33
 70
     1
102
RTVSPost2010Prop34
280
     0
102
RTVSPost2010PropOp34
 70
     1
102
RTVSPost2010Prop35
280
     0
102
RTVSPost2010PropOp35
 70
     1
102
RTVSPost2010Prop36
280
     0
102
RTVSPost2010PropOp36
 70
     1
102
RTVSPost2010Prop37
 90
       50
102
RTVSPost2010PropOp37
 70
     1
102
RTVSPost2010Prop38
140
0.0
102
RTVSPost2010PropOp38
 70
     1
102
RTVSPost2010Prop39
140
1.0
102
RTVSPost2010PropOp39
 70
     1
102
RTVSPost2010Prop40
 90
        0
102
RTVSPost2010PropOp40
 70
     1
102
RTVSPost2010Prop41ColorIndex
 90
       18
102
RTVSPost2010Prop41ColorRGB
 90
        0
102
RTVSPost2010PropOp41
 70
     1
102
RTVSPost2010Prop42
 90
       50
102
RTVSPost2010PropOp42
 70
     1
102
RTVSPost2010Prop43
 90
        3
102
RTVSPost2010PropOp43
 70
     1
102
RTVSPost2010Prop44ColorIndex
 90
        5
102
RTVSPost2010Prop44ColorRGB
 90
      255
102
RTVSPost2010PropOp44
 70
     1
102
RTVSPost2010Prop45
280
     0
102
RTVSPost2010PropOp45
 70
     1
102
RTVSPost2010Prop46
 90
       50
102
RTVSPost2010PropOp46
 70
     1
102
RTVSPost2010Prop47
 90
       50
102
RTVSPost2010PropOp47
 70
     1
102
RTVSPost2010Prop48
 90
       50
102
RTVSPost2010PropOp48
 70
     1
102
RTVSPost2010Prop49
280
     0
102
RTVSPost2010PropOp49
 70
     1
102
RTVSPost2010Prop50
 90
       50
102
RTVSPost2010PropOp50
 70
     1
102
RTVSPost2010Prop51ColorIndex
 90
      256
102
RTVSPost2010Prop51ColorRGB
 90
-16777216
102
RTVSPost2010PropOp51
 70
     0
102
RTVSPost2010Prop52
140
1.0
102
RTVSPost2010PropOp52
 70
     0
102
RTVSPost2010Prop53
 90
        2
102
RTVSPost2010PropOp53
 70
     1
102
RTVSPost2010Prop54
  1
strokes_ogs.tif
102
RTVSPost2010PropOp54
 70
     1
102
RTVSPost2010Prop55
280
     0
102
RTVSPost2010PropOp55
 70
     1
102
RTVSPost2010Prop56
140
1.0
102
RTVSPost2010PropOp56
 70
     1
102
RTVSPost2010Prop57
140
1.0
102
RTVSPost2010PropOp57
 70
     1
102
RTVSPropertyOp0
 70
     1
102
RTVSPropertyOp1
 70
     1
102
RTVSPropertyOp2
 70
     1
102
RTVSPropertyOp3
 70
     1
102
RTVSPropertyOp4
 70
     1
102
RTVSPropertyOp5
 70
     1
102
RTVSPropertyOp6
 70
     1
102
RTVSPropertyOp7
 70
     1
102
RTVSPropertyOp8
 70
     1
102
RTVSPropertyOp9
 70
     1
102
RTVSPropertyOp10
 70
     1
102
RTVSPropertyOp11
 70
     1
102
RTVSPropertyOp12
 70
     1
102
RTVSPropertyOp13
 70
     1
102
RTVSPropertyOp14
 70
     1
102
RTVSPropertyOp15
 70
     1
102
RTVSPropertyOp16
 70
     1
102
RTVSPropertyOp17
 70
     1
102
RTVSPropertyOp18
 70
     1
102
RTVSPropertyOp19
 70
     1
102
RTVSPropertyOp20
 70
     1
102
RTVSPropertyOp21
 70
     1
102
RTVSPropertyOp22
 70
     1
102
RTVSPropertyOp23
 70
     1
102
RTVSPropertyOp24
 70
     1
102
RTVSPropertyOp25
 70
     1
102
RTVSPropertyOp26
 70
     1
102
RTVSPropertyOp27
 70
     1
102
RTVSPropertyOp28
 70
     1
102
RTVSPropertyOp29
 70
     1
102
RTVSPropertyOp30
 70
     1
102
RTVSPropertyOp31
 70
     1
102
RTVSPropertyOp32
 70
     1
102
RTVSPropertyOp33
 70
     1
102
RTVSPropertyOp34
 70
     1
102
RTVSPropertyOp35
 70
     1
102
RTVSPropertyOp36
 70
     1
102
RTVSPropertyOp37
 70
     1
102
RTVSPropertyOp38
 70
     1
102
RTVSPropertyOp39
 70
     1
102
RTVSPropertyOp40
 70
     1
102
RTVSPropertyOp41
 70
     1
102
RTVSPropertyOp42
 70
     1
102
RTVSPropertyOp43
 70
     1
102
RTVSPropertyOp44
 70
     1
102
RTVSPropertyOp45
 70
     1
102
RTVSPropertyOp46
 70
     1
102
RTVSPropertyOp47
 70
     1
102
RTVSPropertyOp48
 70
     1
102
RTVSPropertyOp49
 70
     1
102
RTVSPropertyOp50
 70
     1
102
RTVSPropertyOp51
 70
     0
102
RTVSPropertyOp52
 70
     0
102
RTVSPropertyOp53
 70
     1
102
RTVSPropertyOp54
 70
     1
102
RTVSPropertyOp55
 70
     1
102
RTVSPropertyOp56
 70
     1
102
RTVSPropertyOp57
 70
     1
102
RTVSPropertyOp58
 70
     1
102
RTVSPropertyOp59
 70
     1
102
RTVSPropertyOp60
 70
     1
102
RTVSPropertyOp61
 70
     1
102
RTVSPropertyOp62
 70
     1
  0
XRECORD
  5
839
102
{ACAD_REACTORS
330
838
102
}
330
838
100
AcDbXrecord
280
     1
102
RTVSPost2010Prop28
280
     0
102
RTVSPost2010PropOp28
 70
     1
102
RTVSPost2010Prop29
280
     1
102
RTVSPost2010PropOp29
 70
     1
102
RTVSPost2010Prop30
280
     1
102
RTVSPost2010PropOp30
 70
     1
102
RTVSPost2010Prop31
280
     0
102
RTVSPost2010PropOp31
 70
     1
102
RTVSPost2010Prop32
280
     0
102
RTVSPost2010PropOp32
 70
     1
102
RTVSPost2010Prop33
280
     0
102
RTVSPost2010PropOp33
 70
     1
102
RTVSPost2010Prop34
280
     0
102
RTVSPost2010PropOp34
 70
     1
102
RTVSPost2010Prop35
280
     0
102
RTVSPost2010PropOp35
 70
     1
102
RTVSPost2010Prop36
280
     0
102
RTVSPost2010PropOp36
 70
     1
102
RTVSPost2010Prop37
 90
       50
102
RTVSPost2010PropOp37
 70
     1
102
RTVSPost2010Prop38
140
0.0
102
RTVSPost2010PropOp38
 70
     1
102
RTVSPost2010Prop39
140
1.0
102
RTVSPost2010PropOp39
 70
     1
102
RTVSPost2010Prop40
 90
        0
102
RTVSPost2010PropOp40
 70
     1
102
RTVSPost2010Prop41ColorIndex
 90
       18
102
RTVSPost2010Prop41ColorRGB
 90
        0
102
RTVSPost2010PropOp41
 70
     1
102
RTVSPost2010Prop42
 90
       50
102
RTVSPost2010PropOp42
 70
     1
102
RTVSPost2010Prop43
 90
        3
102
RTVSPost2010PropOp43
 70
     1
102
RTVSPost2010Prop44ColorIndex
 90
        5
102
RTVSPost2010Prop44ColorRGB
 90
      255
102
RTVSPost2010PropOp44
 70
     1
102
RTVSPost2010Prop45
280
     0
102
RTVSPost2010PropOp45
 70
     1
102
RTVSPost2010Prop46
 90
       50
102
RTVSPost2010PropOp46
 70
     1
102
RTVSPost2010Prop47
 90
       50
102
RTVSPost2010PropOp47
 70
     1
102
RTVSPost2010Prop48
 90
       50
102
RTVSPost2010PropOp48
 70
     1
102
RTVSPost2010Prop49
280
     0
102
RTVSPost2010PropOp49
 70
     1
102
RTVSPost2010Prop50
 90
       50
102
RTVSPost2010PropOp50
 70
     1
102
RTVSPost2010Prop51ColorIndex
 90
      256
102
RTVSPost2010Prop51ColorRGB
 90
-16777216
102
RTVSPost2010PropOp51
 70
     0
102
RTVSPost2010Prop52
140
1.0
102
RTVSPost2010PropOp52
 70
     0
102
RTVSPost2010Prop53
 90
        2
102
RTVSPost2010PropOp53
 70
     1
102
RTVSPost2010Prop54
  1
strokes_ogs.tif
102
RTVSPost2010PropOp54
 70
     1
102
RTVSPost2010Prop55
280
     0
102
RTVSPost2010PropOp55
 70
     1
102
RTVSPost2010Prop56
140
1.0
102
RTVSPost2010PropOp56
 70
     1
102
RTVSPost2010Prop57
140
1.0
102
RTVSPost2010PropOp57
 70
     1
102
RTVSPropertyOp0
 70
     1
102
RTVSPropertyOp1
 70
     1
102
RTVSPropertyOp2
 70
     1
102
RTVSPropertyOp3
 70
     1
102
RTVSPropertyOp4
 70
     1
102
RTVSPropertyOp5
 70
     1
102
RTVSPropertyOp6
 70
     1
102
RTVSPropertyOp7
 70
     1
102
RTVSPropertyOp8
 70
     1
102
RTVSPropertyOp9
 70
     1
102
RTVSPropertyOp10
 70
     1
102
RTVSPropertyOp11
 70
     1
102
RTVSPropertyOp12
 70
     1
102
RTVSPropertyOp13
 70
     1
102
RTVSPropertyOp14
 70
     1
102
RTVSPropertyOp15
 70
     1
102
RTVSPropertyOp16
 70
     1
102
RTVSPropertyOp17
 70
     1
102
RTVSPropertyOp18
 70
     1
102
RTVSPropertyOp19
 70
     1
102
RTVSPropertyOp20
 70
     1
102
RTVSPropertyOp21
 70
     1
102
RTVSPropertyOp22
 70
     1
102
RTVSPropertyOp23
 70
     1
102
RTVSPropertyOp24
 70
     1
102
RTVSPropertyOp25
 70
     1
102
RTVSPropertyOp26
 70
     1
102
RTVSPropertyOp27
 70
     1
102
RTVSPropertyOp28
 70
     1
102
RTVSPropertyOp29
 70
     1
102
RTVSPropertyOp30
 70
     1
102
RTVSPropertyOp31
 70
     1
102
RTVSPropertyOp32
 70
     1
102
RTVSPropertyOp33
 70
     1
102
RTVSPropertyOp34
 70
     1
102
RTVSPropertyOp35
 70
     1
102
RTVSPropertyOp36
 70
     1
102
RTVSPropertyOp37
 70
     1
102
RTVSPropertyOp38
 70
     1
102
RTVSPropertyOp39
 70
     1
102
RTVSPropertyOp40
 70
     1
102
RTVSPropertyOp41
 70
     1
102
RTVSPropertyOp42
 70
     1
102
RTVSPropertyOp43
 70
     1
102
RTVSPropertyOp44
 70
     1
102
RTVSPropertyOp45
 70
     1
102
RTVSPropertyOp46
 70
     1
102
RTVSPropertyOp47
 70
     1
102
RTVSPropertyOp48
 70
     1
102
RTVSPropertyOp49
 70
     1
102
RTVSPropertyOp50
 70
     1
102
RTVSPropertyOp51
 70
     0
102
RTVSPropertyOp52
 70
     0
102
RTVSPropertyOp53
 70
     1
102
RTVSPropertyOp54
 70
     1
102
RTVSPropertyOp55
 70
     1
102
RTVSPropertyOp56
 70
     1
102
RTVSPropertyOp57
 70
     1
102
RTVSPropertyOp58
 70
     1
102
RTVSPropertyOp59
 70
     1
102
RTVSPropertyOp60
 70
     1
102
RTVSPropertyOp61
 70
     1
102
RTVSPropertyOp62
 70
     1
  0
XRECORD
  5
82D
102
{ACAD_REACTORS
330
82C
102
}
330
82C
100
AcDbXrecord
280
     1
102
RTVSPost2010Prop28
280
     0
102
RTVSPost2010PropOp28
 70
     1
102
RTVSPost2010Prop29
280
     1
102
RTVSPost2010PropOp29
 70
     1
102
RTVSPost2010Prop30
280
     1
102
RTVSPost2010PropOp30
 70
     1
102
RTVSPost2010Prop31
280
     0
102
RTVSPost2010PropOp31
 70
     1
102
RTVSPost2010Prop32
280
     0
102
RTVSPost2010PropOp32
 70
     1
102
RTVSPost2010Prop33
280
     0
102
RTVSPost2010PropOp33
 70
     1
102
RTVSPost2010Prop34
280
     0
102
RTVSPost2010PropOp34
 70
     1
102
RTVSPost2010Prop35
280
     0
102
RTVSPost2010PropOp35
 70
     1
102
RTVSPost2010Prop36
280
     0
102
RTVSPost2010PropOp36
 70
     1
102
RTVSPost2010Prop37
 90
       50
102
RTVSPost2010PropOp37
 70
     1
102
RTVSPost2010Prop38
140
0.0
102
RTVSPost2010PropOp38
 70
     1
102
RTVSPost2010Prop39
140
1.0
102
RTVSPost2010PropOp39
 70
     1
102
RTVSPost2010Prop40
 90
        0
102
RTVSPost2010PropOp40
 70
     1
102
RTVSPost2010Prop41ColorIndex
 90
       18
102
RTVSPost2010Prop41ColorRGB
 90
        0
102
RTVSPost2010PropOp41
 70
     1
102
RTVSPost2010Prop42
 90
       50
102
RTVSPost2010PropOp42
 70
     1
102
RTVSPost2010Prop43
 90
        3
102
RTVSPost2010PropOp43
 70
     1
102
RTVSPost2010Prop44ColorIndex
 90
        5
102
RTVSPost2010Prop44ColorRGB
 90
      255
102
RTVSPost2010PropOp44
 70
     1
102
RTVSPost2010Prop45
280
     0
102
RTVSPost2010PropOp45
 70
     1
102
RTVSPost2010Prop46
 90
       50
102
RTVSPost2010PropOp46
 70
     1
102
RTVSPost2010Prop47
 90
       50
102
RTVSPost2010PropOp47
 70
     1
102
RTVSPost2010Prop48
 90
       50
102
RTVSPost2010PropOp48
 70
     1
102
RTVSPost2010Prop49
280
     0
102
RTVSPost2010PropOp49
 70
     1
102
RTVSPost2010Prop50
 90
       50
102
RTVSPost2010PropOp50
 70
     1
102
RTVSPost2010Prop51ColorIndex
 90
      256
102
RTVSPost2010Prop51ColorRGB
 90
-16777216
102
RTVSPost2010PropOp51
 70
     0
102
RTVSPost2010Prop52
140
1.0
102
RTVSPost2010PropOp52
 70
     0
102
RTVSPost2010Prop53
 90
        2
102
RTVSPost2010PropOp53
 70
     1
102
RTVSPost2010Prop54
  1
strokes_ogs.tif
102
RTVSPost2010PropOp54
 70
     1
102
RTVSPost2010Prop55
280
     0
102
RTVSPost2010PropOp55
 70
     1
102
RTVSPost2010Prop56
140
1.0
102
RTVSPost2010PropOp56
 70
     1
102
RTVSPost2010Prop57
140
1.0
102
RTVSPost2010PropOp57
 70
     1
102
RTVSPropertyOp0
 70
     1
102
RTVSPropertyOp1
 70
     1
102
RTVSPropertyOp2
 70
     1
102
RTVSPropertyOp3
 70
     1
102
RTVSPropertyOp4
 70
     1
102
RTVSPropertyOp5
 70
     1
102
RTVSPropertyOp6
 70
     1
102
RTVSPropertyOp7
 70
     1
102
RTVSPropertyOp8
 70
     1
102
RTVSPropertyOp9
 70
     1
102
RTVSPropertyOp10
 70
     1
102
RTVSPropertyOp11
 70
     1
102
RTVSPropertyOp12
 70
     1
102
RTVSPropertyOp13
 70
     1
102
RTVSPropertyOp14
 70
     1
102
RTVSPropertyOp15
 70
     1
102
RTVSPropertyOp16
 70
     1
102
RTVSPropertyOp17
 70
     1
102
RTVSPropertyOp18
 70
     1
102
RTVSPropertyOp19
 70
     1
102
RTVSPropertyOp20
 70
     1
102
RTVSPropertyOp21
 70
     1
102
RTVSPropertyOp22
 70
     1
102
RTVSPropertyOp23
 70
     1
102
RTVSPropertyOp24
 70
     1
102
RTVSPropertyOp25
 70
     1
102
RTVSPropertyOp26
 70
     1
102
RTVSPropertyOp27
 70
     1
102
RTVSPropertyOp28
 70
     1
102
RTVSPropertyOp29
 70
     1
102
RTVSPropertyOp30
 70
     1
102
RTVSPropertyOp31
 70
     1
102
RTVSPropertyOp32
 70
     1
102
RTVSPropertyOp33
 70
     1
102
RTVSPropertyOp34
 70
     1
102
RTVSPropertyOp35
 70
     1
102
RTVSPropertyOp36
 70
     1
102
RTVSPropertyOp37
 70
     1
102
RTVSPropertyOp38
 70
     1
102
RTVSPropertyOp39
 70
     1
102
RTVSPropertyOp40
 70
     1
102
RTVSPropertyOp41
 70
     1
102
RTVSPropertyOp42
 70
     1
102
RTVSPropertyOp43
 70
     1
102
RTVSPropertyOp44
 70
     1
102
RTVSPropertyOp45
 70
     1
102
RTVSPropertyOp46
 70
     1
102
RTVSPropertyOp47
 70
     1
102
RTVSPropertyOp48
 70
     1
102
RTVSPropertyOp49
 70
     1
102
RTVSPropertyOp50
 70
     1
102
RTVSPropertyOp51
 70
     0
102
RTVSPropertyOp52
 70
     0
102
RTVSPropertyOp53
 70
     1
102
RTVSPropertyOp54
 70
     1
102
RTVSPropertyOp55
 70
     1
102
RTVSPropertyOp56
 70
     1
102
RTVSPropertyOp57
 70
     1
102
RTVSPropertyOp58
 70
     1
102
RTVSPropertyOp59
 70
     1
102
RTVSPropertyOp60
 70
     1
102
RTVSPropertyOp61
 70
     1
102
RTVSPropertyOp62
 70
     1
  0
XRECORD
  5
845
102
{ACAD_REACTORS
330
844
102
}
330
844
100
AcDbXrecord
280
     1
102
RTVSPost2010Prop28
280
     0
102
RTVSPost2010PropOp28
 70
     1
102
RTVSPost2010Prop29
280
     1
102
RTVSPost2010PropOp29
 70
     1
102
RTVSPost2010Prop30
280
     1
102
RTVSPost2010PropOp30
 70
     1
102
RTVSPost2010Prop31
280
     0
102
RTVSPost2010PropOp31
 70
     1
102
RTVSPost2010Prop32
280
     0
102
RTVSPost2010PropOp32
 70
     1
102
RTVSPost2010Prop33
280
     0
102
RTVSPost2010PropOp33
 70
     1
102
RTVSPost2010Prop34
280
     0
102
RTVSPost2010PropOp34
 70
     1
102
RTVSPost2010Prop35
280
     0
102
RTVSPost2010PropOp35
 70
     1
102
RTVSPost2010Prop36
280
     0
102
RTVSPost2010PropOp36
 70
     1
102
RTVSPost2010Prop37
 90
       50
102
RTVSPost2010PropOp37
 70
     1
102
RTVSPost2010Prop38
140
0.0
102
RTVSPost2010PropOp38
 70
     1
102
RTVSPost2010Prop39
140
1.0
102
RTVSPost2010PropOp39
 70
     1
102
RTVSPost2010Prop40
 90
        0
102
RTVSPost2010PropOp40
 70
     1
102
RTVSPost2010Prop41ColorIndex
 90
       18
102
RTVSPost2010Prop41ColorRGB
 90
        0
102
RTVSPost2010PropOp41
 70
     1
102
RTVSPost2010Prop42
 90
       50
102
RTVSPost2010PropOp42
 70
     1
102
RTVSPost2010Prop43
 90
        3
102
RTVSPost2010PropOp43
 70
     1
102
RTVSPost2010Prop44ColorIndex
 90
        5
102
RTVSPost2010Prop44ColorRGB
 90
      255
102
RTVSPost2010PropOp44
 70
     1
102
RTVSPost2010Prop45
280
     0
102
RTVSPost2010PropOp45
 70
     1
102
RTVSPost2010Prop46
 90
       50
102
RTVSPost2010PropOp46
 70
     1
102
RTVSPost2010Prop47
 90
       50
102
RTVSPost2010PropOp47
 70
     1
102
RTVSPost2010Prop48
 90
       50
102
RTVSPost2010PropOp48
 70
     1
102
RTVSPost2010Prop49
280
     0
102
RTVSPost2010PropOp49
 70
     1
102
RTVSPost2010Prop50
 90
       50
102
RTVSPost2010PropOp50
 70
     1
102
RTVSPost2010Prop51ColorIndex
 90
      256
102
RTVSPost2010Prop51ColorRGB
 90
-16777216
102
RTVSPost2010PropOp51
 70
     0
102
RTVSPost2010Prop52
140
1.0
102
RTVSPost2010PropOp52
 70
     0
102
RTVSPost2010Prop53
 90
        2
102
RTVSPost2010PropOp53
 70
     1
102
RTVSPost2010Prop54
  1
strokes_ogs.tif
102
RTVSPost2010PropOp54
 70
     1
102
RTVSPost2010Prop55
280
     0
102
RTVSPost2010PropOp55
 70
     1
102
RTVSPost2010Prop56
140
1.0
102
RTVSPost2010PropOp56
 70
     1
102
RTVSPost2010Prop57
140
1.0
102
RTVSPost2010PropOp57
 70
     1
102
RTVSPropertyOp0
 70
     1
102
RTVSPropertyOp1
 70
     1
102
RTVSPropertyOp2
 70
     1
102
RTVSPropertyOp3
 70
     1
102
RTVSPropertyOp4
 70
     1
102
RTVSPropertyOp5
 70
     1
102
RTVSPropertyOp6
 70
     1
102
RTVSPropertyOp7
 70
     1
102
RTVSPropertyOp8
 70
     1
102
RTVSPropertyOp9
 70
     1
102
RTVSPropertyOp10
 70
     1
102
RTVSPropertyOp11
 70
     1
102
RTVSPropertyOp12
 70
     1
102
RTVSPropertyOp13
 70
     1
102
RTVSPropertyOp14
 70
     1
102
RTVSPropertyOp15
 70
     1
102
RTVSPropertyOp16
 70
     1
102
RTVSPropertyOp17
 70
     1
102
RTVSPropertyOp18
 70
     1
102
RTVSPropertyOp19
 70
     1
102
RTVSPropertyOp20
 70
     1
102
RTVSPropertyOp21
 70
     1
102
RTVSPropertyOp22
 70
     1
102
RTVSPropertyOp23
 70
     1
102
RTVSPropertyOp24
 70
     1
102
RTVSPropertyOp25
 70
     1
102
RTVSPropertyOp26
 70
     1
102
RTVSPropertyOp27
 70
     1
102
RTVSPropertyOp28
 70
     1
102
RTVSPropertyOp29
 70
     1
102
RTVSPropertyOp30
 70
     1
102
RTVSPropertyOp31
 70
     1
102
RTVSPropertyOp32
 70
     1
102
RTVSPropertyOp33
 70
     1
102
RTVSPropertyOp34
 70
     1
102
RTVSPropertyOp35
 70
     1
102
RTVSPropertyOp36
 70
     1
102
RTVSPropertyOp37
 70
     1
102
RTVSPropertyOp38
 70
     1
102
RTVSPropertyOp39
 70
     1
102
RTVSPropertyOp40
 70
     1
102
RTVSPropertyOp41
 70
     1
102
RTVSPropertyOp42
 70
     1
102
RTVSPropertyOp43
 70
     1
102
RTVSPropertyOp44
 70
     1
102
RTVSPropertyOp45
 70
     1
102
RTVSPropertyOp46
 70
     1
102
RTVSPropertyOp47
 70
     1
102
RTVSPropertyOp48
 70
     1
102
RTVSPropertyOp49
 70
     1
102
RTVSPropertyOp50
 70
     1
102
RTVSPropertyOp51
 70
     0
102
RTVSPropertyOp52
 70
     0
102
RTVSPropertyOp53
 70
     1
102
RTVSPropertyOp54
 70
     1
102
RTVSPropertyOp55
 70
     1
102
RTVSPropertyOp56
 70
     1
102
RTVSPropertyOp57
 70
     1
102
RTVSPropertyOp58
 70
     1
102
RTVSPropertyOp59
 70
     1
102
RTVSPropertyOp60
 70
     1
102
RTVSPropertyOp61
 70
     1
102
RTVSPropertyOp62
 70
     1
  0
ENDSEC
  0
EOF
