  0
SECTION
  2
HEADER
  9
$ACADVER
  1
AC1015
  9
$ACADMAINTVER
 70
     6
  9
$DWGCODEPAGE
  3
ANSI_932
  9
$INSBASE
 10
0.0
 20
0.0
 30
0.0
  9
$EXTMIN
 10
-302.6270233345953
 20
117.1006756655794
 30
-0.00000001
  9
$EXTMAX
 10
340.5547542826634
 20
534.8655855374317
 30
0.00000001
  9
$LIMMIN
 10
-202.0
 20
-141.4
  9
$LIMMAX
 10
202.0
 20
141.4
  9
$ORTHOMODE
 70
     1
  9
$REGENMODE
 70
     1
  9
$FILLMODE
 70
     1
  9
$QTEXTMODE
 70
     0
  9
$MIRRTEXT
 70
     1
  9
$LTSCALE
 40
1.0
  9
$ATTMODE
 70
     1
  9
$TEXTSIZE
 40
4.1656
  9
$TRACEWID
 40
0.05
  9
$TEXTSTYLE
  7
MX_NOTE_STANDARD
  9
$CLAYER
  8
本体
  9
$CELTYPE
  6
CONTINUOUS
  9
$CECOLOR
 62
    84
  9
$CELTSCALE
 40
1.0
  9
$DISPSILH
 70
     0
  9
$DIMSCALE
 40
1.0
  9
$DIMASZ
 40
4.0
  9
$DIMEXO
 40
1.0
  9
$DIMDLI
 40
0.0
  9
$DIMRND
 40
0.0
  9
$DIMDLE
 40
0.0
  9
$DIMEXE
 40
1.0
  9
$DIMTP
 40
0.0
  9
$DIMTM
 40
0.0
  9
$DIMTXT
 40
4.1656
  9
$DIMCEN
 40
2.5
  9
$DIMTSZ
 40
0.0
  9
$DIMTOL
 70
     0
  9
$DIMLIM
 70
     0
  9
$DIMTIH
 70
     0
  9
$DIMTOH
 70
     1
  9
$DIMSE1
 70
     0
  9
$DIMSE2
 70
     0
  9
$DIMTAD
 70
     1
  9
$DIMZIN
 70
     8
  9
$DIMBLK
  1
OPEN30
  9
$DIMASO
 70
     1
  9
$DIMSHO
 70
     1
  9
$DIMPOST
  1

  9
$DIMAPOST
  1

  9
$DIMALT
 70
     0
  9
$DIMALTD
 70
     4
  9
$DIMALTF
 40
0.0394
  9
$DIMLFAC
 40
1.0
  9
$DIMTOFL
 70
     1
  9
$DIMTVP
 40
0.0
  9
$DIMTIX
 70
     0
  9
$DIMSOXD
 70
     0
  9
$DIMSAH
 70
     0
  9
$DIMBLK1
  1

  9
$DIMBLK2
  1

  9
$DIMSTYLE
  2
ARTICS
  9
$DIMCLRD
 70
     0
  9
$DIMCLRE
 70
     0
  9
$DIMCLRT
 70
     6
  9
$DIMTFAC
 40
1.0
  9
$DIMGAP
 40
1.0
  9
$DIMJUST
 70
     0
  9
$DIMSD1
 70
     0
  9
$DIMSD2
 70
     0
  9
$DIMTOLJ
 70
     1
  9
$DIMTZIN
 70
     0
  9
$DIMALTZ
 70
     0
  9
$DIMALTTZ
 70
     0
  9
$DIMUPT
 70
     1
  9
$DIMDEC
 70
     1
  9
$DIMTDEC
 70
     1
  9
$DIMALTU
 70
     8
  9
$DIMALTTD
 70
     4
  9
$DIMTXSTY
  7
MX_NOTE_STANDARD
  9
$DIMAUNIT
 70
     0
  9
$DIMADEC
 70
     0
  9
$DIMALTRND
 40
0.0
  9
$DIMAZIN
 70
     0
  9
$DIMDSEP
 70
    46
  9
$DIMATFIT
 70
     3
  9
$DIMFRAC
 70
     0
  9
$DIMLDRBLK
  1
OPEN30
  9
$DIMLUNIT
 70
     2
  9
$DIMLWD
 70
    13
  9
$DIMLWE
 70
    13
  9
$DIMTMOVE
 70
     0
  9
$LUNITS
 70
     2
  9
$LUPREC
 70
     4
  9
$SKETCHINC
 40
0.1
  9
$FILLETRAD
 40
1.0
  9
$AUNITS
 70
     0
  9
$AUPREC
 70
     0
  9
$MENU
  1
acad
  9
$ELEVATION
 40
0.0
  9
$PELEVATION
 40
0.0
  9
$THICKNESS
 40
0.0
  9
$LIMCHECK
 70
     0
  9
$CHAMFERA
 40
2.0
  9
$CHAMFERB
 40
2.0
  9
$CHAMFERC
 40
0.0
  9
$CHAMFERD
 40
0.0
  9
$SKPOLY
 70
     0
  9
$TDCREATE
 40
2453938.465266203
  9
$TDUCREATE
 40
2453938.090266203
  9
$TDUPDATE
 40
2455602.468561192
  9
$TDUUPDATE
 40
2455602.093561191
  9
$TDINDWG
 40
0.4764854745
  9
$TDUSRTIMER
 40
0.4764570486
  9
$USRTIMER
 70
     1
  9
$ANGBASE
 50
0.0
  9
$ANGDIR
 70
     0
  9
$PDMODE
 70
     0
  9
$PDSIZE
 40
0.0
  9
$PLINEWID
 40
0.0
  9
$SPLFRAME
 70
     0
  9
$SPLINETYPE
 70
     6
  9
$SPLINESEGS
 70
     8
  9
$HANDSEED
  5
7013
  9
$SURFTAB1
 70
     6
  9
$SURFTAB2
 70
     6
  9
$SURFTYPE
 70
     6
  9
$SURFU
 70
     6
  9
$SURFV
 70
     6
  9
$UCSBASE
  2

  9
$UCSNAME
  2

  9
$UCSORG
 10
0.0
 20
0.0
 30
0.0
  9
$UCSXDIR
 10
1.0
 20
0.0
 30
0.0
  9
$UCSYDIR
 10
0.0
 20
1.0
 30
0.0
  9
$UCSORTHOREF
  2

  9
$UCSORTHOVIEW
 70
     0
  9
$UCSORGTOP
 10
0.0
 20
0.0
 30
0.0
  9
$UCSORGBOTTOM
 10
0.0
 20
0.0
 30
0.0
  9
$UCSORGLEFT
 10
0.0
 20
0.0
 30
0.0
  9
$UCSORGRIGHT
 10
0.0
 20
0.0
 30
0.0
  9
$UCSORGFRONT
 10
0.0
 20
0.0
 30
0.0
  9
$UCSORGBACK
 10
0.0
 20
0.0
 30
0.0
  9
$PUCSBASE
  2

  9
$PUCSNAME
  2

  9
$PUCSORG
 10
0.0
 20
0.0
 30
0.0
  9
$PUCSXDIR
 10
1.0
 20
0.0
 30
0.0
  9
$PUCSYDIR
 10
0.0
 20
1.0
 30
0.0
  9
$PUCSORTHOREF
  2

  9
$PUCSORTHOVIEW
 70
     0
  9
$PUCSORGTOP
 10
0.0
 20
0.0
 30
0.0
  9
$PUCSORGBOTTOM
 10
0.0
 20
0.0
 30
0.0
  9
$PUCSORGLEFT
 10
0.0
 20
0.0
 30
0.0
  9
$PUCSORGRIGHT
 10
0.0
 20
0.0
 30
0.0
  9
$PUCSORGFRONT
 10
0.0
 20
0.0
 30
0.0
  9
$PUCSORGBACK
 10
0.0
 20
0.0
 30
0.0
  9
$USERI1
 70
     0
  9
$USERI2
 70
     0
  9
$USERI3
 70
     0
  9
$USERI4
 70
     0
  9
$USERI5
 70
     0
  9
$USERR1
 40
0.0
  9
$USERR2
 40
0.0
  9
$USERR3
 40
0.0
  9
$USERR4
 40
0.0
  9
$USERR5
 40
0.0
  9
$WORLDVIEW
 70
     1
  9
$SHADEDGE
 70
     3
  9
$SHADEDIF
 70
    70
  9
$TILEMODE
 70
     0
  9
$MAXACTVP
 70
    16
  9
$PINSBASE
 10
0.0
 20
0.0
 30
0.0
  9
$PLIMCHECK
 70
     0
  9
$PEXTMIN
 10
0.2226072708546951
 20
5.709621471594195
 30
0.0
  9
$PEXTMAX
 10
412.7015610261612
 20
571.794154620655
 30
0.0
  9
$PLIMMIN
 10
-3.174999952316281
 20
-3.174999952316281
  9
$PLIMMAX
 10
416.8250000476836
 20
590.8250000476837
  9
$UNITMODE
 70
     0
  9
$VISRETAIN
 70
     0
  9
$PLINEGEN
 70
     1
  9
$PSLTSCALE
 70
     1
  9
$TREEDEPTH
 70
  3020
  9
$CMLSTYLE
  2
STANDARD
  9
$CMLJUST
 70
     0
  9
$CMLSCALE
 40
1.0
  9
$PROXYGRAPHICS
 70
     0
  9
$MEASUREMENT
 70
     1
  9
$CELWEIGHT
370
    -1
  9
$ENDCAPS
280
     0
  9
$JOINSTYLE
280
     0
  9
$LWDISPLAY
290
     0
  9
$INSUNITS
 70
     0
  9
$HYPERLINKBASE
  1

  9
$STYLESHEET
  1
BLACK.CTB
  9
$XEDIT
290
     1
  9
$CEPSNTYPE
380
     0
  9
$PSTYLEMODE
290
     1
  9
$FINGERPRINTGUID
  2
{9B98DE78-A00E-4527-9356-E4F62AD05E96}
  9
$VERSIONGUID
  2
{EFE7A34F-1A70-40FA-B3D5-F43659E3C32C}
  9
$EXTNAMES
290
     1
  9
$PSVPSCALE
 40
0.0
  9
$OLESTARTUP
290
     0
  0
ENDSEC
  0
SECTION
  2
CLASSES
  0
CLASS
  1
LWPOLYLINE
  2
AcDbPolyline
  3
AutoCAD 2000
 90
    32768
280
     0
281
     1
  0
CLASS
  1
IMAGE
  2
AcDbRasterImage
  3
ISM
 90
    32895
280
     0
281
     1
  0
CLASS
  1
OLE2FRAME
  2
AcDbOle2Frame
  3
AutoCAD 2000
 90
    32768
280
     0
281
     1
  0
CLASS
  1
HATCH
  2
AcDbHatch
  3
AutoCAD 2000
 90
    32768
280
     0
281
     1
  0
CLASS
  1
DICTIONARYVAR
  2
AcDbDictionaryVar
  3
AutoCAD 2000
 90
    32768
280
     0
281
     0
  0
CLASS
  1
RASTERVARIABLES
  2
AcDbRasterVariables
  3
ISM
 90
    32768
280
     0
281
     0
  0
CLASS
  1
IMAGEDEF
  2
AcDbRasterImageDef
  3
ISM
 90
    32768
280
     0
281
     0
  0
CLASS
  1
IMAGEDEF_REACTOR
  2
AcDbRasterImageDefReactor
  3
ISM
 90
    32769
280
     0
281
     0
  0
CLASS
  1
IDBUFFER
  2
AcDbIdBuffer
  3
AutoCAD 2000
 90
    32768
280
     0
281
     0
  0
CLASS
  1
SPATIAL_FILTER
  2
AcDbSpatialFilter
  3
AutoCAD 2000
 90
    32768
280
     0
281
     0
  0
CLASS
  1
XRECORD
  2
AcDbXrecord
  3
AutoCAD 2000
 90
    32768
280
     0
281
     0
  0
CLASS
  1
SORTENTSTABLE
  2
AcDbSortentsTable
  3
AutoCAD 2000
 90
    32768
280
     0
281
     0
  0
CLASS
  1
LAYER_INDEX
  2
AcDbLayerIndex
  3
AutoCAD 2000
 90
    32768
280
     0
281
     0
  0
CLASS
  1
SPATIAL_INDEX
  2
AcDbSpatialIndex
  3
AutoCAD 2000
 90
    32768
280
     0
281
     0
  0
CLASS
  1
OBJECT_PTR
  2
CAseDLPNTableRecord
  3
"ASE-LPNTableRecord"
 90
    32769
280
     0
281
     0
  0
CLASS
  1
LAYOUT
  2
AcDbLayout
  3
AutoCAD 2000
 90
        0
280
     0
281
     0
  0
CLASS
  1
PLOTSETTINGS
  2
AcDbPlotSettings
  3
AutoCAD 2000
 90
    32768
280
     0
281
     0
  0
CLASS
  1
ACDBDICTIONARYWDFLT
  2
AcDbDictionaryWithDefault
  3
AutoCAD 2000
 90
        0
280
     0
281
     0
  0
CLASS
  1
ACDBPLACEHOLDER
  2
AcDbPlaceHolder
  3
AutoCAD 2000
 90
        0
280
     0
281
     0
  0
CLASS
  1
VBA_PROJECT
  2
AcDbVbaProject
  3
"acadvba"
 90
    32769
280
     0
281
     0
  0
CLASS
  1
WIPEOUT
  2
AcDbWipeout
  3
WipeOut|AutoCAD Express Tool|expresstools@autodesk.com
 90
    32895
280
     0
281
     1
  0
CLASS
  1
WIPEOUTVARIABLES
  2
AcDbWipeoutVariables
  3
WipeOut|AutoCAD Express Tool|expresstools@autodesk.com
 90
    32768
280
     0
281
     0
  0
CLASS
  1
RTEXT
  2
RText
  3
RText|AutoCAD Express Tool|expresstools@autodesk.com
 90
    32768
280
     0
281
     1
  0
CLASS
  1
ARCALIGNEDTEXT
  2
AcDbArcAlignedText
  3
ATEXT|AutoCAD Express Tool|expresstools@autodesk.com
 90
    32768
280
     0
281
     1
  0
ENDSEC
  0
SECTION
  2
TABLES
  0
TABLE
  2
VPORT
  5
7
330
0
100
AcDbSymbolTable
 70
     2
  0
VPORT
  5
7012
330
7
100
AcDbSymbolTableRecord
100
AcDbViewportTableRecord
  2
*Active
 70
     0
 10
0.0
 20
0.0
 11
1.0
 21
1.0
 12
-89.08826937573667
 22
407.6662037698654
 13
0.0
 23
0.0
 14
1.0
 24
1.0
 15
0.0
 25
0.0
 16
0.0
 26
0.0
 36
1.0
 17
0.0
 27
0.0
 37
0.0
 40
297.5338609262575
 41
2.006651884700665
 42
50.0
 43
0.0
 44
0.0
 50
0.0
 51
0.0
 71
     0
 72
   100
 73
     1
 74
     1
 75
     0
 76
     0
 77
     0
 78
     0
281
     0
 65
     1
110
0.0
120
0.0
130
0.0
111
1.0
121
0.0
131
0.0
112
0.0
122
1.0
132
0.0
 79
     0
146
0.0
  0
ENDTAB
  0
TABLE
  2
LTYPE
  5
4
330
0
100
AcDbSymbolTable
 70
     3
  0
LTYPE
  5
11
330
4
100
AcDbSymbolTableRecord
100
AcDbLinetypeTableRecord
  2
BYBLOCK
 70
     0
  3

 72
    65
 73
     0
 40
0.0
  0
LTYPE
  5
12
330
4
100
AcDbSymbolTableRecord
100
AcDbLinetypeTableRecord
  2
BYLAYER
 70
     0
  3

 72
    65
 73
     0
 40
0.0
  0
LTYPE
  5
13
330
4
100
AcDbSymbolTableRecord
100
AcDbLinetypeTableRecord
  2
CONTINUOUS
 70
     0
  3
Solid line
 72
    65
 73
     0
 40
0.0
  0
LTYPE
  5
80
330
4
100
AcDbSymbolTableRecord
100
AcDbLinetypeTableRecord
  2
DASHED
 70
     0
  3
Dashed __ __ __ __ __ __ __ __ __ __ __ __ __ _
 72
    65
 73
     2
 40
19.05
 49
12.7
 74
     0
 49
-6.349999999999997
 74
     0
  0
LTYPE
  5
2C1
330
4
100
AcDbSymbolTableRecord
100
AcDbLinetypeTableRecord
  2
CENTER
 70
     0
  3
Center ____ _ ____ _ ____ _ ____ _ ____ _ ____
 72
    65
 73
     4
 40
50.8
 49
31.75
 74
     0
 49
-6.349999999999997
 74
     0
 49
6.349999999999997
 74
     0
 49
-6.349999999999997
 74
     0
  0
ENDTAB
  0
TABLE
  2
LAYER
  5
2
330
0
100
AcDbSymbolTable
 70
     8
  0
LAYER
  5
14
330
2
100
AcDbSymbolTableRecord
100
AcDbLayerTableRecord
  2
0
 70
     0
 62
     7
  6
CONTINUOUS
370
    -3
390
3E6
  0
LAYER
  5
1D
330
2
100
AcDbSymbolTableRecord
100
AcDbLayerTableRecord
  2
本体
 70
     0
 62
     7
  6
CONTINUOUS
370
    -3
390
3E6
  0
LAYER
  5
1E
330
2
100
AcDbSymbolTableRecord
100
AcDbLayerTableRecord
  2
DEFPOINTS
 70
     0
 62
     7
  6
CONTINUOUS
290
     0
370
    -3
390
3E6
  0
LAYER
  5
F98
330
2
100
AcDbSymbolTableRecord
100
AcDbLayerTableRecord
  2
ear
 70
     0
 62
   200
  6
CONTINUOUS
370
    -3
390
3E6
  0
LAYER
  5
FB4
330
2
100
AcDbSymbolTableRecord
100
AcDbLayerTableRecord
  2
寸法
 70
     0
 62
     7
  6
CONTINUOUS
370
    -3
390
3E6
  0
LAYER
  5
1A21
330
2
100
AcDbSymbolTableRecord
100
AcDbLayerTableRecord
  2
底面
 70
     0
 62
     7
  6
CONTINUOUS
370
    -3
390
3E6
  0
LAYER
  5
3975
330
2
100
AcDbSymbolTableRecord
100
AcDbLayerTableRecord
  2
1
 70
     0
 62
     7
  6
CONTINUOUS
370
    -3
390
3E6
  0
LAYER
  5
49CE
330
2
100
AcDbSymbolTableRecord
100
AcDbLayerTableRecord
  2
底面共通
 70
     0
 62
     7
  6
CONTINUOUS
370
    -3
390
3E6
  0
ENDTAB
  0
TABLE
  2
STYLE
  5
3
330
0
100
AcDbSymbolTable
 70
     4
  0
STYLE
  5
17
330
3
100
AcDbSymbolTableRecord
100
AcDbTextStyleTableRecord
  2
MX_NOTE_STANDARD
 70
     0
 40
4.1656
 41
1.0
 50
0.0
 71
     0
 42
4.1656
  3
txt.shx
  4
extfont.shx
  0
STYLE
  5
3E4
330
3
100
AcDbSymbolTableRecord
100
AcDbTextStyleTableRecord
  2
Standard
 70
     0
 40
0.0
 41
1.0
 50
0.0
 71
     0
 42
0.2
  3

  4

  0
STYLE
  5
2A2B
330
3
100
AcDbSymbolTableRecord
100
AcDbTextStyleTableRecord
  2
幅0.6高さ2.3
 70
     0
 40
2.299999999999998
 41
0.6
 50
0.0
 71
     0
 42
2.299999999999998
  3
txt.shx
  4
extfont.shx
  0
STYLE
  5
2A2C
330
3
100
AcDbSymbolTableRecord
100
AcDbTextStyleTableRecord
  2
幅0.8高さ2.3
 70
     0
 40
2.299999999999998
 41
0.8
 50
0.0
 71
     0
 42
4.1656
  3
txt.shx
  4
extfont.shx
  0
ENDTAB
  0
TABLE
  2
VIEW
  5
5
330
0
100
AcDbSymbolTable
 70
     0
  0
ENDTAB
  0
TABLE
  2
UCS
  5
6
330
0
100
AcDbSymbolTable
 70
     0
  0
ENDTAB
  0
TABLE
  2
APPID
  5
8
330
0
100
AcDbSymbolTable
 70
     1
  0
APPID
  5
16
330
8
100
AcDbSymbolTableRecord
100
AcDbRegAppTableRecord
  2
ACAD
 70
     0
  0
ENDTAB
  0
TABLE
  2
DIMSTYLE
  5
9
330
0
100
AcDbSymbolTable
 70
     5
100
AcDbDimStyleTable
 71
     2
340
84C
340
18
  0
DIMSTYLE
105
18
330
9
100
AcDbSymbolTableRecord
100
AcDbDimStyleTableRecord
  2
MXDIMSTYLE
 70
     0
 41
2.5
 42
1.0
 43
3.75
 44
1.0
 73
     0
 74
     0
 77
     1
 78
     8
140
4.1656
141
2.5
143
0.0394
147
1.0
171
     4
172
     1
273
     8
274
     4
288
     1
340
17
  0
DIMSTYLE
105
84B
330
9
100
AcDbSymbolTableRecord
100
AcDbDimStyleTableRecord
  2
Standard
 70
     0
340
3E4
  0
DIMSTYLE
105
84C
102
{ACAD_REACTORS
330
293
330
2A2
330
2AF
330
2C0
330
E12
330
187B
330
6FBD
330
6FCC
102
}
330
9
100
AcDbSymbolTableRecord
100
AcDbDimStyleTableRecord
  2
ARTICS
 70
     0
 41
4.0
 42
1.0
 43
0.0
 44
1.0
 73
     0
 77
     1
 78
     8
140
4.1656
141
2.5
143
0.0394
147
1.0
171
     4
172
     1
178
     6
271
     1
272
     1
273
     8
274
     4
288
     1
340
17
341
26C
342
26C
371
    13
372
    13
  0
DIMSTYLE
105
2A2D
330
9
100
AcDbSymbolTableRecord
100
AcDbDimStyleTableRecord
  2
ISO-25
 70
     0
 41
2.5
 42
0.625
 43
3.75
 44
1.25
 73
     0
 74
     0
 77
     1
 78
     8
140
2.5
141
2.5
143
0.03937007874016
147
0.625
171
     3
172
     1
271
     2
272
     2
274
     3
283
     0
284
     8
340
3E4
  0
DIMSTYLE
105
2A2E
330
9
100
AcDbSymbolTableRecord
100
AcDbDimStyleTableRecord
  2
ARTICS2
 70
     0
 41
3.0
 42
1.0
 43
0.0
 44
1.0
 73
     0
 77
     1
 78
     8
140
3.0
141
0.0
143
0.0394
147
1.0
171
     4
172
     1
176
   256
178
     6
271
     1
272
     1
273
     8
274
     4
288
     1
340
3E4
341
26C
342
26C
371
    13
372
    13
  0
ENDTAB
  0
TABLE
  2
BLOCK_RECORD
  5
1
330
0
100
AcDbSymbolTable
 70
    50
  0
BLOCK_RECORD
  5
A
330
1
100
AcDbSymbolTableRecord
100
AcDbBlockTableRecord
  2
*MODEL_SPACE
340
3E9
  0
BLOCK_RECORD
  5
ED3
330
1
100
AcDbSymbolTableRecord
100
AcDbBlockTableRecord
  2
*Paper_Space
340
ED4
  0
BLOCK_RECORD
  5
26C
330
1
100
AcDbSymbolTableRecord
100
AcDbBlockTableRecord
  2
_OPEN30
340
0
102
{BLKREFS
331
8DC
331
8DD
331
8E5
331
8E6
331
8F9
331
8FA
331
916
331
917
331
EB3
331
EB4
331
EBC
331
EBD
331
F9C
331
F9D
331
FA5
331
FA6
331
FAE
331
FAF
331
FB8
331
FB9
331
FC1
331
FC2
331
FCC
331
FCD
331
FD5
331
FD6
331
FDE
331
FDF
331
FE7
331
FE8
331
FF2
331
FF3
331
FFB
331
FFC
331
1008
331
1009
331
1011
331
1012
331
101A
331
101B
331
1025
331
1026
331
1030
331
1031
331
1039
331
103A
331
1042
331
1043
331
104B
331
104C
331
1054
331
1055
331
185A
331
185B
331
1863
331
1864
331
186C
331
186D
331
1875
331
1876
331
1880
331
1881
331
188B
331
188C
331
1896
331
1897
331
18A1
331
18A2
331
18AC
331
18AD
331
18B5
331
18B6
331
18BE
331
18BF
331
18C7
331
18C8
331
18D0
331
18D1
331
18D9
331
18DA
331
18E2
331
18E3
331
18ED
331
18EE
331
18F6
331
18F7
331
1903
331
1904
331
190E
331
190F
331
1915
331
191D
331
1923
331
195F
331
1960
331
1A26
331
1A27
331
1A31
331
1A32
331
1A3B
331
1A3C
331
1A46
331
1A47
331
1A4F
331
1A50
331
1A5A
331
1A5B
331
1A63
331
1A6B
331
1A6C
331
1A74
331
1A75
331
1AA7
331
1AA8
331
1AB3
331
1AB4
331
21E2
331
21E3
331
21EE
331
21EF
331
21F9
331
21FA
331
2202
331
2203
331
220B
331
220C
331
2214
331
2215
331
221D
331
221E
331
2226
331
2227
331
222F
331
2230
331
2238
331
2239
331
2241
331
2242
331
224A
331
224B
331
2253
331
2254
331
269D
331
269E
331
26A6
331
26A7
331
26AF
331
26B0
331
26B8
331
26B9
331
26C1
331
26C2
331
26CA
331
26CB
331
26D3
331
26D4
331
28F9
331
28FA
331
2902
331
2903
331
290B
331
290C
331
2916
331
2917
331
2921
331
2922
331
2A11
331
2A12
331
29EB
331
29EC
331
2A05
331
2A06
331
29FA
331
29FB
331
33A5
331
33A6
331
33B1
331
33B2
331
33BD
331
33BE
331
33CC
331
33CD
331
33D6
331
33D7
331
33DF
331
33E0
331
33E8
331
33E9
331
33F4
331
33F5
331
33FF
331
3400
331
3407
331
3408
331
3410
331
3411
331
3419
331
341A
331
3425
331
3426
331
342D
331
342E
331
3436
331
3437
331
343F
331
3440
331
3961
331
3962
331
396D
331
396E
331
3955
331
3956
331
429A
331
429B
331
42A6
331
42A7
331
42B4
331
42B5
331
42BF
331
42C0
331
42C8
331
42C9
331
42D3
331
42D4
331
42DC
331
42DD
331
42E5
331
42E6
331
42EE
331
42EF
331
42F7
331
42F8
331
4300
331
4301
331
4309
331
430A
331
4312
331
4313
331
431B
331
431C
331
4324
331
4325
331
432D
331
432E
331
4336
331
4337
331
433F
331
4340
331
49E4
331
49E5
331
49F0
331
49F1
331
49FE
331
49FF
331
4A0A
331
4A0B
331
557E
331
557F
331
558A
331
558B
331
5598
331
5599
331
55A4
331
55A5
331
55AF
331
55B0
331
55B8
331
55B9
331
55C3
331
55C4
331
55CC
331
55CD
331
55D5
331
55D6
331
55DE
331
55DF
331
55E7
331
55E8
331
55F2
331
55F3
331
55FB
331
55FC
331
5604
331
5605
331
560D
331
560E
331
5619
331
561A
331
5622
331
5623
331
562B
331
562C
331
5634
331
5635
331
5640
331
5641
331
5649
331
564A
331
5652
331
5653
331
565B
331
565C
331
5667
331
5668
331
5C35
331
5C36
331
5C29
331
5C2A
331
621D
331
621E
331
622B
331
622C
331
6236
331
6237
331
6241
331
6242
331
624A
331
624B
331
6253
331
6254
331
625C
331
625D
331
6265
331
6266
331
626E
331
626F
331
6277
331
6278
331
6280
331
6281
331
6289
331
628A
331
664C
331
664D
331
6640
331
6641
331
6BD6
331
6BD7
331
6BE2
331
6BE3
331
6BEF
331
6BF0
331
6BF8
331
6BF9
331
6C01
331
6C02
331
6C0C
331
6C0D
331
6C15
331
6C16
331
6C20
331
6C21
331
6C29
331
6C2A
331
6C32
331
6C33
331
6C3B
331
6C3C
331
6C44
331
6C45
331
6F20
331
6F21
331
6F29
331
6F2A
331
6F40
331
6F4A
331
6F4B
331
6FD1
331
6FDB
331
6FDC
331
6FE5
331
6FEC
331
6FED
331
6FF7
331
6FFE
331
6FFF
102
}
  0
BLOCK_RECORD
  5
722
330
1
100
AcDbSymbolTableRecord
100
AcDbBlockTableRecord
  2
*D1
340
0
  0
BLOCK_RECORD
  5
72E
330
1
100
AcDbSymbolTableRecord
100
AcDbBlockTableRecord
  2
*D2
340
0
  0
BLOCK_RECORD
  5
75B
330
1
100
AcDbSymbolTableRecord
100
AcDbBlockTableRecord
  2
*D3
340
0
  0
BLOCK_RECORD
  5
767
330
1
100
AcDbSymbolTableRecord
100
AcDbBlockTableRecord
  2
*D4
340
0
  0
BLOCK_RECORD
  5
923
330
1
100
AcDbSymbolTableRecord
100
AcDbBlockTableRecord
  2
A3zuwaku_n
340
0
102
{BLKREFS
331
99A
102
}
  0
BLOCK_RECORD
  5
E62
330
1
100
AcDbSymbolTableRecord
100
AcDbBlockTableRecord
  2
*D6
340
0
  0
BLOCK_RECORD
  5
E6E
330
1
100
AcDbSymbolTableRecord
100
AcDbBlockTableRecord
  2
*D7
340
0
  0
BLOCK_RECORD
  5
EDD
330
1
100
AcDbSymbolTableRecord
100
AcDbBlockTableRecord
  2
A2zuwaku_tate_ban
340
0
102
{BLKREFS
331
F88
102
}
  0
BLOCK_RECORD
  5
1021
330
1
100
AcDbSymbolTableRecord
100
AcDbBlockTableRecord
  2
*D9
340
0
  0
BLOCK_RECORD
  5
187C
330
1
100
AcDbSymbolTableRecord
100
AcDbBlockTableRecord
  2
*D10
340
0
  0
BLOCK_RECORD
  5
18FD
330
1
100
AcDbSymbolTableRecord
100
AcDbBlockTableRecord
  2
*D11
340
0
  0
BLOCK_RECORD
  5
1AA3
330
1
100
AcDbSymbolTableRecord
100
AcDbBlockTableRecord
  2
*D12
340
0
  0
BLOCK_RECORD
  5
1AAF
330
1
100
AcDbSymbolTableRecord
100
AcDbBlockTableRecord
  2
*D13
340
0
  0
BLOCK_RECORD
  5
21DE
330
1
100
AcDbSymbolTableRecord
100
AcDbBlockTableRecord
  2
*D14
340
0
  0
BLOCK_RECORD
  5
21EA
330
1
100
AcDbSymbolTableRecord
100
AcDbBlockTableRecord
  2
*D15
340
0
  0
BLOCK_RECORD
  5
29E7
330
1
100
AcDbSymbolTableRecord
100
AcDbBlockTableRecord
  2
*D16
340
0
  0
BLOCK_RECORD
  5
29F3
330
1
100
AcDbSymbolTableRecord
100
AcDbBlockTableRecord
  2
*D17
340
0
  0
BLOCK_RECORD
  5
2A01
330
1
100
AcDbSymbolTableRecord
100
AcDbBlockTableRecord
  2
*D18
340
0
  0
BLOCK_RECORD
  5
2A0D
330
1
100
AcDbSymbolTableRecord
100
AcDbBlockTableRecord
  2
*D19
340
0
  0
BLOCK_RECORD
  5
33A1
330
1
100
AcDbSymbolTableRecord
100
AcDbBlockTableRecord
  2
*D20
340
0
  0
BLOCK_RECORD
  5
33AD
330
1
100
AcDbSymbolTableRecord
100
AcDbBlockTableRecord
  2
*D21
340
0
  0
BLOCK_RECORD
  5
33B9
330
1
100
AcDbSymbolTableRecord
100
AcDbBlockTableRecord
  2
*D22
340
0
  0
BLOCK_RECORD
  5
33C5
330
1
100
AcDbSymbolTableRecord
100
AcDbBlockTableRecord
  2
*D23
340
0
  0
BLOCK_RECORD
  5
3951
330
1
100
AcDbSymbolTableRecord
100
AcDbBlockTableRecord
  2
*D24
340
0
  0
BLOCK_RECORD
  5
395D
330
1
100
AcDbSymbolTableRecord
100
AcDbBlockTableRecord
  2
*D25
340
0
  0
BLOCK_RECORD
  5
3969
330
1
100
AcDbSymbolTableRecord
100
AcDbBlockTableRecord
  2
*D26
340
0
  0
BLOCK_RECORD
  5
4296
330
1
100
AcDbSymbolTableRecord
100
AcDbBlockTableRecord
  2
*D27
340
0
  0
BLOCK_RECORD
  5
42A2
330
1
100
AcDbSymbolTableRecord
100
AcDbBlockTableRecord
  2
*D28
340
0
  0
BLOCK_RECORD
  5
42AE
330
1
100
AcDbSymbolTableRecord
100
AcDbBlockTableRecord
  2
*D29
340
0
  0
BLOCK_RECORD
  5
49E0
330
1
100
AcDbSymbolTableRecord
100
AcDbBlockTableRecord
  2
*D30
340
0
  0
BLOCK_RECORD
  5
49EC
330
1
100
AcDbSymbolTableRecord
100
AcDbBlockTableRecord
  2
*D31
340
0
  0
BLOCK_RECORD
  5
49F8
330
1
100
AcDbSymbolTableRecord
100
AcDbBlockTableRecord
  2
*D32
340
0
  0
BLOCK_RECORD
  5
4A06
330
1
100
AcDbSymbolTableRecord
100
AcDbBlockTableRecord
  2
*D33
340
0
  0
BLOCK_RECORD
  5
557A
330
1
100
AcDbSymbolTableRecord
100
AcDbBlockTableRecord
  2
*D34
340
0
  0
BLOCK_RECORD
  5
5586
330
1
100
AcDbSymbolTableRecord
100
AcDbBlockTableRecord
  2
*D35
340
0
  0
BLOCK_RECORD
  5
5592
330
1
100
AcDbSymbolTableRecord
100
AcDbBlockTableRecord
  2
*D36
340
0
  0
BLOCK_RECORD
  5
55A0
330
1
100
AcDbSymbolTableRecord
100
AcDbBlockTableRecord
  2
*D37
340
0
  0
BLOCK_RECORD
  5
5C25
330
1
100
AcDbSymbolTableRecord
100
AcDbBlockTableRecord
  2
*D38
340
0
  0
BLOCK_RECORD
  5
5C31
330
1
100
AcDbSymbolTableRecord
100
AcDbBlockTableRecord
  2
*D39
340
0
  0
BLOCK_RECORD
  5
6219
330
1
100
AcDbSymbolTableRecord
100
AcDbBlockTableRecord
  2
*D40
340
0
  0
BLOCK_RECORD
  5
6225
330
1
100
AcDbSymbolTableRecord
100
AcDbBlockTableRecord
  2
*D41
340
0
  0
BLOCK_RECORD
  5
663C
330
1
100
AcDbSymbolTableRecord
100
AcDbBlockTableRecord
  2
*D42
340
0
  0
BLOCK_RECORD
  5
6648
330
1
100
AcDbSymbolTableRecord
100
AcDbBlockTableRecord
  2
*D43
340
0
  0
BLOCK_RECORD
  5
6BD0
330
1
100
AcDbSymbolTableRecord
100
AcDbBlockTableRecord
  2
*D44
340
0
  0
BLOCK_RECORD
  5
6BDE
330
1
100
AcDbSymbolTableRecord
100
AcDbBlockTableRecord
  2
*D45
340
0
  0
BLOCK_RECORD
  5
6F3C
330
1
100
AcDbSymbolTableRecord
100
AcDbBlockTableRecord
  2
*D46
340
0
  0
BLOCK_RECORD
  5
6F45
330
1
100
AcDbSymbolTableRecord
100
AcDbBlockTableRecord
  2
*D47
340
0
  0
BLOCK_RECORD
  5
6FCD
330
1
100
AcDbSymbolTableRecord
100
AcDbBlockTableRecord
  2
*D48
340
0
  0
BLOCK_RECORD
  5
6FD6
330
1
100
AcDbSymbolTableRecord
100
AcDbBlockTableRecord
  2
*D49
340
0
  0
ENDTAB
  0
ENDSEC
  0
SECTION
  2
BLOCKS
  0
BLOCK
  5
D
330
A
100
AcDbEntity
  8
0
100
AcDbBlockBegin
  2
*MODEL_SPACE
 70
     0
 10
0.0
 20
0.0
 30
0.0
  3
*MODEL_SPACE
  1

  0
ENDBLK
  5
E
330
A
100
AcDbEntity
  8
0
100
AcDbBlockEnd
  0
BLOCK
  5
ED5
330
ED3
100
AcDbEntity
 67
     1
  8
0
100
AcDbBlockBegin
  2
*Paper_Space
 70
     0
 10
0.0
 20
0.0
 30
0.0
  3
*Paper_Space
  1

  0
ENDBLK
  5
ED6
330
ED3
100
AcDbEntity
 67
     1
  8
0
100
AcDbBlockEnd
  0
BLOCK
  5
26D
330
26C
100
AcDbEntity
  8
0
  6
ByBlock
 62
     0
100
AcDbBlockBegin
  2
_OPEN30
 70
     2
 10
0.0
 20
0.0
 30
0.0
  3
_OPEN30
  1

  0
LINE
  5
26E
330
26C
100
AcDbEntity
  8
0
  6
ByBlock
 62
     0
100
AcDbLine
 10
-1.0
 20
0.267949
 30
0.0
 11
0.0
 21
0.0
 31
0.0
  0
LINE
  5
26F
330
26C
100
AcDbEntity
  8
0
  6
ByBlock
 62
     0
100
AcDbLine
 10
0.0
 20
0.0
 30
0.0
 11
-1.0
 21
-0.267949
 31
0.0
  0
LINE
  5
270
330
26C
100
AcDbEntity
  8
0
  6
ByBlock
 62
     0
100
AcDbLine
 10
0.0
 20
0.0
 30
0.0
 11
-1.0
 21
0.0
 31
0.0
  0
ENDBLK
  5
271
330
26C
100
AcDbEntity
  8
0
  6
ByBlock
 62
     0
100
AcDbBlockEnd
  0
BLOCK
  5
72C
330
722
100
AcDbEntity
  8
0
100
AcDbBlockBegin
  2
*D1
 70
     1
 10
0.0
 20
0.0
 30
0.0
  3
*D1
  1

  0
LINE
  5
26C7
330
722
100
AcDbEntity
  8
寸法
  6
Continuous
 62
     0
370
    13
100
AcDbLine
 10
-230.7485509999999
 20
184.8882674483005
 30
0.0
 11
-230.7485509999999
 21
140.4198676363743
 31
0.0
  0
LINE
  5
26C8
330
722
100
AcDbEntity
  8
寸法
  6
Continuous
 62
     0
370
    13
100
AcDbLine
 10
235.2514489999999
 20
184.8882674483005
 30
0.0
 11
235.2514489999999
 21
140.4198676363743
 31
0.0
  0
LINE
  5
26C9
330
722
100
AcDbEntity
  8
寸法
  6
Continuous
 62
     0
370
    13
100
AcDbLine
 10
-226.7485509999999
 20
141.4198676363743
 30
0.0
 11
231.2514489999999
 21
141.4198676363743
 31
0.0
  0
INSERT
  5
26CA
330
722
100
AcDbEntity
  8
寸法
  6
Continuous
 62
     0
370
    13
100
AcDbBlockReference
  2
_OPEN30
 10
-230.7485509999999
 20
141.4198676363743
 30
0.0
 41
4.0
 42
4.0
 43
4.0
 50
180.0
  0
INSERT
  5
26CB
330
722
100
AcDbEntity
  8
寸法
  6
Continuous
 62
     0
370
    13
100
AcDbBlockReference
  2
_OPEN30
 10
235.2514489999999
 20
141.4198676363743
 30
0.0
 41
4.0
 42
4.0
 43
4.0
  0
MTEXT
  5
26CC
330
722
100
AcDbEntity
  8
寸法
  6
Continuous
 62
     6
100
AcDbMText
 10
0.5544602312297691
 20
146.4198676363743
 30
0.0
 40
8.0
 41
0.0
 71
     5
 72
     1
  1
\A1;466
  7
Standard
 73
     1
 44
1.0
  0
POINT
  5
26CD
330
722
100
AcDbEntity
  8
DEFPOINTS
  6
Continuous
 62
     0
100
AcDbPoint
 10
-230.7485509999999
 20
185.8882674483009
 30
0.0
  0
POINT
  5
26CE
330
722
100
AcDbEntity
  8
DEFPOINTS
  6
Continuous
 62
     0
100
AcDbPoint
 10
235.2514489999999
 20
185.8882674483009
 30
0.0
  0
POINT
  5
26CF
330
722
100
AcDbEntity
  8
DEFPOINTS
  6
Continuous
 62
     0
100
AcDbPoint
 10
235.2514489999999
 20
141.4198676363743
 30
0.0
  0
ENDBLK
  5
72D
330
722
100
AcDbEntity
  8
0
100
AcDbBlockEnd
  0
BLOCK
  5
738
330
72E
100
AcDbEntity
  8
0
100
AcDbBlockBegin
  2
*D2
 70
     1
 10
0.0
 20
0.0
 30
0.0
  3
*D2
  1

  0
LINE
  5
26D0
330
72E
100
AcDbEntity
  8
寸法
  6
Continuous
 62
     0
370
    13
100
AcDbLine
 10
-238.7485509999999
 20
185.2632674483009
 30
0.0
 11
-238.7485509999999
 21
117.1724716655794
 31
0.0
  0
LINE
  5
26D1
330
72E
100
AcDbEntity
  8
寸法
  6
Continuous
 62
     0
370
    13
100
AcDbLine
 10
243.2514489999999
 20
185.2632674483009
 30
0.0
 11
243.2514489999999
 21
117.1724716655794
 31
0.0
  0
LINE
  5
26D2
330
72E
100
AcDbEntity
  8
寸法
  6
Continuous
 62
     0
370
    13
100
AcDbLine
 10
-234.7485509999999
 20
118.1724716655794
 30
0.0
 11
239.2514489999999
 21
118.1724716655794
 31
0.0
  0
INSERT
  5
26D3
330
72E
100
AcDbEntity
  8
寸法
  6
Continuous
 62
     0
370
    13
100
AcDbBlockReference
  2
_OPEN30
 10
-238.7485509999999
 20
118.1724716655794
 30
0.0
 41
4.0
 42
4.0
 43
4.0
 50
180.0
  0
INSERT
  5
26D4
330
72E
100
AcDbEntity
  8
寸法
  6
Continuous
 62
     0
370
    13
100
AcDbBlockReference
  2
_OPEN30
 10
243.2514489999999
 20
118.1724716655794
 30
0.0
 41
4.0
 42
4.0
 43
4.0
  0
MTEXT
  5
26D5
330
72E
100
AcDbEntity
  8
寸法
  6
Continuous
 62
     6
100
AcDbMText
 10
0.308939573789758
 20
123.1724716655794
 30
0.0
 40
8.0
 41
0.0
 71
     5
 72
     1
  1
\A1;482
  7
Standard
 73
     1
 44
1.0
  0
POINT
  5
26D6
330
72E
100
AcDbEntity
  8
DEFPOINTS
  6
Continuous
 62
     0
100
AcDbPoint
 10
-238.7485509999999
 20
186.2632674483009
 30
0.0
  0
POINT
  5
26D7
330
72E
100
AcDbEntity
  8
DEFPOINTS
  6
Continuous
 62
     0
100
AcDbPoint
 10
243.2514489999999
 20
186.2632674483009
 30
0.0
  0
POINT
  5
26D8
330
72E
100
AcDbEntity
  8
DEFPOINTS
  6
Continuous
 62
     0
100
AcDbPoint
 10
243.2514489999999
 20
118.1724716655794
 30
0.0
  0
ENDBLK
  5
739
330
72E
100
AcDbEntity
  8
0
100
AcDbBlockEnd
  0
BLOCK
  5
765
330
75B
100
AcDbEntity
  8
0
100
AcDbBlockBegin
  2
*D3
 70
     1
 10
0.0
 20
0.0
 30
0.0
  3
*D3
  1

  0
LINE
  5
1A66
330
75B
100
AcDbEntity
  8
寸法
  6
Continuous
 62
     0
370
    13
100
AcDbLine
 10
242.7514509999999
 20
222.1382674483009
 30
0.0
 11
267.969157
 21
222.1382674483009
 31
0.0
  0
LINE
  5
1A67
330
75B
100
AcDbEntity
  8
寸法
  6
Continuous
 62
     0
370
    13
100
AcDbLine
 10
242.7514509999999
 20
190.3882674483009
 30
0.0
 11
267.969157
 21
190.3882674483009
 31
0.0
  0
LINE
  5
1A68
330
75B
100
AcDbEntity
  8
寸法
  6
Continuous
 62
     0
370
    13
100
AcDbLine
 10
266.9691569999999
 20
226.1382674483008
 30
0.0
 11
266.9691569999999
 21
230.1382674483007
 31
0.0
  0
LINE
  5
1A69
330
75B
100
AcDbEntity
  8
寸法
  6
Continuous
 62
     0
370
    13
100
AcDbLine
 10
266.9691569999999
 20
186.3882674483009
 30
0.0
 11
266.9691569999999
 21
182.3882674483009
 31
0.0
  0
LINE
  5
1A6A
330
75B
100
AcDbEntity
  8
寸法
  6
Continuous
 62
     0
370
    13
100
AcDbLine
 10
266.9691569999999
 20
222.1382674483009
 30
0.0
 11
266.9691569999999
 21
190.3882674483009
 31
0.0
  0
INSERT
  5
1A6B
330
75B
100
AcDbEntity
  8
寸法
  6
Continuous
 62
     0
370
    13
100
AcDbBlockReference
  2
_OPEN30
 10
266.9691569999999
 20
222.1382674483009
 30
0.0
 41
4.0
 42
4.0
 43
4.0
 50
270.0
  0
INSERT
  5
1A6C
330
75B
100
AcDbEntity
  8
寸法
  6
Continuous
 62
     0
370
    13
100
AcDbBlockReference
  2
_OPEN30
 10
266.9691569999999
 20
190.3882674483009
 30
0.0
 41
4.0
 42
4.0
 43
4.0
 50
90.0
  0
MTEXT
  5
1A6D
330
75B
100
AcDbEntity
  8
寸法
  6
Continuous
 62
     6
100
AcDbMText
 10
262.9691569999999
 20
206.263267448301
 30
0.0
 40
6.0
 41
0.0
 71
     5
 72
     1
  1
\A1;31.75
  7
Standard
 11
0.0000000000000001
 21
1.0
 31
0.0
 73
     1
 44
1.0
  0
POINT
  5
1A6E
330
75B
100
AcDbEntity
  8
DEFPOINTS
  6
Continuous
 62
     0
100
AcDbPoint
 10
241.7514509999999
 20
222.1382674483009
 30
0.0
  0
POINT
  5
1A6F
330
75B
100
AcDbEntity
  8
DEFPOINTS
  6
Continuous
 62
     0
100
AcDbPoint
 10
241.7514509999999
 20
190.3882674483009
 30
0.0
  0
POINT
  5
1A70
330
75B
100
AcDbEntity
  8
DEFPOINTS
  6
Continuous
 62
     0
100
AcDbPoint
 10
266.9691569999999
 20
190.3882674483009
 30
0.0
  0
ENDBLK
  5
766
330
75B
100
AcDbEntity
  8
0
100
AcDbBlockEnd
  0
BLOCK
  5
771
330
767
100
AcDbEntity
  8
0
100
AcDbBlockBegin
  2
*D4
 70
     1
 10
0.0
 20
0.0
 30
0.0
  3
*D4
  1

  0
LINE
  5
1A71
330
767
100
AcDbEntity
  8
寸法
  6
Continuous
 62
     0
370
    13
100
AcDbLine
 10
242.2514509999999
 20
228.2632674483008
 30
0.0
 11
284.924933
 21
228.2632674483008
 31
0.0
  0
LINE
  5
1A72
330
767
100
AcDbEntity
  8
寸法
  6
Continuous
 62
     0
370
    13
100
AcDbLine
 10
242.2514509999999
 20
184.2632674483009
 30
0.0
 11
284.924933
 21
184.2632674483009
 31
0.0
  0
LINE
  5
1A73
330
767
100
AcDbEntity
  8
寸法
  6
Continuous
 62
     0
370
    13
100
AcDbLine
 10
283.924933
 20
224.2632674483008
 30
0.0
 11
283.924933
 21
188.2632674483009
 31
0.0
  0
INSERT
  5
1A74
330
767
100
AcDbEntity
  8
寸法
  6
Continuous
 62
     0
370
    13
100
AcDbBlockReference
  2
_OPEN30
 10
283.924933
 20
228.2632674483008
 30
0.0
 41
4.0
 42
4.0
 43
4.0
 50
90.0
  0
INSERT
  5
1A75
330
767
100
AcDbEntity
  8
寸法
  6
Continuous
 62
     0
370
    13
100
AcDbBlockReference
  2
_OPEN30
 10
283.924933
 20
184.2632674483009
 30
0.0
 41
4.0
 42
4.0
 43
4.0
 50
270.0
  0
MTEXT
  5
1A76
330
767
100
AcDbEntity
  8
寸法
  6
Continuous
 62
     6
100
AcDbMText
 10
278.924933
 20
206.2632674483007
 30
0.0
 40
8.0
 41
0.0
 71
     5
 72
     1
  1
\A1;44
  7
Standard
 11
0.0000000000000001
 21
1.0
 31
0.0
 73
     1
 44
1.0
  0
POINT
  5
1A77
330
767
100
AcDbEntity
  8
DEFPOINTS
  6
Continuous
 62
     0
100
AcDbPoint
 10
241.2514509999999
 20
228.2632674483008
 30
0.0
  0
POINT
  5
1A78
330
767
100
AcDbEntity
  8
DEFPOINTS
  6
Continuous
 62
     0
100
AcDbPoint
 10
241.2514509999999
 20
184.2632674483009
 30
0.0
  0
POINT
  5
1A79
330
767
100
AcDbEntity
  8
DEFPOINTS
  6
Continuous
 62
     0
100
AcDbPoint
 10
283.924933
 20
184.2632674483009
 30
0.0
  0
ENDBLK
  5
772
330
767
100
AcDbEntity
  8
0
100
AcDbBlockEnd
  0
BLOCK
  5
998
330
923
100
AcDbEntity
  8
0
100
AcDbBlockBegin
  2
A3zuwaku_n
 70
     0
 10
0.0
 20
0.0
 30
0.0
  3
A3zuwaku_n
  1

  0
LINE
  5
924
330
923
100
AcDbEntity
  8
本体
  6
Continuous
 62
    20
100
AcDbLine
 10
403.7900162256923
 20
0.2059360198707569
 30
0.0
 11
403.7900162256923
 21
278.2564360198707
 31
0.0
  0
LINE
  5
925
330
923
100
AcDbEntity
  8
本体
  6
Continuous
 62
    20
100
AcDbLine
 10
0.4640162256925038
 20
278.2564360198707
 30
0.0
 11
403.7900162256923
 21
278.2564360198707
 31
0.0
  0
LINE
  5
926
330
923
100
AcDbEntity
  8
本体
  6
Continuous
 62
    20
100
AcDbLine
 10
230.6450162256924
 20
0.2059360198707569
 30
0.0
 11
230.6450162256924
 21
35.85343601987075
 31
0.0
  0
LINE
  5
927
330
923
100
AcDbEntity
  8
本体
  6
Continuous
 62
    20
100
AcDbLine
 10
312.1250162256925
 20
0.2059360198707569
 30
0.0
 11
312.1250162256925
 21
35.85343601987075
 31
0.0
  0
LINE
  5
928
330
923
100
AcDbEntity
  8
本体
  6
Continuous
 62
    20
100
AcDbLine
 10
312.1250162256925
 20
25.66843601987075
 30
0.0
 11
403.7900162256923
 21
25.66843601987075
 31
0.0
  0
LINE
  5
929
330
923
100
AcDbEntity
  8
本体
  6
Continuous
 62
    20
100
AcDbLine
 10
230.6450162256924
 20
30.76093601987075
 30
0.0
 11
312.1250162256925
 21
30.76093601987075
 31
0.0
  0
LINE
  5
92A
330
923
100
AcDbEntity
  8
本体
  6
Continuous
 62
    20
100
AcDbLine
 10
230.6450162256924
 20
15.48343601987076
 30
0.0
 11
312.1250162256925
 21
15.48343601987076
 31
0.0
  0
LINE
  5
92B
330
923
100
AcDbEntity
  8
本体
  6
Continuous
 62
    20
100
AcDbLine
 10
251.0150162256923
 20
15.48343601987076
 30
0.0
 11
251.0150162256923
 21
35.85343601987075
 31
0.0
  0
LINE
  5
92C
330
923
100
AcDbEntity
  8
本体
  6
Continuous
 62
    20
100
AcDbLine
 10
271.3850162256924
 20
15.48343601987076
 30
0.0
 11
271.3850162256924
 21
35.85343601987075
 31
0.0
  0
LINE
  5
92D
330
923
100
AcDbEntity
  8
本体
  6
Continuous
 62
    20
100
AcDbLine
 10
291.7550162256925
 20
15.48343601987076
 30
0.0
 11
291.7550162256925
 21
35.85343601987075
 31
0.0
  0
LINE
  5
92E
330
923
100
AcDbEntity
  8
本体
  6
Continuous
 62
    20
100
AcDbLine
 10
230.6450162256924
 20
20.57593601987075
 30
0.0
 11
291.7550162256925
 21
20.57593601987075
 31
0.0
  0
LINE
  5
92F
330
923
100
AcDbEntity
  8
本体
  6
Continuous
 62
    20
100
AcDbLine
 10
357.9575162256925
 20
25.66843601987075
 30
0.0
 11
357.9575162256925
 21
35.85343601987075
 31
0.0
  0
LINE
  5
930
330
923
100
AcDbEntity
  8
本体
  6
Continuous
 62
    20
100
AcDbLine
 10
312.1250162256925
 20
10.39093601987075
 30
0.0
 11
403.7900162256923
 21
10.39093601987075
 31
0.0
  0
LINE
  5
931
330
923
100
AcDbEntity
  8
本体
  6
Continuous
 62
    20
100
AcDbLine
 10
327.4025162256923
 20
0.2059360198707569
 30
0.0
 11
327.4025162256923
 21
10.39093601987075
 31
0.0
  0
LINE
  5
932
330
923
100
AcDbEntity
  8
本体
  6
Continuous
 62
    20
100
AcDbLine
 10
112.4990162256924
 20
0.2059360198707569
 30
0.0
 11
112.4990162256924
 21
35.85343601987075
 31
0.0
  0
LINE
  5
933
330
923
100
AcDbEntity
  8
本体
  6
Continuous
 62
    20
100
AcDbLine
 10
112.4990162256924
 20
5.298436019870758
 30
0.0
 11
230.6450162256924
 21
5.298436019870758
 31
0.0
  0
LINE
  5
934
330
923
100
AcDbEntity
  8
本体
  6
Continuous
 62
    20
100
AcDbLine
 10
112.4990162256924
 20
10.39093601987075
 30
0.0
 11
230.6450162256924
 21
10.39093601987075
 31
0.0
  0
LINE
  5
935
330
923
100
AcDbEntity
  8
本体
  6
Continuous
 62
    20
100
AcDbLine
 10
112.4990162256924
 20
15.48343601987076
 30
0.0
 11
230.6450162256924
 21
15.48343601987076
 31
0.0
  0
LINE
  5
936
330
923
100
AcDbEntity
  8
本体
  6
Continuous
 62
    20
100
AcDbLine
 10
112.4990162256924
 20
20.57593601987075
 30
0.0
 11
230.6450162256924
 21
20.57593601987075
 31
0.0
  0
LINE
  5
937
330
923
100
AcDbEntity
  8
本体
  6
Continuous
 62
    20
100
AcDbLine
 10
112.4990162256924
 20
25.66843601987075
 30
0.0
 11
230.6450162256924
 21
25.66843601987075
 31
0.0
  0
LINE
  5
938
330
923
100
AcDbEntity
  8
本体
  6
Continuous
 62
    20
100
AcDbLine
 10
112.4990162256924
 20
30.76093601987075
 30
0.0
 11
230.6450162256924
 21
30.76093601987075
 31
0.0
  0
LINE
  5
939
330
923
100
AcDbEntity
  8
本体
  6
Continuous
 62
    20
100
AcDbLine
 10
127.7765162256925
 20
0.2059360198707569
 30
0.0
 11
127.7765162256925
 21
35.85343601987075
 31
0.0
  0
LINE
  5
93A
330
923
100
AcDbEntity
  8
本体
  6
Continuous
 62
    20
100
AcDbLine
 10
181.7570162256924
 20
0.2059360198707569
 30
0.0
 11
181.7570162256924
 21
35.85343601987075
 31
0.0
  0
LINE
  5
93B
330
923
100
AcDbEntity
  8
本体
  6
Continuous
 62
    20
100
AcDbLine
 10
206.2010162256924
 20
0.2059360198707569
 30
0.0
 11
206.2010162256924
 21
35.85343601987075
 31
0.0
  0
MTEXT
  5
93C
330
923
100
AcDbEntity
  8
本体
  6
Continuous
 62
    20
100
AcDbMText
 10
1.684179225692483
 20
273.9379960198707
 30
0.0
 40
3.56475
 41
0.0
 71
     7
 72
     1
  1
\T0.782;\W0.700;\A1;Ｄｉｍｅｎｓｉｏｎｓ　ｉｎ　ｍｍ（ｎｏｔ　ｔｏ　ｓｃａｌｅ）
 73
     1
 44
1.0
  0
LINE
  5
93D
330
923
100
AcDbEntity
  8
本体
  6
Continuous
 62
    20
100
AcDbLine
 10
71.7590162256925
 20
273.1639360198706
 30
0.0
 11
71.7590162256925
 21
278.2564360198707
 31
0.0
  0
LINE
  5
93E
330
923
100
AcDbEntity
  8
本体
  6
Continuous
 62
    20
100
AcDbLine
 10
0.4640162256925038
 20
273.1639360198706
 30
0.0
 11
71.7590162256925
 21
273.1639360198706
 31
0.0
  0
LINE
  5
93F
330
923
100
AcDbEntity
  8
本体
  6
Continuous
 62
    20
100
AcDbLine
 10
112.4990162256924
 20
35.85343601987075
 30
0.0
 11
403.7900162256923
 21
35.85343601987075
 31
0.0
  0
MTEXT
  5
940
330
923
100
AcDbEntity
  8
本体
  6
Continuous
 62
    20
100
AcDbMText
 10
115.4112896631925
 20
4.025311019870756
 30
0.0
 40
2.54625
 41
0.0
 71
     1
 72
     1
  1
\T0.815;\W0.959;\A1;ＭＡＲＫ
 73
     1
 44
1.0
  0
MTEXT
  5
941
330
923
100
AcDbEntity
  8
本体
  6
Continuous
 62
    20
100
AcDbMText
 10
144.0725162256923
 20
4.025311019870756
 30
0.0
 40
2.54625
 41
0.0
 71
     1
 72
     1
  1
\T0.815;\W0.959;\A1;ＲＥＶＩＳＩＯＮＳ
 73
     1
 44
1.0
  0
MTEXT
  5
942
330
923
100
AcDbEntity
  8
本体
  6
Continuous
 62
    20
100
AcDbMText
 10
189.2525396631924
 20
4.025311019870756
 30
0.0
 40
2.54625
 41
0.0
 71
     1
 72
     1
  1
\T0.815;\W0.959;\A1;ＤＡＴＥ
 73
     1
 44
1.0
  0
MTEXT
  5
943
330
923
100
AcDbEntity
  8
本体
  6
Continuous
 62
    20
100
AcDbMText
 10
213.6965396631925
 20
4.025311019870756
 30
0.0
 40
2.54625
 41
0.0
 71
     1
 72
     1
  1
\T0.815;\W0.959;\A1;ＣＨ’Ｄ
 73
     1
 44
1.0
  0
MTEXT
  5
944
330
923
100
AcDbEntity
  8
本体
  6
Continuous
 62
    20
100
AcDbMText
 10
315.9482106006925
 20
4.432711019870763
 30
0.0
 40
2.74995
 41
0.0
 71
     1
 72
     1
  1
\T0.815;\W0.959;\A1;ＮＯ．
 73
     1
 44
1.0
  0
MTEXT
  5
945
330
923
100
AcDbEntity
  8
本体
  6
Continuous
 62
    20
100
AcDbMText
 10
313.2046262256924
 20
24.75178601987074
 30
0.0
 40
3.259199999999998
 41
0.0
 71
     1
 72
     1
  1
\T0.815;\W0.959;\A1;ＴＩＴＬＥ
 73
     1
 44
1.0
  0
MTEXT
  5
946
330
923
100
AcDbEntity
  8
本体
  6
Continuous
 62
    20
100
AcDbMText
 10
359.3579537256925
 20
34.98771101987076
 30
0.0
 40
2.54625
 41
0.0
 71
     1
 72
     1
  1
\T0.815;\W0.959;\A1;ＴＲＥＡＴＭＥＮＴ
 73
     1
 44
1.0
  0
MTEXT
  5
947
330
923
100
AcDbEntity
  8
本体
  6
Continuous
 62
    20
100
AcDbMText
 10
313.5254537256924
 20
34.98771101987076
 30
0.0
 40
2.54625
 41
0.0
 71
     1
 72
     1
  1
\T0.815;\W0.959;\A1;ＭＡＴＥＲＩＡＬ
 73
     1
 44
1.0
  0
MTEXT
  5
948
330
923
100
AcDbEntity
  8
本体
  6
Continuous
 62
    20
100
AcDbMText
 10
313.3701324756923
 20
8.710411019870752
 30
0.0
 40
2.74995
 41
0.0
 71
     1
 72
     1
  1
\T0.815;\W0.959;\A1;ＤＲＡＷ．
 73
     1
 44
1.0
  0
MTEXT
  5
949
330
923
100
AcDbEntity
  8
本体
  6
Continuous
 62
    20
100
AcDbMText
 10
295.5463824756924
 20
34.68216101987074
 30
0.0
 40
2.74995
 41
0.0
 71
     1
 72
     1
  1
\T0.815;\W0.959;\A1;ＳＣＡＬＥ
 73
     1
 44
1.0
  0
MTEXT
  5
94A
330
923
100
AcDbEntity
  8
本体
  6
Continuous
 62
    20
100
AcDbMText
 10
275.1763824756924
 20
34.68216101987074
 30
0.0
 40
2.74995
 41
0.0
 71
     1
 72
     1
  1
\T0.815;\W0.959;\A1;ＡＰＰ’Ｄ
 73
     1
 44
1.0
  0
MTEXT
  5
94B
330
923
100
AcDbEntity
  8
本体
  6
Continuous
 62
    20
100
AcDbMText
 10
256.0954215381924
 20
34.68216101987074
 30
0.0
 40
2.74995
 41
0.0
 71
     1
 72
     1
  1
\T0.815;\W0.959;\A1;ＣＨ’Ｄ
 73
     1
 44
1.0
  0
MTEXT
  5
94C
330
923
100
AcDbEntity
  8
本体
  6
Continuous
 62
    20
100
AcDbMText
 10
234.4363824756924
 20
34.68216101987074
 30
0.0
 40
2.74995
 41
0.0
 71
     1
 72
     1
  1
\T0.815;\W0.959;\A1;ＤＥＳ’Ｄ
 73
     1
 44
1.0
  0
MTEXT
  5
94D
330
923
100
AcDbEntity
  8
本体
  6
Continuous
 62
    20
100
AcDbMText
 10
119.6794412256924
 20
8.353936019870758
 30
0.0
 40
2.036999999999999
 41
0.0
 71
     1
 72
     1
  1
\T1.043;\W1.226;\A1;1
 73
     1
 44
1.0
  0
MTEXT
  5
94E
330
923
100
AcDbEntity
  8
本体
  6
Continuous
 62
    20
100
AcDbMText
 10
119.3738912256925
 20
13.44643601987075
 30
0.0
 40
2.036999999999999
 41
0.0
 71
     1
 72
     1
  1
\T0.851;\A1;2
 73
     1
 44
1.0
  0
MTEXT
  5
94F
330
923
100
AcDbEntity
  8
本体
  6
Continuous
 62
    20
100
AcDbMText
 10
119.3738912256925
 20
18.53893601987076
 30
0.0
 40
2.036999999999999
 41
0.0
 71
     1
 72
     1
  1
\T0.851;\A1;3
 73
     1
 44
1.0
  0
MTEXT
  5
950
330
923
100
AcDbEntity
  8
本体
  6
Continuous
 62
    20
100
AcDbMText
 10
119.3738912256925
 20
23.63143601987076
 30
0.0
 40
2.036999999999999
 41
0.0
 71
     1
 72
     1
  1
\T0.851;\A1;4
 73
     1
 44
1.0
  0
MTEXT
  5
951
330
923
100
AcDbEntity
  8
本体
  6
Continuous
 62
    20
100
AcDbMText
 10
119.3738912256925
 20
28.72393601987076
 30
0.0
 40
2.036999999999999
 41
0.0
 71
     1
 72
     1
  1
\T0.851;\A1;5
 73
     1
 44
1.0
  0
MTEXT
  5
952
330
923
100
AcDbEntity
  8
本体
  6
Continuous
 62
    20
100
AcDbMText
 10
119.3738912256925
 20
33.81643601987075
 30
0.0
 40
2.036999999999999
 41
0.0
 71
     1
 72
     1
  1
\T0.851;\A1;6
 73
     1
 44
1.0
  0
MTEXT
  5
953
330
923
100
AcDbEntity
  8
本体
  6
Continuous
 62
    20
100
AcDbMText
 10
175.4423162256923
 20
282.4322860198707
 30
0.0
 40
3.259199999999998
 41
0.0
 71
     1
 72
     1
  1
\T0.851;\A1;4
 73
     1
 44
1.0
  0
MTEXT
  5
954
330
923
100
AcDbEntity
  8
本体
  6
Continuous
 62
    20
100
AcDbMText
 10
124.5173162256925
 20
282.4322860198707
 30
0.0
 40
3.259199999999998
 41
0.0
 71
     1
 72
     1
  1
\T0.851;\A1;3
 73
     1
 44
1.0
  0
MTEXT
  5
955
330
923
100
AcDbEntity
  8
本体
  6
Continuous
 62
    20
100
AcDbMText
 10
73.59231622569251
 20
282.4322860198707
 30
0.0
 40
3.259199999999998
 41
0.0
 71
     1
 72
     1
  1
\T0.851;\A1;2
 73
     1
 44
1.0
  0
LINE
  5
956
330
923
100
AcDbEntity
  8
本体
  6
Continuous
 62
    20
100
AcDbLine
 10
49.3520162256925
 20
278.2564360198707
 30
0.0
 11
49.3520162256925
 21
280.8026860198704
 31
0.0
  0
LINE
  5
957
330
923
100
AcDbEntity
  8
本体
  6
Continuous
 62
    20
100
AcDbLine
 10
100.2770162256925
 20
278.2564360198707
 30
0.0
 11
100.2770162256925
 21
280.8026860198704
 31
0.0
  0
LINE
  5
958
330
923
100
AcDbEntity
  8
本体
  6
Continuous
 62
    20
100
AcDbLine
 10
151.2020162256924
 20
278.2564360198707
 30
0.0
 11
151.2020162256924
 21
280.8026860198704
 31
0.0
  0
MTEXT
  5
959
330
923
100
AcDbEntity
  8
本体
  6
Continuous
 62
    20
100
AcDbMText
 10
226.3673162256925
 20
282.4322860198707
 30
0.0
 40
3.259199999999998
 41
0.0
 71
     1
 72
     1
  1
\T0.851;\A1;5
 73
     1
 44
1.0
  0
MTEXT
  5
95A
330
923
100
AcDbEntity
  8
本体
  6
Continuous
 62
    20
100
AcDbMText
 10
277.2923162256925
 20
282.4322860198707
 30
0.0
 40
3.259199999999998
 41
0.0
 71
     1
 72
     1
  1
\T0.851;\A1;6
 73
     1
 44
1.0
  0
MTEXT
  5
95B
330
923
100
AcDbEntity
  8
本体
  6
Continuous
 62
    20
100
AcDbMText
 10
328.2173162256923
 20
282.4322860198707
 30
0.0
 40
3.259199999999998
 41
0.0
 71
     1
 72
     1
  1
\T0.851;\A1;7
 73
     1
 44
1.0
  0
MTEXT
  5
95C
330
923
100
AcDbEntity
  8
本体
  6
Continuous
 62
    20
100
AcDbMText
 10
378.1238162256925
 20
282.4322860198707
 30
0.0
 40
3.259199999999998
 41
0.0
 71
     1
 72
     1
  1
\T0.851;\A1;8
 73
     1
 44
1.0
  0
MTEXT
  5
95D
330
923
100
AcDbEntity
  8
本体
  6
Continuous
 62
    20
100
AcDbMText
 10
405.1140662256925
 20
115.3982860198704
 30
0.0
 40
3.259199999999998
 41
0.0
 71
     1
 72
     1
  1
\T0.851;\A1;D
 73
     1
 44
1.0
  0
MTEXT
  5
95E
330
923
100
AcDbEntity
  8
本体
  6
Continuous
 62
    20
100
AcDbMText
 10
405.1140662256925
 20
64.47328601987074
 30
0.0
 40
3.259199999999998
 41
0.0
 71
     1
 72
     1
  1
\T0.851;\A1;E
 73
     1
 44
1.0
  0
LINE
  5
95F
330
923
100
AcDbEntity
  8
本体
  6
Continuous
 62
    20
100
AcDbLine
 10
403.7900162256923
 20
37.38118601987076
 30
0.0
 11
406.3362662256925
 21
37.38118601987076
 31
0.0
  0
LINE
  5
960
330
923
100
AcDbEntity
  8
本体
  6
Continuous
 62
    20
100
AcDbLine
 10
403.7900162256923
 20
88.30618601987074
 30
0.0
 11
406.3362662256925
 21
88.30618601987074
 31
0.0
  0
MTEXT
  5
961
330
923
100
AcDbEntity
  8
本体
  6
Continuous
 62
    20
100
AcDbMText
 10
405.1140662256925
 20
166.3232860198704
 30
0.0
 40
3.259199999999998
 41
0.0
 71
     1
 72
     1
  1
\T0.851;\A1;C
 73
     1
 44
1.0
  0
MTEXT
  5
962
330
923
100
AcDbEntity
  8
本体
  6
Continuous
 62
    20
100
AcDbMText
 10
405.1140662256925
 20
217.2482860198706
 30
0.0
 40
3.259199999999998
 41
0.0
 71
     1
 72
     1
  1
\T0.851;\A1;B
 73
     1
 44
1.0
  0
MTEXT
  5
963
330
923
100
AcDbEntity
  8
本体
  6
Continuous
 62
    20
100
AcDbMText
 10
405.1140662256925
 20
261.2984110198707
 30
0.0
 40
3.259199999999998
 41
0.0
 71
     1
 72
     1
  1
\T0.851;\A1;A
 73
     1
 44
1.0
  0
LINE
  5
964
330
923
100
AcDbEntity
  8
本体
  6
Continuous
 62
    20
100
AcDbLine
 10
403.7900162256923
 20
241.0811860198706
 30
0.0
 11
406.3362662256925
 21
241.0811860198706
 31
0.0
  0
LINE
  5
965
330
923
100
AcDbEntity
  8
本体
  6
Continuous
 62
    20
100
AcDbLine
 10
403.7900162256923
 20
190.1561860198706
 30
0.0
 11
406.3362662256925
 21
190.1561860198706
 31
0.0
  0
LINE
  5
966
330
923
100
AcDbEntity
  8
本体
  6
Continuous
 62
    20
100
AcDbLine
 10
354.9020162256923
 20
278.2564360198707
 30
0.0
 11
354.9020162256923
 21
280.8026860198704
 31
0.0
  0
LINE
  5
967
330
923
100
AcDbEntity
  8
本体
  6
Continuous
 62
    20
100
AcDbLine
 10
303.9770162256923
 20
278.2564360198707
 30
0.0
 11
303.9770162256923
 21
280.8026860198704
 31
0.0
  0
LINE
  5
968
330
923
100
AcDbEntity
  8
本体
  6
Continuous
 62
    20
100
AcDbLine
 10
253.0520162256923
 20
278.2564360198707
 30
0.0
 11
253.0520162256923
 21
280.8026860198704
 31
0.0
  0
LINE
  5
969
330
923
100
AcDbEntity
  8
本体
  6
Continuous
 62
    20
100
AcDbLine
 10
403.7900162256923
 20
139.2311860198707
 30
0.0
 11
407.8640162256925
 21
139.2311860198707
 31
0.0
  0
LINE
  5
96A
330
923
100
AcDbEntity
  8
本体
  6
Continuous
 62
    20
100
AcDbLine
 10
202.1270162256924
 20
278.2564360198707
 30
0.0
 11
202.1270162256924
 21
282.3304360198706
 31
0.0
  0
MTEXT
  5
96B
330
923
100
AcDbEntity
  8
本体
  6
Continuous
 62
    20
100
AcDbMText
 10
405.1140662256925
 20
20.42316101987075
 30
0.0
 40
3.259199999999998
 41
0.0
 71
     1
 72
     1
  1
\T0.851;\A1;F
 73
     1
 44
1.0
  0
MTEXT
  5
96C
330
923
100
AcDbEntity
  8
本体
  6
Continuous
 62
    20
100
AcDbMText
 10
24.1746962256925
 20
282.4322860198707
 30
0.0
 40
3.259199999999998
 41
0.0
 71
     1
 72
     1
  1
\T1.043;\W1.226;\A1;1
 73
     1
 44
1.0
  0
MTEXT
  5
96D
330
923
100
AcDbEntity
  8
本体
  6
Continuous
 62
    20
100
AcDbMText
 10
175.4423162256923
 20
-0.710713980129248
 30
0.0
 40
3.259199999999998
 41
0.0
 71
     1
 72
     1
  1
\T0.851;\A1;4
 73
     1
 44
1.0
  0
MTEXT
  5
96E
330
923
100
AcDbEntity
  8
本体
  6
Continuous
 62
    20
100
AcDbMText
 10
124.5173162256925
 20
-0.710713980129248
 30
0.0
 40
3.259199999999998
 41
0.0
 71
     1
 72
     1
  1
\T0.851;\A1;3
 73
     1
 44
1.0
  0
MTEXT
  5
96F
330
923
100
AcDbEntity
  8
本体
  6
Continuous
 62
    20
100
AcDbMText
 10
73.59231622569251
 20
-0.710713980129248
 30
0.0
 40
3.259199999999998
 41
0.0
 71
     1
 72
     1
  1
\T0.851;\A1;2
 73
     1
 44
1.0
  0
LINE
  5
970
330
923
100
AcDbEntity
  8
本体
  6
Continuous
 62
    20
100
AcDbLine
 10
49.3520162256925
 20
0.2059360198707569
 30
0.0
 11
49.3520162256925
 21
-2.34031398012924
 31
0.0
  0
LINE
  5
971
330
923
100
AcDbEntity
  8
本体
  6
Continuous
 62
    20
100
AcDbLine
 10
100.2770162256925
 20
0.2059360198707569
 30
0.0
 11
100.2770162256925
 21
-2.34031398012924
 31
0.0
  0
LINE
  5
972
330
923
100
AcDbEntity
  8
本体
  6
Continuous
 62
    20
100
AcDbLine
 10
151.2020162256924
 20
0.2059360198707569
 30
0.0
 11
151.2020162256924
 21
-2.34031398012924
 31
0.0
  0
MTEXT
  5
973
330
923
100
AcDbEntity
  8
本体
  6
Continuous
 62
    20
100
AcDbMText
 10
226.3673162256925
 20
-0.710713980129248
 30
0.0
 40
3.259199999999998
 41
0.0
 71
     1
 72
     1
  1
\T0.851;\A1;5
 73
     1
 44
1.0
  0
MTEXT
  5
974
330
923
100
AcDbEntity
  8
本体
  6
Continuous
 62
    20
100
AcDbMText
 10
277.2923162256925
 20
-0.710713980129248
 30
0.0
 40
3.259199999999998
 41
0.0
 71
     1
 72
     1
  1
\T0.851;\A1;6
 73
     1
 44
1.0
  0
MTEXT
  5
975
330
923
100
AcDbEntity
  8
本体
  6
Continuous
 62
    20
100
AcDbMText
 10
328.2173162256923
 20
-0.710713980129248
 30
0.0
 40
3.259199999999998
 41
0.0
 71
     1
 72
     1
  1
\T0.851;\A1;7
 73
     1
 44
1.0
  0
MTEXT
  5
976
330
923
100
AcDbEntity
  8
本体
  6
Continuous
 62
    20
100
AcDbMText
 10
378.1238162256925
 20
-0.710713980129248
 30
0.0
 40
3.259199999999998
 41
0.0
 71
     1
 72
     1
  1
\T0.851;\A1;8
 73
     1
 44
1.0
  0
LINE
  5
977
330
923
100
AcDbEntity
  8
本体
  6
Continuous
 62
    20
100
AcDbLine
 10
354.9020162256923
 20
0.2059360198707569
 30
0.0
 11
354.9020162256923
 21
-2.34031398012924
 31
0.0
  0
LINE
  5
978
330
923
100
AcDbEntity
  8
本体
  6
Continuous
 62
    20
100
AcDbLine
 10
303.9770162256923
 20
0.2059360198707569
 30
0.0
 11
303.9770162256923
 21
-2.34031398012924
 31
0.0
  0
LINE
  5
979
330
923
100
AcDbEntity
  8
本体
  6
Continuous
 62
    20
100
AcDbLine
 10
253.0520162256923
 20
0.2059360198707569
 30
0.0
 11
253.0520162256923
 21
-2.34031398012924
 31
0.0
  0
LINE
  5
97A
330
923
100
AcDbEntity
  8
本体
  6
Continuous
 62
    20
100
AcDbLine
 10
202.1270162256924
 20
0.2059360198707569
 30
0.0
 11
202.1270162256924
 21
-3.868063980129242
 31
0.0
  0
MTEXT
  5
97B
330
923
100
AcDbEntity
  8
本体
  6
Continuous
 62
    20
100
AcDbMText
 10
24.1746962256925
 20
-0.710713980129248
 30
0.0
 40
3.259199999999998
 41
0.0
 71
     1
 72
     1
  1
\T1.043;\W1.226;\A1;1
 73
     1
 44
1.0
  0
MTEXT
  5
97C
330
923
100
AcDbEntity
  8
本体
  6
Continuous
 62
    20
100
AcDbMText
 10
-3.304433774307481
 20
115.3982860198704
 30
0.0
 40
3.259199999999998
 41
0.0
 71
     1
 72
     1
  1
\T0.851;\A1;D
 73
     1
 44
1.0
  0
MTEXT
  5
97D
330
923
100
AcDbEntity
  8
本体
  6
Continuous
 62
    20
100
AcDbMText
 10
-3.304433774307481
 20
64.47328601987074
 30
0.0
 40
3.259199999999998
 41
0.0
 71
     1
 72
     1
  1
\T0.851;\A1;E
 73
     1
 44
1.0
  0
LINE
  5
97E
330
923
100
AcDbEntity
  8
本体
  6
Continuous
 62
    20
100
AcDbLine
 10
0.4640162256925038
 20
37.38118601987076
 30
0.0
 11
-2.082233774307495
 21
37.38118601987076
 31
0.0
  0
LINE
  5
97F
330
923
100
AcDbEntity
  8
本体
  6
Continuous
 62
    20
100
AcDbLine
 10
0.4640162256925038
 20
88.30618601987074
 30
0.0
 11
-2.082233774307495
 21
88.30618601987074
 31
0.0
  0
MTEXT
  5
980
330
923
100
AcDbEntity
  8
本体
  6
Continuous
 62
    20
100
AcDbMText
 10
-3.304433774307481
 20
166.3232860198704
 30
0.0
 40
3.259199999999998
 41
0.0
 71
     1
 72
     1
  1
\T0.851;\A1;C
 73
     1
 44
1.0
  0
MTEXT
  5
981
330
923
100
AcDbEntity
  8
本体
  6
Continuous
 62
    20
100
AcDbMText
 10
-3.304433774307481
 20
217.2482860198706
 30
0.0
 40
3.259199999999998
 41
0.0
 71
     1
 72
     1
  1
\T0.851;\A1;B
 73
     1
 44
1.0
  0
MTEXT
  5
982
330
923
100
AcDbEntity
  8
本体
  6
Continuous
 62
    20
100
AcDbMText
 10
-3.304433774307481
 20
261.2984110198707
 30
0.0
 40
3.259199999999998
 41
0.0
 71
     1
 72
     1
  1
\T0.851;\A1;A
 73
     1
 44
1.0
  0
LINE
  5
983
330
923
100
AcDbEntity
  8
本体
  6
Continuous
 62
    20
100
AcDbLine
 10
0.4640162256925038
 20
241.0811860198706
 30
0.0
 11
-2.082233774307495
 21
241.0811860198706
 31
0.0
  0
LINE
  5
984
330
923
100
AcDbEntity
  8
本体
  6
Continuous
 62
    20
100
AcDbLine
 10
0.4640162256925038
 20
190.1561860198706
 30
0.0
 11
-2.082233774307495
 21
190.1561860198706
 31
0.0
  0
LINE
  5
985
330
923
100
AcDbEntity
  8
本体
  6
Continuous
 62
    20
100
AcDbLine
 10
0.4640162256925038
 20
139.2311860198707
 30
0.0
 11
-3.609983774307491
 21
139.2311860198707
 31
0.0
  0
MTEXT
  5
986
330
923
100
AcDbEntity
  8
本体
  6
Continuous
 62
    20
100
AcDbMText
 10
-3.304433774307481
 20
20.42316101987075
 30
0.0
 40
3.259199999999998
 41
0.0
 71
     1
 72
     1
  1
\T0.851;\A1;F
 73
     1
 44
1.0
  0
LWPOLYLINE
  5
987
330
923
100
AcDbEntity
  8
0
  6
Continuous
 62
    20
100
AcDbPolyline
 90
        4
 70
     1
 43
0.0
 10
0.4640162256925048
 20
0.205936019870758
 10
403.7900162256923
 20
0.205936019870758
 10
403.7900162256923
 20
278.2564360198707
 10
0.4640162256925048
 20
278.2564360198707
  0
LWPOLYLINE
  5
988
330
923
100
AcDbEntity
  8
0
  6
Continuous
 62
    20
100
AcDbPolyline
 90
        3
 70
   129
 43
0.0
 10
120.0496951848194
 20
35.42710327761815
 10
117.6511894574397
 20
31.27276949555156
 10
122.4482009121991
 20
31.27276949555156
  0
LWPOLYLINE
  5
989
330
923
100
AcDbEntity
  8
0
  6
Continuous
 62
    20
100
AcDbPolyline
 90
        3
 70
   129
 43
0.0
 10
120.0496951848194
 20
30.33460327761815
 10
117.6511894574397
 20
26.18026949555157
 10
122.4482009121991
 20
26.18026949555157
  0
LWPOLYLINE
  5
98A
330
923
100
AcDbEntity
  8
0
  6
Continuous
 62
    20
100
AcDbPolyline
 90
        3
 70
   129
 43
0.0
 10
120.0496951848194
 20
25.24210327761815
 10
117.6511894574397
 20
21.08776949555156
 10
122.4482009121991
 20
21.08776949555156
  0
LWPOLYLINE
  5
98B
330
923
100
AcDbEntity
  8
0
  6
Continuous
 62
    20
100
AcDbPolyline
 90
        3
 70
   129
 43
0.0
 10
120.0496951848194
 20
20.14960327761813
 10
117.6511894574397
 20
15.99526949555157
 10
122.4482009121991
 20
15.99526949555157
  0
LWPOLYLINE
  5
98C
330
923
100
AcDbEntity
  8
0
  6
Continuous
 62
    20
100
AcDbPolyline
 90
        3
 70
   129
 43
0.0
 10
120.0496951848194
 20
15.05710327761815
 10
117.6511894574397
 20
10.90276949555156
 10
122.4482009121991
 20
10.90276949555156
  0
LWPOLYLINE
  5
98D
330
923
100
AcDbEntity
  8
0
  6
Continuous
 62
    20
100
AcDbPolyline
 90
        3
 70
   129
 43
0.0
 10
120.0496951848194
 20
9.964603277618152
 10
117.6511894574397
 20
5.810269495551565
 10
122.4482009121991
 20
5.810269495551565
  0
MTEXT
  5
98E
330
923
100
AcDbEntity
  8
0
  6
Continuous
 62
    20
 48
0.2
100
AcDbMText
 10
239.7006641553456
 20
13.72237873629646
 30
0.0
 40
5.5
 41
63.3036
 71
     1
 72
     5
  1
株式会社アルテックス
 73
     1
 44
1.0
  0
MTEXT
  5
98F
330
923
100
AcDbEntity
  8
0
  6
Continuous
 62
    20
 48
0.2
100
AcDbMText
 10
240.8950722616193
 20
5.662034636890437
 30
0.0
 40
3.0
 41
65.09525565518856
 71
     1
 72
     5
  1
Artics Co.,Ltd  CAD Dept
 73
     1
 44
1.0
  0
LINE
  5
990
330
923
100
AcDbEntity
  8
本体
  6
DASHED
 62
    20
 48
0.2
100
AcDbLine
 10
335.4025162256923
 20
0.2059360198707569
 30
0.0
 11
335.4025162256923
 21
10.39093601987075
 31
0.0
  0
LINE
  5
991
330
923
100
AcDbEntity
  8
本体
  6
DASHED
 62
    20
 48
0.2
100
AcDbLine
 10
343.4025162256923
 20
0.2059360198707569
 30
0.0
 11
343.4025162256923
 21
10.39093601987075
 31
0.0
  0
LINE
  5
992
330
923
100
AcDbEntity
  8
本体
  6
DASHED
 62
    20
 48
0.2
100
AcDbLine
 10
351.4025162256925
 20
0.2059360198707569
 30
0.0
 11
351.4025162256925
 21
10.39093601987075
 31
0.0
  0
LINE
  5
993
330
923
100
AcDbEntity
  8
本体
  6
DASHED
 62
    20
 48
0.2
100
AcDbLine
 10
359.4025162256925
 20
0.2059360198707569
 30
0.0
 11
359.4025162256925
 21
10.39093601987075
 31
0.0
  0
LINE
  5
994
330
923
100
AcDbEntity
  8
本体
  6
DASHED
 62
    20
 48
0.2
100
AcDbLine
 10
367.4025162256925
 20
0.2059360198707569
 30
0.0
 11
367.4025162256925
 21
10.39093601987075
 31
0.0
  0
LINE
  5
995
330
923
100
AcDbEntity
  8
本体
  6
DASHED
 62
    20
 48
0.2
100
AcDbLine
 10
375.4025162256925
 20
0.2059360198707569
 30
0.0
 11
375.4025162256925
 21
10.39093601987075
 31
0.0
  0
LINE
  5
996
330
923
100
AcDbEntity
  8
本体
  6
DASHED
 62
    20
 48
0.2
100
AcDbLine
 10
383.4025162256925
 20
0.2059360198707569
 30
0.0
 11
383.4025162256925
 21
10.39093601987075
 31
0.0
  0
LINE
  5
997
330
923
100
AcDbEntity
  8
本体
  6
DASHED
 62
    20
 48
0.2
100
AcDbLine
 10
391.4025162256925
 20
0.2059360198707569
 30
0.0
 11
391.4025162256925
 21
10.39093601987075
 31
0.0
  0
ENDBLK
  5
999
330
923
100
AcDbEntity
  8
0
100
AcDbBlockEnd
  0
BLOCK
  5
E6C
330
E62
100
AcDbEntity
  8
0
100
AcDbBlockBegin
  2
*D6
 70
     1
 10
0.0
 20
0.0
 30
0.0
  3
*D6
  1

  0
LINE
  5
6F26
330
E62
100
AcDbEntity
  8
寸法
  6
Continuous
 62
     0
370
    13
100
AcDbLine
 10
305.9299213345951
 20
409.2657594576341
 30
0.0
 11
340.4829582826633
 21
409.2657594576341
 31
0.0
  0
LINE
  5
6F27
330
E62
100
AcDbEntity
  8
寸法
  6
Continuous
 62
     0
370
    13
100
AcDbLine
 10
308.1299213345951
 20
269.2687594576344
 30
0.0
 11
340.4829582826633
 21
269.2687594576344
 31
0.0
  0
LINE
  5
6F28
330
E62
100
AcDbEntity
  8
寸法
  6
Continuous
 62
     0
370
    13
100
AcDbLine
 10
339.4829582826634
 20
405.2657594576341
 30
0.0
 11
339.4829582826633
 21
273.2687594576344
 31
0.0
  0
INSERT
  5
6F29
330
E62
100
AcDbEntity
  8
寸法
  6
Continuous
 62
     0
370
    13
100
AcDbBlockReference
  2
_OPEN30
 10
339.4829582826634
 20
409.2657594576341
 30
0.0
 41
4.0
 42
4.0
 43
4.0
 50
90.0
  0
INSERT
  5
6F2A
330
E62
100
AcDbEntity
  8
寸法
  6
Continuous
 62
     0
370
    13
100
AcDbBlockReference
  2
_OPEN30
 10
339.4829582826633
 20
269.2687594576344
 30
0.0
 41
4.0
 42
4.0
 43
4.0
 50
270.0
  0
MTEXT
  5
6F2B
330
E62
100
AcDbEntity
  8
寸法
  6
Continuous
 62
     6
100
AcDbMText
 10
334.4829582826633
 20
339.2672594576343
 30
0.0
 40
8.0
 41
0.0
 71
     5
 72
     1
  1
\A1;140
  7
Standard
 11
0.0000000000000001
 21
1.0
 31
0.0
 73
     1
 44
1.0
  0
POINT
  5
6F2C
330
E62
100
AcDbEntity
  8
DEFPOINTS
  6
Continuous
 62
     0
100
AcDbPoint
 10
304.9299213345951
 20
409.2657594576341
 30
0.0
  0
POINT
  5
6F2D
330
E62
100
AcDbEntity
  8
DEFPOINTS
  6
Continuous
 62
     0
100
AcDbPoint
 10
307.1299213345951
 20
269.2687594576344
 30
0.0
  0
POINT
  5
6F2E
330
E62
100
AcDbEntity
  8
DEFPOINTS
  6
Continuous
 62
     0
100
AcDbPoint
 10
339.4829582826633
 20
269.2687594576344
 30
0.0
  0
ENDBLK
  5
E6D
330
E62
100
AcDbEntity
  8
0
100
AcDbBlockEnd
  0
BLOCK
  5
E78
330
E6E
100
AcDbEntity
  8
0
100
AcDbBlockBegin
  2
*D7
 70
     1
 10
0.0
 20
0.0
 30
0.0
  3
*D7
  1

  0
LINE
  5
EB9
330
E6E
100
AcDbEntity
  8
本体
  6
Continuous
 62
     0
370
    13
100
AcDbLine
 10
279.3158389999999
 20
-86.29217300000012
 30
0.0
 11
279.3158389999999
 21
-107.6406550307152
 31
0.0
  0
LINE
  5
EBA
330
E6E
100
AcDbEntity
  8
本体
  6
Continuous
 62
     0
370
    13
100
AcDbLine
 10
322.1158389999998
 20
-87.29217300000009
 30
0.0
 11
322.1158389999998
 21
-107.6406550307152
 31
0.0
  0
LINE
  5
EBB
330
E6E
100
AcDbEntity
  8
本体
  6
Continuous
 62
     0
370
    13
100
AcDbLine
 10
283.3158389999998
 20
-106.6406550307152
 30
0.0
 11
318.1158389999998
 21
-106.6406550307152
 31
0.0
  0
INSERT
  5
EBC
330
E6E
100
AcDbEntity
  8
本体
  6
Continuous
 62
     0
370
    13
100
AcDbBlockReference
  2
_OPEN30
 10
279.3158389999999
 20
-106.6406550307152
 30
0.0
 41
4.0
 42
4.0
 43
4.0
 50
180.0
  0
INSERT
  5
EBD
330
E6E
100
AcDbEntity
  8
本体
  6
Continuous
 62
     0
370
    13
100
AcDbBlockReference
  2
_OPEN30
 10
322.1158389999998
 20
-106.6406550307152
 30
0.0
 41
4.0
 42
4.0
 43
4.0
  0
MTEXT
  5
EBE
330
E6E
100
AcDbEntity
  8
本体
  6
Continuous
 62
     6
100
AcDbMText
 10
300.6327753815511
 20
-101.6406550307151
 30
0.0
 40
8.0
 41
0.0
 71
     5
 72
     1
  1
\A1;42.8
  7
Standard
 73
     1
 44
1.0
  0
POINT
  5
EBF
330
E6E
100
AcDbEntity
  8
DEFPOINTS
  6
Continuous
 62
     0
100
AcDbPoint
 10
279.3158389999999
 20
-85.29217300000011
 30
0.0
  0
POINT
  5
EC0
330
E6E
100
AcDbEntity
  8
DEFPOINTS
  6
Continuous
 62
     0
100
AcDbPoint
 10
322.1158389999998
 20
-86.29217300000012
 30
0.0
  0
POINT
  5
EC1
330
E6E
100
AcDbEntity
  8
DEFPOINTS
  6
Continuous
 62
     0
100
AcDbPoint
 10
322.1158389999998
 20
-106.6406550307152
 30
0.0
  0
ENDBLK
  5
E79
330
E6E
100
AcDbEntity
  8
0
100
AcDbBlockEnd
  0
BLOCK
  5
F86
330
EDD
100
AcDbEntity
  8
0
100
AcDbBlockBegin
  2
A2zuwaku_tate_ban
 70
     0
 10
0.0
 20
0.0
 30
0.0
  3
A2zuwaku_tate_ban
  1

  0
LWPOLYLINE
  5
EDE
330
EDD
100
AcDbEntity
  8
0
  6
Continuous
 62
    20
100
AcDbPolyline
 90
        4
 70
     1
 43
0.0
 10
0.0
 20
0.0
 10
403.3259999999998
 20
0.0
 10
403.3259999999998
 20
556.101
 10
0.0
 20
556.101
  0
LINE
  5
EDF
330
EDD
100
AcDbEntity
  8
本体
  6
Continuous
 62
    20
100
AcDbLine
 10
0.0
 20
556.101
 30
0.0
 11
403.3259999999998
 21
556.101
 31
0.0
  0
MTEXT
  5
EE0
330
EDD
100
AcDbEntity
  8
0
  6
Continuous
 62
    20
 48
0.2
100
AcDbMText
 10
100.9120368161132
 20
23.98990730089127
 30
0.0
 40
2.0
 41
6.9836
 71
     1
 72
     5
  1
±0.3
 73
     1
 44
1.0
  0
MTEXT
  5
EE1
330
EDD
100
AcDbEntity
  8
0
  6
Continuous
 62
    20
 48
0.2
100
AcDbMText
 10
100.9120368161132
 20
18.72102743463239
 30
0.0
 40
2.0
 41
6.9836
 71
     1
 72
     5
  1
±0.5
 73
     1
 44
1.0
  0
MTEXT
  5
EE2
330
EDD
100
AcDbEntity
  8
0
  6
Continuous
 62
    20
 48
0.2
100
AcDbMText
 10
100.9120368161132
 20
8.422761210628724
 30
0.0
 40
2.0
 41
6.9836
 71
     1
 72
     5
  1
±1.2
 73
     1
 44
1.0
  0
MTEXT
  5
EE3
330
EDD
100
AcDbEntity
  8
0
  6
Continuous
 62
    20
 48
0.2
100
AcDbMText
 10
100.9120368161132
 20
13.69164107688761
 30
0.0
 40
2.0
 41
6.9836
 71
     1
 72
     5
  1
±0.8
 73
     1
 44
1.0
  0
MTEXT
  5
EE4
330
EDD
100
AcDbEntity
  8
0
  6
Continuous
 62
    20
 48
0.2
100
AcDbMText
 10
100.9120368161132
 20
3.393375608848888
 30
0.0
 40
2.0
 41
6.9836
 71
     1
 72
     5
  1
±2
 73
     1
 44
1.0
  0
MTEXT
  5
EE5
330
EDD
100
AcDbEntity
  8
0
  6
Continuous
 62
    20
 48
0.2
100
AcDbMText
 10
100.3066240282226
 20
29.02743086646325
 30
0.0
 40
2.0
 41
8.302046568063136
 71
     1
 72
     5
  1
Ｂ  級
 73
     1
 44
1.0
  0
LINE
  5
EE6
330
EDD
100
AcDbEntity
  8
本体
  6
Continuous
 62
    20
100
AcDbLine
 10
0.2581351789582262
 20
35.6475
 30
0.0
 11
403.3259999999998
 21
35.6475
 31
0.0
  0
LINE
  5
EE7
330
EDD
100
AcDbEntity
  8
本体
  6
Continuous
 62
    20
100
AcDbLine
 10
0.2581351789582262
 20
30.555
 30
0.0
 11
230.1809999999999
 21
30.555
 31
0.0
  0
LINE
  5
EE8
330
EDD
100
AcDbEntity
  8
本体
  6
Continuous
 62
    20
100
AcDbLine
 10
0.2581351789582262
 20
25.4625
 30
0.0
 11
230.1809999999999
 21
25.4625
 31
0.0
  0
LINE
  5
EE9
330
EDD
100
AcDbEntity
  8
本体
  6
Continuous
 62
    20
100
AcDbLine
 10
0.2581351789582262
 20
20.37
 30
0.0
 11
230.1809999999999
 21
20.37
 31
0.0
  0
LINE
  5
EEA
330
EDD
100
AcDbEntity
  8
本体
  6
Continuous
 62
    20
100
AcDbLine
 10
0.2581351789582262
 20
15.2775
 30
0.0
 11
230.1809999999999
 21
15.2775
 31
0.0
  0
LINE
  5
EEB
330
EDD
100
AcDbEntity
  8
本体
  6
Continuous
 62
    20
100
AcDbLine
 10
0.2581351789582262
 20
10.18499999999999
 30
0.0
 11
230.1809999999999
 21
10.18499999999999
 31
0.0
  0
LINE
  5
EEC
330
EDD
100
AcDbEntity
  8
本体
  6
Continuous
 62
    20
100
AcDbLine
 10
0.2581351789582262
 20
5.0925
 30
0.0
 11
230.1809999999999
 21
5.0925
 31
0.0
  0
MTEXT
  5
EED
330
EDD
100
AcDbEntity
  8
0
  6
Continuous
 62
    20
 48
0.2
100
AcDbMText
 10
4.816987857309056
 20
8.556527714770201
 30
0.0
 40
2.0
 41
32.2049
 71
     1
 72
     5
  1
１２０  〃     ４００  〃
 73
     1
 44
1.0
  0
MTEXT
  5
EEE
330
EDD
100
AcDbEntity
  8
0
  6
Continuous
 62
    20
 48
0.2
100
AcDbMText
 10
4.816987857309056
 20
3.411525573798658
 30
0.0
 40
2.0
 41
32.20492349478555
 71
     1
 72
     5
  1
４００  〃   １０００  〃
 73
     1
 44
1.0
  0
MTEXT
  5
EEF
330
EDD
100
AcDbEntity
  8
0
  6
Continuous
 62
    20
 48
0.2
100
AcDbMText
 10
6.595880331014412
 20
29.02743086646325
 30
0.0
 40
2.0
 41
27.03797675091755
 71
     1
 72
     5
  1
打抜きの普通寸法許容差
 73
     1
 44
1.0
  0
MTEXT
  5
EF0
330
EDD
100
AcDbEntity
  8
本体
  6
Continuous
 62
    20
100
AcDbMText
 10
-3.768449999999988
 20
36.76784999999995
 30
0.0
 40
3.259199999999998
 41
0.0
 71
     1
 72
     1
  1
\T0.851;H
 73
     1
 44
1.0
  0
LINE
  5
EF1
330
EDD
100
AcDbEntity
  8
本体
  6
Continuous
 62
    20
100
AcDbLine
 10
-0.0000000000000009
 20
60.60075000000001
 30
0.0
 11
-2.546250000000001
 21
60.60075000000001
 31
0.0
  0
LINE
  5
EF2
330
EDD
100
AcDbEntity
  8
本体
  6
Continuous
 62
    20
100
AcDbLine
 10
96.46143565474595
 20
-0.0000000000000011
 30
0.0
 11
96.46143565474595
 21
30.555
 31
0.0
  0
LINE
  5
EF3
330
EDD
100
AcDbEntity
  8
本体
  6
Continuous
 62
    20
100
AcDbLine
 10
55.99853818046401
 20
-0.0000000000000011
 30
0.0
 11
55.99853818046401
 21
30.555
 31
0.0
  0
LINE
  5
EF4
330
EDD
100
AcDbEntity
  8
本体
  6
Continuous
 62
    20
100
AcDbLine
 10
40.72103818046399
 20
-0.0000000000000011
 30
0.0
 11
40.72103818046399
 21
30.555
 31
0.0
  0
MTEXT
  5
EF5
330
EDD
100
AcDbEntity
  8
本体
  6
Continuous
 62
    20
100
AcDbMText
 10
23.71068
 20
-0.9166500000000059
 30
0.0
 40
3.259199999999998
 41
0.0
 71
     1
 72
     1
  1
\T1.043;\W1.226;\A1;1
 73
     1
 44
1.0
  0
MTEXT
  5
EF6
330
EDD
100
AcDbEntity
  8
0
  6
Continuous
 62
    20
 48
0.2
100
AcDbMText
 10
44.96260768898115
 20
3.393375608848888
 30
0.0
 40
2.0
 41
6.9836
 71
     1
 72
     5
  1
±0.8
 73
     1
 44
1.0
  0
LINE
  5
EF7
330
EDD
100
AcDbEntity
  8
本体
  6
Continuous
 62
    20
100
AcDbLine
 10
48.88799999999999
 20
-0.0000000000000011
 30
0.0
 11
48.88799999999999
 21
-2.546249999999999
 31
0.0
  0
MTEXT
  5
EF8
330
EDD
100
AcDbEntity
  8
0
  6
Continuous
 62
    20
 48
0.2
100
AcDbMText
 10
60.76641698444118
 20
3.411525573798658
 30
0.0
 40
2.0
 41
32.20492349478555
 71
     1
 72
     5
  1
４００  〃   １０００  〃
 73
     1
 44
1.0
  0
MTEXT
  5
EF9
330
EDD
100
AcDbEntity
  8
本体
  6
Continuous
 62
    20
100
AcDbMText
 10
73.12830000000002
 20
-0.9166500000000059
 30
0.0
 40
3.259199999999998
 41
0.0
 71
     1
 72
     1
  1
\T0.851;\A1;2
 73
     1
 44
1.0
  0
LINE
  5
EFA
330
EDD
100
AcDbEntity
  8
本体
  6
Continuous
 62
    20
100
AcDbLine
 10
99.81299999999999
 20
-0.0000000000000011
 30
0.0
 11
99.81299999999999
 21
-2.546249999999999
 31
0.0
  0
MTEXT
  5
EFB
330
EDD
100
AcDbEntity
  8
0
  6
Continuous
 62
    20
 48
0.2
100
AcDbMText
 10
32.52508095653171
 20
34.67595789410752
 30
0.0
 40
3.0
 41
51.59855965713518
 71
     1
 72
     5
  1
金属プレス加工品普通寸法公差
 73
     1
 44
1.0
  0
MTEXT
  5
EFC
330
EDD
100
AcDbEntity
  8
0
  6
Continuous
 62
    20
 48
0.2
100
AcDbMText
 10
28.19400993843474
 20
24.10965518909581
 30
0.0
 40
2.0
 41
11.1385
 71
     1
 72
     5
  1
６ 以下
 73
     1
 44
1.0
  0
MTEXT
  5
EFD
330
EDD
100
AcDbEntity
  8
0
  6
Continuous
 62
    20
 48
0.2
100
AcDbMText
 10
4.816987857309056
 20
13.99661023054415
 30
0.0
 40
2.0
 41
32.2049
 71
     1
 72
     5
  1
  ３０  〃     １２０  〃
 73
     1
 44
1.0
  0
MTEXT
  5
EFE
330
EDD
100
AcDbEntity
  8
0
  6
Continuous
 62
    20
 48
0.2
100
AcDbMText
 10
13.34130633665073
 20
18.65404741903494
 30
0.0
 40
2.0
 41
25.99124615738788
 71
     1
 72
     5
  1
６を超え  ３０  〃
 73
     1
 44
1.0
  0
MTEXT
  5
EFF
330
EDD
100
AcDbEntity
  8
0
  6
Continuous
 62
    20
 48
0.2
100
AcDbMText
 10
44.96260768898115
 20
13.69164107688761
 30
0.0
 40
2.0
 41
6.9836
 71
     1
 72
     5
  1
±0.3
 73
     1
 44
1.0
  0
MTEXT
  5
F00
330
EDD
100
AcDbEntity
  8
0
  6
Continuous
 62
    20
 48
0.2
100
AcDbMText
 10
44.96260768898115
 20
8.422761210628724
 30
0.0
 40
2.0
 41
6.9836
 71
     1
 72
     5
  1
±0.5
 73
     1
 44
1.0
  0
MTEXT
  5
F01
330
EDD
100
AcDbEntity
  8
0
  6
Continuous
 62
    20
 48
0.2
100
AcDbMText
 10
44.96260768898115
 20
18.72102743463239
 30
0.0
 40
2.0
 41
6.9836
 71
     1
 72
     5
  1
±0.2
 73
     1
 44
1.0
  0
MTEXT
  5
F02
330
EDD
100
AcDbEntity
  8
0
  6
Continuous
 62
    20
 48
0.2
100
AcDbMText
 10
44.96260768898115
 20
23.98990730089127
 30
0.0
 40
2.0
 41
6.983634309616491
 71
     1
 72
     5
  1
±0.1
 73
     1
 44
1.0
  0
MTEXT
  5
F03
330
EDD
100
AcDbEntity
  8
0
  6
Continuous
 62
    20
 48
0.2
100
AcDbMText
 10
44.6881371226235
 20
29.02743086646325
 30
0.0
 40
2.0
 41
8.302046568063136
 71
     1
 72
     5
  1
Ｂ  級
 73
     1
 44
1.0
  0
MTEXT
  5
F04
330
EDD
100
AcDbEntity
  8
0
  6
Continuous
 62
    20
 48
0.2
100
AcDbMText
 10
60.76641698444118
 20
13.99661023054415
 30
0.0
 40
2.0
 41
32.2049
 71
     1
 72
     5
  1
  ３０  〃     １２０  〃
 73
     1
 44
1.0
  0
MTEXT
  5
F05
330
EDD
100
AcDbEntity
  8
0
  6
Continuous
 62
    20
 48
0.2
100
AcDbMText
 10
69.29073546378287
 20
18.65404741903494
 30
0.0
 40
2.0
 41
25.99124615738788
 71
     1
 72
     5
  1
６を超え  ３０  〃
 73
     1
 44
1.0
  0
MTEXT
  5
F06
330
EDD
100
AcDbEntity
  8
0
  6
Continuous
 62
    20
 48
0.2
100
AcDbMText
 10
60.76641698444118
 20
8.556527714770201
 30
0.0
 40
2.0
 41
32.2049
 71
     1
 72
     5
  1
１２０  〃     ４００  〃
 73
     1
 44
1.0
  0
MTEXT
  5
F07
330
EDD
100
AcDbEntity
  8
0
  6
Continuous
 62
    20
 48
0.2
100
AcDbMText
 10
59.7477075869475
 20
29.02743086646325
 30
0.0
 40
2.0
 41
34.58719399086748
 71
     1
 72
     5
  1
曲げ及び絞りの普通寸法許容差
 73
     1
 44
1.0
  0
MTEXT
  5
F08
330
EDD
100
AcDbEntity
  8
0
  6
Continuous
 62
    20
 48
0.2
100
AcDbMText
 10
84.14343906556686
 20
24.10965518909581
 30
0.0
 40
2.0
 41
11.1385
 71
     1
 72
     5
  1
６ 以下
 73
     1
 44
1.0
  0
MTEXT
  5
F09
330
EDD
100
AcDbEntity
  8
本体
  6
Continuous
 62
    20
100
AcDbMText
 10
-3.768449999999988
 20
87.69284999999996
 30
0.0
 40
3.259199999999998
 41
0.0
 71
     1
 72
     1
  1
\T0.851;G
 73
     1
 44
1.0
  0
LINE
  5
F0A
330
EDD
100
AcDbEntity
  8
本体
  6
Continuous
 62
    20
100
AcDbLine
 10
-0.0000000000000009
 20
111.5257499999999
 30
0.0
 11
-4.073999999999998
 21
111.5257499999999
 31
0.0
  0
MTEXT
  5
F0B
330
EDD
100
AcDbEntity
  8
本体
  6
Continuous
 62
    20
100
AcDbMText
 10
-3.768449999999988
 20
145.492725
 30
0.0
 40
3.259199999999998
 41
0.0
 71
     1
 72
     1
  1
\T0.851;I
 73
     1
 44
1.0
  0
LINE
  5
F0C
330
EDD
100
AcDbEntity
  8
本体
  6
Continuous
 62
    20
100
AcDbLine
 10
-0.0000000000000009
 20
162.4507499999999
 30
0.0
 11
-2.546250000000001
 21
162.4507499999999
 31
0.0
  0
MTEXT
  5
F0D
330
EDD
100
AcDbEntity
  8
本体
  6
Continuous
 62
    20
100
AcDbMText
 10
-3.768449999999988
 20
189.5428499999999
 30
0.0
 40
3.259199999999998
 41
0.0
 71
     1
 72
     1
  1
\T0.851;H
 73
     1
 44
1.0
  0
LINE
  5
F0E
330
EDD
100
AcDbEntity
  8
本体
  6
Continuous
 62
    20
100
AcDbLine
 10
-0.0000000000000009
 20
213.37575
 30
0.0
 11
-2.546250000000001
 21
213.37575
 31
0.0
  0
MTEXT
  5
F0F
330
EDD
100
AcDbEntity
  8
本体
  6
Continuous
 62
    20
100
AcDbMText
 10
-3.768449999999988
 20
240.46785
 30
0.0
 40
3.259199999999998
 41
0.0
 71
     1
 72
     1
  1
\T0.851;G
 73
     1
 44
1.0
  0
LINE
  5
F10
330
EDD
100
AcDbEntity
  8
本体
  6
Continuous
 62
    20
100
AcDbLine
 10
-0.0000000000000009
 20
264.3007499999999
 30
0.0
 11
-4.073999999999998
 21
264.3007499999999
 31
0.0
  0
MTEXT
  5
F11
330
EDD
100
AcDbEntity
  8
本体
  6
Continuous
 62
    20
100
AcDbMText
 10
-3.768449999999988
 20
291.39285
 30
0.0
 40
3.259199999999998
 41
0.0
 71
     1
 72
     1
  1
\T0.851;F
 73
     1
 44
1.0
  0
LINE
  5
F12
330
EDD
100
AcDbEntity
  8
本体
  6
Continuous
 62
    20
100
AcDbLine
 10
-0.0000000000000009
 20
315.22575
 30
0.0
 11
-2.546250000000001
 21
315.22575
 31
0.0
  0
LINE
  5
F13
330
EDD
100
AcDbEntity
  8
本体
  6
Continuous
 62
    20
100
AcDbLine
 10
-0.0000000000000009
 20
315.22575
 30
0.0
 11
-2.546250000000001
 21
315.22575
 31
0.0
  0
MTEXT
  5
F14
330
EDD
100
AcDbEntity
  8
本体
  6
Continuous
 62
    20
100
AcDbMText
 10
-3.768449999999988
 20
342.3178499999999
 30
0.0
 40
3.259199999999998
 41
0.0
 71
     1
 72
     1
  1
\T0.851;\A1;E
 73
     1
 44
1.0
  0
LINE
  5
F15
330
EDD
100
AcDbEntity
  8
本体
  6
Continuous
 62
    20
100
AcDbLine
 10
-0.0000000000000009
 20
366.15075
 30
0.0
 11
-2.546250000000001
 21
366.15075
 31
0.0
  0
LINE
  5
F16
330
EDD
100
AcDbEntity
  8
本体
  6
Continuous
 62
    20
100
AcDbLine
 10
-0.0000000000000009
 20
366.15075
 30
0.0
 11
-2.546250000000001
 21
366.15075
 31
0.0
  0
MTEXT
  5
F17
330
EDD
100
AcDbEntity
  8
本体
  6
Continuous
 62
    20
100
AcDbMText
 10
-3.768449999999988
 20
393.2428499999998
 30
0.0
 40
3.259199999999998
 41
0.0
 71
     1
 72
     1
  1
\T0.851;\A1;D
 73
     1
 44
1.0
  0
LINE
  5
F18
330
EDD
100
AcDbEntity
  8
本体
  6
Continuous
 62
    20
100
AcDbLine
 10
-0.0000000000000009
 20
417.0757499999998
 30
0.0
 11
-4.073999999999998
 21
417.0757499999998
 31
0.0
  0
MTEXT
  5
F19
330
EDD
100
AcDbEntity
  8
本体
  6
Continuous
 62
    20
100
AcDbMText
 10
-3.768449999999988
 20
444.16785
 30
0.0
 40
3.259199999999998
 41
0.0
 71
     1
 72
     1
  1
\T0.851;\A1;C
 73
     1
 44
1.0
  0
MTEXT
  5
F1A
330
EDD
100
AcDbEntity
  8
本体
  6
Continuous
 62
    20
100
AcDbMText
 10
1.220162999999978
 20
551.78256
 30
0.0
 40
3.56475
 41
0.0
 71
     7
 72
     1
  1
\T0.782;\W0.700;\A1;Ｄｉｍｅｎｓｉｏｎｓ　ｉｎ　ｍｍ（ｎｏｔ　ｔｏ　ｓｃａｌｅ）
 73
     1
 44
1.0
  0
LINE
  5
F1B
330
EDD
100
AcDbEntity
  8
本体
  6
Continuous
 62
    20
100
AcDbLine
 10
0.0
 20
551.0084999999998
 30
0.0
 11
71.29500000000001
 21
551.0084999999998
 31
0.0
  0
LINE
  5
F1C
330
EDD
100
AcDbEntity
  8
本体
  6
Continuous
 62
    20
100
AcDbLine
 10
-0.0000000000000009
 20
468.00075
 30
0.0
 11
-2.546250000000001
 21
468.00075
 31
0.0
  0
MTEXT
  5
F1D
330
EDD
100
AcDbEntity
  8
本体
  6
Continuous
 62
    20
100
AcDbMText
 10
-3.768449999999988
 20
495.0928499999998
 30
0.0
 40
3.259199999999998
 41
0.0
 71
     1
 72
     1
  1
\T0.851;\A1;B
 73
     1
 44
1.0
  0
LINE
  5
F1E
330
EDD
100
AcDbEntity
  8
本体
  6
Continuous
 62
    20
100
AcDbLine
 10
-0.0000000000000009
 20
518.92575
 30
0.0
 11
-2.546250000000001
 21
518.92575
 31
0.0
  0
MTEXT
  5
F1F
330
EDD
100
AcDbEntity
  8
本体
  6
Continuous
 62
    20
100
AcDbMText
 10
-3.768449999999988
 20
539.1429749999998
 30
0.0
 40
3.259199999999998
 41
0.0
 71
     1
 72
     1
  1
\T0.851;\A1;A
 73
     1
 44
1.0
  0
MTEXT
  5
F20
330
EDD
100
AcDbEntity
  8
本体
  6
Continuous
 62
    20
100
AcDbMText
 10
23.71068
 20
560.2768499999998
 30
0.0
 40
3.259199999999998
 41
0.0
 71
     1
 72
     1
  1
\T1.043;\W1.226;\A1;1
 73
     1
 44
1.0
  0
LINE
  5
F21
330
EDD
100
AcDbEntity
  8
本体
  6
Continuous
 62
    20
100
AcDbLine
 10
48.88799999999998
 20
556.101
 30
0.0
 11
48.88799999999998
 21
558.64725
 31
0.0
  0
MTEXT
  5
F22
330
EDD
100
AcDbEntity
  8
本体
  6
Continuous
 62
    20
100
AcDbMText
 10
73.12830000000002
 20
560.2768499999998
 30
0.0
 40
3.259199999999998
 41
0.0
 71
     1
 72
     1
  1
\T0.851;\A1;2
 73
     1
 44
1.0
  0
LINE
  5
F23
330
EDD
100
AcDbEntity
  8
本体
  6
Continuous
 62
    20
100
AcDbLine
 10
71.29500000000001
 20
551.0084999999998
 30
0.0
 11
71.29500000000001
 21
556.101
 31
0.0
  0
LINE
  5
F24
330
EDD
100
AcDbEntity
  8
本体
  6
Continuous
 62
    20
100
AcDbLine
 10
99.813
 20
556.101
 30
0.0
 11
99.813
 21
558.64725
 31
0.0
  0
LINE
  5
F25
330
EDD
100
AcDbEntity
  8
本体
  6
Continuous
 62
    20
100
AcDbLine
 10
403.3259999999998
 20
-0.0000000000000011
 30
0.0
 11
403.3259999999998
 21
278.0505
 31
0.0
  0
MTEXT
  5
F26
330
EDD
100
AcDbEntity
  8
0
  6
Continuous
 62
    20
 48
0.2
100
AcDbMText
 10
240.4310560359268
 20
5.456098617019682
 30
0.0
 40
3.0
 41
65.09525565518856
 71
     1
 72
     5
  1
Artics Co.,Ltd  CAD Dept
 73
     1
 44
1.0
  0
MTEXT
  5
F27
330
EDD
100
AcDbEntity
  8
0
  6
Continuous
 62
    20
 48
0.2
100
AcDbMText
 10
239.2366479296532
 20
13.51644271642573
 30
0.0
 40
5.5
 41
63.30364349577846
 71
     1
 72
     5
  1
株式会社アルテックス
 73
     1
 44
1.0
  0
LINE
  5
F28
330
EDD
100
AcDbEntity
  8
本体
  6
Continuous
 62
    20
100
AcDbLine
 10
230.1809999999999
 20
15.2775
 30
0.0
 11
311.661
 21
15.2775
 31
0.0
  0
LINE
  5
F29
330
EDD
100
AcDbEntity
  8
本体
  6
Continuous
 62
    20
100
AcDbLine
 10
230.1809999999999
 20
30.555
 30
0.0
 11
311.661
 21
30.555
 31
0.0
  0
LINE
  5
F2A
330
EDD
100
AcDbEntity
  8
本体
  6
Continuous
 62
    20
100
AcDbLine
 10
181.2929999999999
 20
-0.0000000000000011
 30
0.0
 11
181.2929999999999
 21
35.6475
 31
0.0
  0
LINE
  5
F2B
330
EDD
100
AcDbEntity
  8
本体
  6
Continuous
 62
    20
100
AcDbLine
 10
127.3125
 20
-0.0000000000000011
 30
0.0
 11
127.3125
 21
35.6475
 31
0.0
  0
LINE
  5
F2C
330
EDD
100
AcDbEntity
  8
本体
  6
Continuous
 62
    20
100
AcDbLine
 10
112.0349999999999
 20
-0.0000000000000011
 30
0.0
 11
112.0349999999999
 21
35.6475
 31
0.0
  0
MTEXT
  5
F2D
330
EDD
100
AcDbEntity
  8
本体
  6
Continuous
 62
    20
100
AcDbMText
 10
143.6085
 20
3.819374999999998
 30
0.0
 40
2.54625
 41
0.0
 71
     1
 72
     1
  1
\T0.815;\W0.959;\A1;ＲＥＶＩＳＩＯＮＳ
 73
     1
 44
1.0
  0
MTEXT
  5
F2E
330
EDD
100
AcDbEntity
  8
本体
  6
Continuous
 62
    20
100
AcDbMText
 10
124.0532999999995
 20
-0.9166500000000059
 30
0.0
 40
3.259199999999998
 41
0.0
 71
     1
 72
     1
  1
\T0.851;\A1;3
 73
     1
 44
1.0
  0
MTEXT
  5
F2F
330
EDD
100
AcDbEntity
  8
本体
  6
Continuous
 62
    20
100
AcDbMText
 10
114.9472734374999
 20
3.819374999999998
 30
0.0
 40
2.54625
 41
0.0
 71
     1
 72
     1
  1
\T0.815;\W0.959;\A1;ＭＡＲＫ
 73
     1
 44
1.0
  0
LINE
  5
F30
330
EDD
100
AcDbEntity
  8
本体
  6
Continuous
 62
    20
100
AcDbLine
 10
150.7379999999999
 20
-0.0000000000000011
 30
0.0
 11
150.7379999999999
 21
-2.546249999999999
 31
0.0
  0
MTEXT
  5
F31
330
EDD
100
AcDbEntity
  8
本体
  6
Continuous
 62
    20
100
AcDbMText
 10
174.9782999999999
 20
-0.9166500000000059
 30
0.0
 40
3.259199999999998
 41
0.0
 71
     1
 72
     1
  1
\T0.851;\A1;4
 73
     1
 44
1.0
  0
MTEXT
  5
F32
330
EDD
100
AcDbEntity
  8
本体
  6
Continuous
 62
    20
100
AcDbMText
 10
188.7885234374999
 20
3.819374999999998
 30
0.0
 40
2.54625
 41
0.0
 71
     1
 72
     1
  1
\T0.815;\W0.959;\A1;ＤＡＴＥ
 73
     1
 44
1.0
  0
LWPOLYLINE
  5
F33
330
EDD
100
AcDbEntity
  8
0
  6
Continuous
 62
    20
100
AcDbPolyline
 90
        3
 70
   129
 43
0.0
 10
119.5856789591269
 20
14.85116725774739
 10
117.1871732317472
 20
10.69683347568081
 10
121.9841846865066
 20
10.69683347568081
  0
MTEXT
  5
F34
330
EDD
100
AcDbEntity
  8
本体
  6
Continuous
 62
    20
100
AcDbMText
 10
118.909875
 20
13.24049999999999
 30
0.0
 40
2.036999999999999
 41
0.0
 71
     1
 72
     1
  1
\T0.851;\A1;2
 73
     1
 44
1.0
  0
LWPOLYLINE
  5
F35
330
EDD
100
AcDbEntity
  8
0
  6
Continuous
 62
    20
100
AcDbPolyline
 90
        3
 70
   129
 43
0.0
 10
119.5856789591269
 20
9.758667257747395
 10
117.1871732317472
 20
5.604333475680808
 10
121.9841846865066
 20
5.604333475680808
  0
MTEXT
  5
F36
330
EDD
100
AcDbEntity
  8
本体
  6
Continuous
 62
    20
100
AcDbMText
 10
119.2154249999999
 20
8.147999999999999
 30
0.0
 40
2.036999999999999
 41
0.0
 71
     1
 72
     1
  1
\T1.043;\W1.226;\A1;1
 73
     1
 44
1.0
  0
LWPOLYLINE
  5
F37
330
EDD
100
AcDbEntity
  8
0
  6
Continuous
 62
    20
100
AcDbPolyline
 90
        3
 70
   129
 43
0.0
 10
119.5856789591269
 20
19.94366725774739
 10
117.1871732317472
 20
15.78933347568081
 10
121.9841846865066
 20
15.78933347568081
  0
MTEXT
  5
F38
330
EDD
100
AcDbEntity
  8
本体
  6
Continuous
 62
    20
100
AcDbMText
 10
118.909875
 20
18.33299999999998
 30
0.0
 40
2.036999999999999
 41
0.0
 71
     1
 72
     1
  1
\T0.851;\A1;3
 73
     1
 44
1.0
  0
LWPOLYLINE
  5
F39
330
EDD
100
AcDbEntity
  8
0
  6
Continuous
 62
    20
100
AcDbPolyline
 90
        3
 70
   129
 43
0.0
 10
119.5856789591269
 20
30.1286672577474
 10
117.1871732317472
 20
25.97433347568081
 10
121.9841846865066
 20
25.97433347568081
  0
LWPOLYLINE
  5
F3A
330
EDD
100
AcDbEntity
  8
0
  6
Continuous
 62
    20
100
AcDbPolyline
 90
        3
 70
   129
 43
0.0
 10
119.5856789591269
 20
25.03616725774739
 10
117.1871732317472
 20
20.88183347568081
 10
121.9841846865066
 20
20.88183347568081
  0
MTEXT
  5
F3B
330
EDD
100
AcDbEntity
  8
本体
  6
Continuous
 62
    20
100
AcDbMText
 10
118.909875
 20
28.518
 30
0.0
 40
2.036999999999999
 41
0.0
 71
     1
 72
     1
  1
\T0.851;\A1;5
 73
     1
 44
1.0
  0
MTEXT
  5
F3C
330
EDD
100
AcDbEntity
  8
本体
  6
Continuous
 62
    20
100
AcDbMText
 10
118.909875
 20
23.4255
 30
0.0
 40
2.036999999999999
 41
0.0
 71
     1
 72
     1
  1
\T0.851;\A1;4
 73
     1
 44
1.0
  0
LWPOLYLINE
  5
F3D
330
EDD
100
AcDbEntity
  8
0
  6
Continuous
 62
    20
100
AcDbPolyline
 90
        3
 70
   129
 43
0.0
 10
119.5856789591269
 20
35.22116725774739
 10
117.1871732317472
 20
31.06683347568081
 10
121.9841846865066
 20
31.06683347568081
  0
MTEXT
  5
F3E
330
EDD
100
AcDbEntity
  8
本体
  6
Continuous
 62
    20
100
AcDbMText
 10
118.909875
 20
33.6105
 30
0.0
 40
2.036999999999999
 41
0.0
 71
     1
 72
     1
  1
\T0.851;\A1;6
 73
     1
 44
1.0
  0
LINE
  5
F3F
330
EDD
100
AcDbEntity
  8
本体
  6
Continuous
 62
    20
100
AcDbLine
 10
205.737
 20
-0.0000000000000011
 30
0.0
 11
205.737
 21
35.6475
 31
0.0
  0
LINE
  5
F40
330
EDD
100
AcDbEntity
  8
本体
  6
Continuous
 62
    20
100
AcDbLine
 10
230.1809999999999
 20
-0.0000000000000011
 30
0.0
 11
230.1809999999999
 21
35.6475
 31
0.0
  0
MTEXT
  5
F41
330
EDD
100
AcDbEntity
  8
本体
  6
Continuous
 62
    20
100
AcDbMText
 10
213.2325234375
 20
3.819374999999998
 30
0.0
 40
2.54625
 41
0.0
 71
     1
 72
     1
  1
\T0.815;\W0.959;\A1;ＣＨ’Ｄ
 73
     1
 44
1.0
  0
LINE
  5
F42
330
EDD
100
AcDbEntity
  8
本体
  6
Continuous
 62
    20
100
AcDbLine
 10
201.6629999999999
 20
-0.0000000000000011
 30
0.0
 11
201.6629999999999
 21
-4.073999999999998
 31
0.0
  0
MTEXT
  5
F43
330
EDD
100
AcDbEntity
  8
本体
  6
Continuous
 62
    20
100
AcDbMText
 10
225.9033
 20
-0.9166500000000059
 30
0.0
 40
3.259199999999998
 41
0.0
 71
     1
 72
     1
  1
\T0.851;\A1;5
 73
     1
 44
1.0
  0
LINE
  5
F44
330
EDD
100
AcDbEntity
  8
本体
  6
Continuous
 62
    20
100
AcDbLine
 10
252.5879999999999
 20
-0.0000000000000011
 30
0.0
 11
252.5879999999999
 21
-2.546249999999999
 31
0.0
  0
MTEXT
  5
F45
330
EDD
100
AcDbEntity
  8
本体
  6
Continuous
 62
    20
100
AcDbMText
 10
276.8283
 20
-0.9166500000000059
 30
0.0
 40
3.259199999999998
 41
0.0
 71
     1
 72
     1
  1
\T0.851;\A1;6
 73
     1
 44
1.0
  0
MTEXT
  5
F46
330
EDD
100
AcDbEntity
  8
本体
  6
Continuous
 62
    20
100
AcDbMText
 10
233.9723662499999
 20
34.476225
 30
0.0
 40
2.74995
 41
0.0
 71
     1
 72
     1
  1
\T0.815;\W0.959;\A1;ＤＥＳ’Ｄ
 73
     1
 44
1.0
  0
LINE
  5
F47
330
EDD
100
AcDbEntity
  8
本体
  6
Continuous
 62
    20
100
AcDbLine
 10
230.1809999999999
 20
20.37
 30
0.0
 11
291.291
 21
20.37
 31
0.0
  0
LINE
  5
F48
330
EDD
100
AcDbEntity
  8
本体
  6
Continuous
 62
    20
100
AcDbLine
 10
250.551
 20
15.2775
 30
0.0
 11
250.551
 21
35.6475
 31
0.0
  0
MTEXT
  5
F49
330
EDD
100
AcDbEntity
  8
本体
  6
Continuous
 62
    20
100
AcDbMText
 10
255.6314053124999
 20
34.476225
 30
0.0
 40
2.74995
 41
0.0
 71
     1
 72
     1
  1
\T0.815;\W0.959;\A1;ＣＨ’Ｄ
 73
     1
 44
1.0
  0
LINE
  5
F4A
330
EDD
100
AcDbEntity
  8
本体
  6
Continuous
 62
    20
100
AcDbLine
 10
291.291
 20
15.2775
 30
0.0
 11
291.291
 21
35.6475
 31
0.0
  0
LINE
  5
F4B
330
EDD
100
AcDbEntity
  8
本体
  6
Continuous
 62
    20
100
AcDbLine
 10
270.921
 20
15.2775
 30
0.0
 11
270.921
 21
35.6475
 31
0.0
  0
MTEXT
  5
F4C
330
EDD
100
AcDbEntity
  8
本体
  6
Continuous
 62
    20
100
AcDbMText
 10
274.7123662499999
 20
34.476225
 30
0.0
 40
2.74995
 41
0.0
 71
     1
 72
     1
  1
\T0.815;\W0.959;\A1;ＡＰＰ’Ｄ
 73
     1
 44
1.0
  0
LINE
  5
F4D
330
EDD
100
AcDbEntity
  8
本体
  6
Continuous
 62
    20
100
AcDbLine
 10
311.661
 20
10.18499999999999
 30
0.0
 11
403.3259999999998
 21
10.18499999999999
 31
0.0
  0
LINE
  5
F4E
330
EDD
100
AcDbEntity
  8
本体
  6
Continuous
 62
    20
100
AcDbLine
 10
311.661
 20
25.4625
 30
0.0
 11
403.3259999999998
 21
25.4625
 31
0.0
  0
LINE
  5
F4F
330
EDD
100
AcDbEntity
  8
本体
  6
DASHED
 62
    20
 48
0.2
100
AcDbLine
 10
382.9384999999998
 20
-0.0000000000000011
 30
0.0
 11
382.9384999999998
 21
10.18499999999999
 31
0.0
  0
LINE
  5
F50
330
EDD
100
AcDbEntity
  8
本体
  6
DASHED
 62
    20
 48
0.2
100
AcDbLine
 10
374.9384999999998
 20
-0.0000000000000011
 30
0.0
 11
374.9384999999998
 21
10.18499999999999
 31
0.0
  0
LINE
  5
F51
330
EDD
100
AcDbEntity
  8
本体
  6
DASHED
 62
    20
 48
0.2
100
AcDbLine
 10
366.9384999999998
 20
-0.0000000000000011
 30
0.0
 11
366.9384999999998
 21
10.18499999999999
 31
0.0
  0
LINE
  5
F52
330
EDD
100
AcDbEntity
  8
本体
  6
DASHED
 62
    20
 48
0.2
100
AcDbLine
 10
358.9385
 20
-0.0000000000000011
 30
0.0
 11
358.9385
 21
10.18499999999999
 31
0.0
  0
LINE
  5
F53
330
EDD
100
AcDbEntity
  8
本体
  6
DASHED
 62
    20
 48
0.2
100
AcDbLine
 10
350.9384999999998
 20
-0.0000000000000011
 30
0.0
 11
350.9384999999998
 21
10.18499999999999
 31
0.0
  0
LINE
  5
F54
330
EDD
100
AcDbEntity
  8
本体
  6
DASHED
 62
    20
 48
0.2
100
AcDbLine
 10
342.9384999999998
 20
-0.0000000000000011
 30
0.0
 11
342.9384999999998
 21
10.18499999999999
 31
0.0
  0
LINE
  5
F55
330
EDD
100
AcDbEntity
  8
本体
  6
DASHED
 62
    20
 48
0.2
100
AcDbLine
 10
334.9384999999998
 20
-0.0000000000000011
 30
0.0
 11
334.9384999999998
 21
10.18499999999999
 31
0.0
  0
LINE
  5
F56
330
EDD
100
AcDbEntity
  8
本体
  6
Continuous
 62
    20
100
AcDbLine
 10
326.9384999999997
 20
-0.0000000000000011
 30
0.0
 11
326.9384999999997
 21
10.18499999999999
 31
0.0
  0
LINE
  5
F57
330
EDD
100
AcDbEntity
  8
本体
  6
Continuous
 62
    20
100
AcDbLine
 10
311.661
 20
-0.0000000000000011
 30
0.0
 11
311.661
 21
35.6475
 31
0.0
  0
MTEXT
  5
F58
330
EDD
100
AcDbEntity
  8
本体
  6
Continuous
 62
    20
100
AcDbMText
 10
315.484194375
 20
4.226775000000004
 30
0.0
 40
2.74995
 41
0.0
 71
     1
 72
     1
  1
\T0.815;\W0.959;\A1;ＮＯ．
 73
     1
 44
1.0
  0
LINE
  5
F59
330
EDD
100
AcDbEntity
  8
本体
  6
Continuous
 62
    20
100
AcDbLine
 10
303.5129999999998
 20
-0.0000000000000011
 30
0.0
 11
303.5129999999998
 21
-2.546249999999999
 31
0.0
  0
MTEXT
  5
F5A
330
EDD
100
AcDbEntity
  8
本体
  6
Continuous
 62
    20
100
AcDbMText
 10
327.7533
 20
-0.9166500000000059
 30
0.0
 40
3.259199999999998
 41
0.0
 71
     1
 72
     1
  1
\T0.851;\A1;7
 73
     1
 44
1.0
  0
LINE
  5
F5B
330
EDD
100
AcDbEntity
  8
本体
  6
Continuous
 62
    20
100
AcDbLine
 10
354.4379999999998
 20
-0.0000000000000011
 30
0.0
 11
354.4379999999998
 21
-2.546249999999999
 31
0.0
  0
MTEXT
  5
F5C
330
EDD
100
AcDbEntity
  8
本体
  6
Continuous
 62
    20
100
AcDbMText
 10
377.6598
 20
-0.9166500000000059
 30
0.0
 40
3.259199999999998
 41
0.0
 71
     1
 72
     1
  1
\T0.851;\A1;8
 73
     1
 44
1.0
  0
MTEXT
  5
F5D
330
EDD
100
AcDbEntity
  8
本体
  6
Continuous
 62
    20
100
AcDbMText
 10
312.90611625
 20
8.504474999999994
 30
0.0
 40
2.74995
 41
0.0
 71
     1
 72
     1
  1
\T0.815;\W0.959;\A1;ＤＲＡＷ．
 73
     1
 44
1.0
  0
MTEXT
  5
F5E
330
EDD
100
AcDbEntity
  8
本体
  6
Continuous
 62
    20
100
AcDbMText
 10
313.0614375
 20
34.78177500000001
 30
0.0
 40
2.54625
 41
0.0
 71
     1
 72
     1
  1
\T0.815;\W0.959;\A1;ＭＡＴＥＲＩＡＬ
 73
     1
 44
1.0
  0
MTEXT
  5
F5F
330
EDD
100
AcDbEntity
  8
本体
  6
Continuous
 62
    20
100
AcDbMText
 10
312.7406099999999
 20
24.54584999999999
 30
0.0
 40
3.259199999999998
 41
0.0
 71
     1
 72
     1
  1
\T0.815;\W0.959;\A1;ＴＩＴＬＥ
 73
     1
 44
1.0
  0
MTEXT
  5
F60
330
EDD
100
AcDbEntity
  8
本体
  6
Continuous
 62
    20
100
AcDbMText
 10
295.0823662499999
 20
34.476225
 30
0.0
 40
2.74995
 41
0.0
 71
     1
 72
     1
  1
\T0.815;\W0.959;\A1;ＳＣＡＬＥ
 73
     1
 44
1.0
  0
MTEXT
  5
F61
330
EDD
100
AcDbEntity
  8
本体
  6
Continuous
 62
    20
100
AcDbMText
 10
358.8939374999998
 20
34.78177500000001
 30
0.0
 40
2.54625
 41
0.0
 71
     1
 72
     1
  1
\T0.815;\W0.959;\A1;ＴＲＥＡＴＭＥＮＴ
 73
     1
 44
1.0
  0
LINE
  5
F62
330
EDD
100
AcDbEntity
  8
本体
  6
Continuous
 62
    20
100
AcDbLine
 10
357.4934999999998
 20
25.4625
 30
0.0
 11
357.4934999999998
 21
35.6475
 31
0.0
  0
LINE
  5
F63
330
EDD
100
AcDbEntity
  8
本体
  6
DASHED
 62
    20
 48
0.2
100
AcDbLine
 10
390.9384999999998
 20
-0.0000000000000011
 30
0.0
 11
390.9384999999998
 21
10.18499999999999
 31
0.0
  0
MTEXT
  5
F64
330
EDD
100
AcDbEntity
  8
本体
  6
Continuous
 62
    20
100
AcDbMText
 10
404.65005
 20
36.76784999999995
 30
0.0
 40
3.259199999999998
 41
0.0
 71
     1
 72
     1
  1
\T0.851;H
 73
     1
 44
1.0
  0
LINE
  5
F65
330
EDD
100
AcDbEntity
  8
本体
  6
Continuous
 62
    20
100
AcDbLine
 10
405.8722999999998
 20
60.60075000000001
 30
0.0
 11
403.3260499999998
 21
60.60075000000001
 31
0.0
  0
MTEXT
  5
F66
330
EDD
100
AcDbEntity
  8
本体
  6
Continuous
 62
    20
100
AcDbMText
 10
404.65005
 20
87.69284999999996
 30
0.0
 40
3.259199999999998
 41
0.0
 71
     1
 72
     1
  1
\T0.851;G
 73
     1
 44
1.0
  0
LINE
  5
F67
330
EDD
100
AcDbEntity
  8
本体
  6
Continuous
 62
    20
100
AcDbLine
 10
407.3999999999998
 20
111.5257499999999
 30
0.0
 11
403.3259999999998
 21
111.5257499999999
 31
0.0
  0
MTEXT
  5
F68
330
EDD
100
AcDbEntity
  8
本体
  6
Continuous
 62
    20
100
AcDbMText
 10
404.65005
 20
145.492725
 30
0.0
 40
3.259199999999998
 41
0.0
 71
     1
 72
     1
  1
\T0.851;I
 73
     1
 44
1.0
  0
LINE
  5
F69
330
EDD
100
AcDbEntity
  8
本体
  6
Continuous
 62
    20
100
AcDbLine
 10
405.8722999999998
 20
162.4507499999999
 30
0.0
 11
403.3260499999998
 21
162.4507499999999
 31
0.0
  0
MTEXT
  5
F6A
330
EDD
100
AcDbEntity
  8
本体
  6
Continuous
 62
    20
100
AcDbMText
 10
404.65005
 20
189.5428499999999
 30
0.0
 40
3.259199999999998
 41
0.0
 71
     1
 72
     1
  1
\T0.851;H
 73
     1
 44
1.0
  0
LINE
  5
F6B
330
EDD
100
AcDbEntity
  8
本体
  6
Continuous
 62
    20
100
AcDbLine
 10
405.8722999999998
 20
213.37575
 30
0.0
 11
403.3260499999998
 21
213.37575
 31
0.0
  0
MTEXT
  5
F6C
330
EDD
100
AcDbEntity
  8
本体
  6
Continuous
 62
    20
100
AcDbMText
 10
404.65005
 20
240.46785
 30
0.0
 40
3.259199999999998
 41
0.0
 71
     1
 72
     1
  1
\T0.851;G
 73
     1
 44
1.0
  0
LINE
  5
F6D
330
EDD
100
AcDbEntity
  8
本体
  6
Continuous
 62
    20
100
AcDbLine
 10
407.3999999999998
 20
264.3007499999999
 30
0.0
 11
403.3259999999998
 21
264.3007499999999
 31
0.0
  0
MTEXT
  5
F6E
330
EDD
100
AcDbEntity
  8
本体
  6
Continuous
 62
    20
100
AcDbMText
 10
404.65005
 20
291.39285
 30
0.0
 40
3.259199999999998
 41
0.0
 71
     1
 72
     1
  1
\T0.851;F
 73
     1
 44
1.0
  0
LINE
  5
F6F
330
EDD
100
AcDbEntity
  8
本体
  6
Continuous
 62
    20
100
AcDbLine
 10
405.8722999999998
 20
315.22575
 30
0.0
 11
403.3260499999998
 21
315.22575
 31
0.0
  0
LINE
  5
F70
330
EDD
100
AcDbEntity
  8
本体
  6
Continuous
 62
    20
100
AcDbLine
 10
405.8722999999998
 20
315.22575
 30
0.0
 11
403.3260499999998
 21
315.22575
 31
0.0
  0
MTEXT
  5
F71
330
EDD
100
AcDbEntity
  8
本体
  6
Continuous
 62
    20
100
AcDbMText
 10
124.0532999999995
 20
560.2768499999998
 30
0.0
 40
3.259199999999998
 41
0.0
 71
     1
 72
     1
  1
\T0.851;\A1;3
 73
     1
 44
1.0
  0
LINE
  5
F72
330
EDD
100
AcDbEntity
  8
本体
  6
Continuous
 62
    20
100
AcDbLine
 10
150.7379999999999
 20
556.101
 30
0.0
 11
150.7379999999999
 21
558.64725
 31
0.0
  0
MTEXT
  5
F73
330
EDD
100
AcDbEntity
  8
本体
  6
Continuous
 62
    20
100
AcDbMText
 10
174.9782999999999
 20
560.2768499999998
 30
0.0
 40
3.259199999999998
 41
0.0
 71
     1
 72
     1
  1
\T0.851;\A1;4
 73
     1
 44
1.0
  0
LINE
  5
F74
330
EDD
100
AcDbEntity
  8
本体
  6
Continuous
 62
    20
100
AcDbLine
 10
201.6629999999999
 20
556.101
 30
0.0
 11
201.6629999999999
 21
560.175
 31
0.0
  0
MTEXT
  5
F75
330
EDD
100
AcDbEntity
  8
本体
  6
Continuous
 62
    20
100
AcDbMText
 10
225.9033
 20
560.2768499999998
 30
0.0
 40
3.259199999999998
 41
0.0
 71
     1
 72
     1
  1
\T0.851;\A1;5
 73
     1
 44
1.0
  0
LINE
  5
F76
330
EDD
100
AcDbEntity
  8
本体
  6
Continuous
 62
    20
100
AcDbLine
 10
252.5879999999999
 20
556.101
 30
0.0
 11
252.5879999999999
 21
558.64725
 31
0.0
  0
MTEXT
  5
F77
330
EDD
100
AcDbEntity
  8
本体
  6
Continuous
 62
    20
100
AcDbMText
 10
276.8283
 20
560.2768499999998
 30
0.0
 40
3.259199999999998
 41
0.0
 71
     1
 72
     1
  1
\T0.851;\A1;6
 73
     1
 44
1.0
  0
MTEXT
  5
F78
330
EDD
100
AcDbEntity
  8
本体
  6
Continuous
 62
    20
100
AcDbMText
 10
404.65005
 20
342.3178499999999
 30
0.0
 40
3.259199999999998
 41
0.0
 71
     1
 72
     1
  1
\T0.851;\A1;E
 73
     1
 44
1.0
  0
LINE
  5
F79
330
EDD
100
AcDbEntity
  8
本体
  6
Continuous
 62
    20
100
AcDbLine
 10
405.8722999999998
 20
366.15075
 30
0.0
 11
403.3260499999998
 21
366.15075
 31
0.0
  0
LINE
  5
F7A
330
EDD
100
AcDbEntity
  8
本体
  6
Continuous
 62
    20
100
AcDbLine
 10
405.8722999999998
 20
366.15075
 30
0.0
 11
403.3260499999998
 21
366.15075
 31
0.0
  0
MTEXT
  5
F7B
330
EDD
100
AcDbEntity
  8
本体
  6
Continuous
 62
    20
100
AcDbMText
 10
404.65005
 20
393.2428499999998
 30
0.0
 40
3.259199999999998
 41
0.0
 71
     1
 72
     1
  1
\T0.851;\A1;D
 73
     1
 44
1.0
  0
LINE
  5
F7C
330
EDD
100
AcDbEntity
  8
本体
  6
Continuous
 62
    20
100
AcDbLine
 10
407.3999999999998
 20
417.0757499999998
 30
0.0
 11
403.3259999999998
 21
417.0757499999998
 31
0.0
  0
MTEXT
  5
F7D
330
EDD
100
AcDbEntity
  8
本体
  6
Continuous
 62
    20
100
AcDbMText
 10
404.65005
 20
444.16785
 30
0.0
 40
3.259199999999998
 41
0.0
 71
     1
 72
     1
  1
\T0.851;\A1;C
 73
     1
 44
1.0
  0
LINE
  5
F7E
330
EDD
100
AcDbEntity
  8
本体
  6
Continuous
 62
    20
100
AcDbLine
 10
303.5129999999998
 20
556.101
 30
0.0
 11
303.5129999999998
 21
558.64725
 31
0.0
  0
MTEXT
  5
F7F
330
EDD
100
AcDbEntity
  8
本体
  6
Continuous
 62
    20
100
AcDbMText
 10
327.7533
 20
560.2768499999998
 30
0.0
 40
3.259199999999998
 41
0.0
 71
     1
 72
     1
  1
\T0.851;\A1;7
 73
     1
 44
1.0
  0
LINE
  5
F80
330
EDD
100
AcDbEntity
  8
本体
  6
Continuous
 62
    20
100
AcDbLine
 10
354.4379999999998
 20
556.101
 30
0.0
 11
354.4379999999998
 21
558.64725
 31
0.0
  0
MTEXT
  5
F81
330
EDD
100
AcDbEntity
  8
本体
  6
Continuous
 62
    20
100
AcDbMText
 10
377.6598
 20
560.2768499999998
 30
0.0
 40
3.259199999999998
 41
0.0
 71
     1
 72
     1
  1
\T0.851;\A1;8
 73
     1
 44
1.0
  0
LINE
  5
F82
330
EDD
100
AcDbEntity
  8
本体
  6
Continuous
 62
    20
100
AcDbLine
 10
405.8722999999998
 20
468.00075
 30
0.0
 11
403.3260499999998
 21
468.00075
 31
0.0
  0
MTEXT
  5
F83
330
EDD
100
AcDbEntity
  8
本体
  6
Continuous
 62
    20
100
AcDbMText
 10
404.65005
 20
495.0928499999998
 30
0.0
 40
3.259199999999998
 41
0.0
 71
     1
 72
     1
  1
\T0.851;\A1;B
 73
     1
 44
1.0
  0
LINE
  5
F84
330
EDD
100
AcDbEntity
  8
本体
  6
Continuous
 62
    20
100
AcDbLine
 10
405.8722999999998
 20
518.92575
 30
0.0
 11
403.3260499999998
 21
518.92575
 31
0.0
  0
MTEXT
  5
F85
330
EDD
100
AcDbEntity
  8
本体
  6
Continuous
 62
    20
100
AcDbMText
 10
404.65005
 20
539.1429749999998
 30
0.0
 40
3.259199999999998
 41
0.0
 71
     1
 72
     1
  1
\T0.851;\A1;A
 73
     1
 44
1.0
  0
ENDBLK
  5
F87
330
EDD
100
AcDbEntity
  8
0
100
AcDbBlockEnd
  0
BLOCK
  5
102B
330
1021
100
AcDbEntity
  8
0
100
AcDbBlockBegin
  2
*D9
 70
     1
 10
0.0
 20
0.0
 30
0.0
  3
*D9
  1

  0
LINE
  5
26B5
330
1021
100
AcDbEntity
  8
寸法
  6
Continuous
 62
     0
370
    13
100
AcDbLine
 10
-207.7488377258708
 20
183.3389935019966
 30
0.0
 11
-207.7488377258708
 21
163.7895167399094
 31
0.0
  0
LINE
  5
26B6
330
1021
100
AcDbEntity
  8
寸法
  6
Continuous
 62
     0
370
    13
100
AcDbLine
 10
212.2514489999998
 20
183.2632674483009
 30
0.0
 11
212.2514489999998
 21
163.7895167399094
 31
0.0
  0
LINE
  5
26B7
330
1021
100
AcDbEntity
  8
寸法
  6
Continuous
 62
     0
370
    13
100
AcDbLine
 10
-203.7488377258708
 20
164.7895167399096
 30
0.0
 11
208.2514489999998
 21
164.7895167399096
 31
0.0
  0
INSERT
  5
26B8
330
1021
100
AcDbEntity
  8
寸法
  6
Continuous
 62
     0
370
    13
100
AcDbBlockReference
  2
_OPEN30
 10
-207.7488377258708
 20
164.7895167399096
 30
0.0
 41
4.0
 42
4.0
 43
4.0
 50
180.0
  0
INSERT
  5
26B9
330
1021
100
AcDbEntity
  8
寸法
  6
Continuous
 62
     0
370
    13
100
AcDbBlockReference
  2
_OPEN30
 10
212.2514489999998
 20
164.7895167399096
 30
0.0
 41
4.0
 42
4.0
 43
4.0
  0
MTEXT
  5
26BA
330
1021
100
AcDbEntity
  8
寸法
  6
Continuous
 62
     6
100
AcDbMText
 10
0.4739878999250779
 20
169.7895167399096
 30
0.0
 40
8.0
 41
0.0
 71
     5
 72
     1
  1
\A1;420
  7
Standard
 73
     1
 44
1.0
  0
POINT
  5
26BB
330
1021
100
AcDbEntity
  8
DEFPOINTS
  6
Continuous
 62
     0
100
AcDbPoint
 10
-207.7488377258708
 20
184.3389935019967
 30
0.0
  0
POINT
  5
26BC
330
1021
100
AcDbEntity
  8
DEFPOINTS
  6
Continuous
 62
     0
100
AcDbPoint
 10
212.2514489999998
 20
184.2632674483009
 30
0.0
  0
POINT
  5
26BD
330
1021
100
AcDbEntity
  8
DEFPOINTS
  6
Continuous
 62
     0
100
AcDbPoint
 10
212.2514489999998
 20
164.7895167399096
 30
0.0
  0
ENDBLK
  5
102C
330
1021
100
AcDbEntity
  8
0
100
AcDbBlockEnd
  0
BLOCK
  5
1886
330
187C
100
AcDbEntity
  8
0
100
AcDbBlockBegin
  2
*D10
 70
     1
 10
0.0
 20
0.0
 30
0.0
  3
*D10
  1

  0
LINE
  5
291C
330
187C
100
AcDbEntity
  8
寸法
  6
Continuous
 62
     0
370
    13
100
AcDbLine
 10
272.1299213345953
 20
286.2657594576343
 30
0.0
 11
324.9542674794397
 21
286.2657594576343
 31
0.0
  0
LINE
  5
291D
330
187C
100
AcDbEntity
  8
寸法
  6
Continuous
 62
     0
370
    13
100
AcDbLine
 10
308.1299213345951
 20
269.2687594576344
 30
0.0
 11
324.9542674794397
 21
269.2687594576344
 31
0.0
  0
LINE
  5
291E
330
187C
100
AcDbEntity
  8
寸法
  6
Continuous
 62
     0
370
    13
100
AcDbLine
 10
323.9542674794396
 20
290.2657594576343
 30
0.0
 11
323.9542674794396
 21
294.2657594576343
 31
0.0
  0
LINE
  5
291F
330
187C
100
AcDbEntity
  8
寸法
  6
Continuous
 62
     0
370
    13
100
AcDbLine
 10
323.9542674794396
 20
265.2687594576344
 30
0.0
 11
323.9542674794396
 21
261.2687594576344
 31
0.0
  0
LINE
  5
2920
330
187C
100
AcDbEntity
  8
寸法
  6
Continuous
 62
     0
370
    13
100
AcDbLine
 10
323.9542674794396
 20
286.2657594576343
 30
0.0
 11
323.9542674794396
 21
269.2687594576344
 31
0.0
  0
INSERT
  5
2921
330
187C
100
AcDbEntity
  8
寸法
  6
Continuous
 62
     0
370
    13
100
AcDbBlockReference
  2
_OPEN30
 10
323.9542674794396
 20
286.2657594576343
 30
0.0
 41
4.0
 42
4.0
 43
4.0
 50
270.0
  0
INSERT
  5
2922
330
187C
100
AcDbEntity
  8
寸法
  6
Continuous
 62
     0
370
    13
100
AcDbBlockReference
  2
_OPEN30
 10
323.9542674794396
 20
269.2687594576344
 30
0.0
 41
4.0
 42
4.0
 43
4.0
 50
90.0
  0
MTEXT
  5
2923
330
187C
100
AcDbEntity
  8
寸法
  6
Continuous
 62
     6
100
AcDbMText
 10
318.9542674794396
 20
277.7654111480801
 30
0.0
 40
8.0
 41
0.0
 71
     5
 72
     1
  1
\A1;17
  7
Standard
 11
0.0000000000000001
 21
1.0
 31
0.0
 73
     1
 44
1.0
  0
POINT
  5
2924
330
187C
100
AcDbEntity
  8
DEFPOINTS
  6
Continuous
 62
     0
100
AcDbPoint
 10
271.1299213345951
 20
286.2657594576343
 30
0.0
  0
POINT
  5
2925
330
187C
100
AcDbEntity
  8
DEFPOINTS
  6
Continuous
 62
     0
100
AcDbPoint
 10
307.1299213345951
 20
269.2687594576344
 30
0.0
  0
POINT
  5
2926
330
187C
100
AcDbEntity
  8
DEFPOINTS
  6
Continuous
 62
     0
100
AcDbPoint
 10
323.9542674794396
 20
269.2687594576344
 30
0.0
  0
ENDBLK
  5
1887
330
187C
100
AcDbEntity
  8
0
100
AcDbBlockEnd
  0
BLOCK
  5
1907
330
18FD
100
AcDbEntity
  8
0
100
AcDbBlockBegin
  2
*D11
 70
     1
 10
0.0
 20
0.0
 30
0.0
  3
*D11
  1

  0
LINE
  5
1A60
330
18FD
100
AcDbEntity
  8
寸法
  6
Continuous
 62
     0
370
    13
100
AcDbLine
 10
307.6171641052596
 20
165.6768095051893
 30
0.0
 11
264.5446041052588
 21
165.6768095051893
 31
0.0
  0
LINE
  5
1A61
330
18FD
100
AcDbEntity
  8
寸法
  6
Continuous
 62
     0
370
    13
100
AcDbLine
 10
264.5446041052588
 20
165.6768095051893
 30
0.0
 11
242.8111781732561
 21
185.3544407210442
 31
0.0
  0
MTEXT
  5
1A62
330
18FD
100
AcDbEntity
  8
寸法
  6
Continuous
 62
     6
100
AcDbMText
 10
286.5808841052596
 20
168.7596095051893
 30
0.0
 40
4.1656
 41
0.0
 71
     5
 72
     1
  1
\A1;4-10×\U+22057(長丸)
 73
     1
 44
1.0
  0
INSERT
  5
1A63
330
18FD
100
AcDbEntity
  8
寸法
  6
Continuous
 62
     0
370
    13
100
AcDbBlockReference
  2
_OPEN30
 10
239.8459892808528
 20
188.0391483089144
 30
0.0
 41
4.0
 42
4.0
 43
4.0
 50
137.8420366205822
  0
POINT
  5
1A64
330
18FD
100
AcDbEntity
  8
DEFPOINTS
  6
Continuous
 62
     0
100
AcDbPoint
 10
239.8459892808528
 20
188.0391483089144
 30
0.0
  0
POINT
  5
1A65
330
18FD
100
AcDbEntity
  8
DEFPOINTS
  6
Continuous
 62
     0
100
AcDbPoint
 10
234.6569087191469
 20
192.7373865876873
 30
0.0
  0
ENDBLK
  5
1908
330
18FD
100
AcDbEntity
  8
0
100
AcDbBlockEnd
  0
BLOCK
  5
1AAD
330
1AA3
100
AcDbEntity
  8
0
  6
ByBlock
 62
     0
100
AcDbBlockBegin
  2
*D12
 70
     1
 10
0.0
 20
0.0
 30
0.0
  3
*D12
  1

  0
LINE
  5
1AA4
330
1AA3
100
AcDbEntity
  8
0
  6
ByBlock
 62
     0
100
AcDbLine
 10
142.387987
 20
-35.21420399999996
 30
0.0
 11
29.888987
 21
-35.21420399999996
 31
0.0
  0
LINE
  5
1AA5
330
1AA3
100
AcDbEntity
  8
0
  6
ByBlock
 62
     0
100
AcDbLine
 10
142.387987
 20
-23.915751
 30
0.0
 11
142.387987
 21
-36.21420399999996
 31
0.0
  0
LINE
  5
1AA6
330
1AA3
100
AcDbEntity
  8
0
  6
ByBlock
 62
     0
100
AcDbLine
 10
29.888987
 20
-24.415751
 30
0.0
 11
29.888987
 21
-36.21420399999996
 31
0.0
  0
INSERT
  5
1AA7
330
1AA3
100
AcDbEntity
  8
0
  6
ByBlock
 62
     0
100
AcDbBlockReference
  2
_OPEN30
 10
142.387987
 20
-35.21420399999996
 30
0.0
 41
2.77
 42
2.77
 43
2.77
  0
INSERT
  5
1AA8
330
1AA3
100
AcDbEntity
  8
0
  6
ByBlock
 62
     0
100
AcDbBlockReference
  2
_OPEN30
 10
29.888987
 20
-35.21420399999996
 30
0.0
 41
2.77
 42
2.77
 43
2.77
 50
180.0
  0
MTEXT
  5
1AA9
330
1AA3
100
AcDbEntity
  8
0
  6
ByBlock
 62
     3
100
AcDbMText
 10
86.138487
 20
-32.614204
 30
0.0
 40
3.2
 41
0.0
 71
     5
 72
     1
  1
\A1;225
 73
     1
 44
1.0
  0
POINT
  5
1AAA
330
1AA3
100
AcDbEntity
  8
DEFPOINTS
  6
ByBlock
 62
     0
100
AcDbPoint
 10
142.387987
 20
-22.915751
 30
0.0
  0
POINT
  5
1AAB
330
1AA3
100
AcDbEntity
  8
DEFPOINTS
  6
ByBlock
 62
     0
100
AcDbPoint
 10
29.888987
 20
-23.415751
 30
0.0
  0
POINT
  5
1AAC
330
1AA3
100
AcDbEntity
  8
DEFPOINTS
  6
ByBlock
 62
     0
100
AcDbPoint
 10
29.888987
 20
-35.21420399999996
 30
0.0
  0
ENDBLK
  5
1AAE
330
1AA3
100
AcDbEntity
  8
0
  6
ByBlock
 62
     0
100
AcDbBlockEnd
  0
BLOCK
  5
1AB9
330
1AAF
100
AcDbEntity
  8
0
  6
ByBlock
 62
     0
100
AcDbBlockBegin
  2
*D13
 70
     1
 10
0.0
 20
0.0
 30
0.0
  3
*D13
  1

  0
LINE
  5
1AB0
330
1AAF
100
AcDbEntity
  8
0
  6
ByBlock
 62
     0
100
AcDbLine
 10
176.6305209999999
 20
-35.21420399999996
 30
0.0
 11
154.6305209999998
 21
-35.21420399999996
 31
0.0
  0
LINE
  5
1AB1
330
1AAF
100
AcDbEntity
  8
0
  6
ByBlock
 62
     0
100
AcDbLine
 10
176.6305209999999
 20
-24.415751
 30
0.0
 11
176.6305209999999
 21
-36.21420399999996
 31
0.0
  0
LINE
  5
1AB2
330
1AAF
100
AcDbEntity
  8
0
  6
ByBlock
 62
     0
100
AcDbLine
 10
154.6305209999998
 20
-23.915751
 30
0.0
 11
154.6305209999998
 21
-36.21420399999996
 31
0.0
  0
INSERT
  5
1AB3
330
1AAF
100
AcDbEntity
  8
0
  6
ByBlock
 62
     0
100
AcDbBlockReference
  2
_OPEN30
 10
176.6305209999999
 20
-35.21420399999996
 30
0.0
 41
2.77
 42
2.77
 43
2.77
  0
INSERT
  5
1AB4
330
1AAF
100
AcDbEntity
  8
0
  6
ByBlock
 62
     0
100
AcDbBlockReference
  2
_OPEN30
 10
154.6305209999998
 20
-35.21420399999996
 30
0.0
 41
2.77
 42
2.77
 43
2.77
 50
180.0
  0
MTEXT
  5
1AB5
330
1AAF
100
AcDbEntity
  8
0
  6
ByBlock
 62
     3
100
AcDbMText
 10
165.630521
 20
-32.614204
 30
0.0
 40
3.2
 41
0.0
 71
     5
 72
     1
  1
\A1;44
 73
     1
 44
1.0
  0
POINT
  5
1AB6
330
1AAF
100
AcDbEntity
  8
DEFPOINTS
  6
ByBlock
 62
     0
100
AcDbPoint
 10
176.6305209999999
 20
-23.415751
 30
0.0
  0
POINT
  5
1AB7
330
1AAF
100
AcDbEntity
  8
DEFPOINTS
  6
ByBlock
 62
     0
100
AcDbPoint
 10
154.6305209999998
 20
-22.915751
 30
0.0
  0
POINT
  5
1AB8
330
1AAF
100
AcDbEntity
  8
DEFPOINTS
  6
ByBlock
 62
     0
100
AcDbPoint
 10
154.6305209999998
 20
-35.21420399999996
 30
0.0
  0
ENDBLK
  5
1ABA
330
1AAF
100
AcDbEntity
  8
0
  6
ByBlock
 62
     0
100
AcDbBlockEnd
  0
BLOCK
  5
21E8
330
21DE
100
AcDbEntity
  8
0
100
AcDbBlockBegin
  2
*D14
 70
     1
 10
0.0
 20
0.0
 30
0.0
  3
*D14
  1

  0
LINE
  5
223E
330
21DE
100
AcDbEntity
  8
本体
  6
Continuous
 62
     0
370
    -2
100
AcDbLine
 10
1015.823277408258
 20
133.610462236074
 30
0.0
 11
992.2263714082587
 21
133.610462236074
 31
0.0
  0
LINE
  5
223F
330
21DE
100
AcDbEntity
  8
本体
  6
Continuous
 62
     0
370
    -2
100
AcDbLine
 10
1016.823277408259
 20
177.6104622360739
 30
0.0
 11
992.2263714082587
 21
177.6104622360739
 31
0.0
  0
LINE
  5
2240
330
21DE
100
AcDbEntity
  8
本体
  6
Continuous
 62
     0
370
    -2
100
AcDbLine
 10
993.2263714082589
 20
136.380462236074
 30
0.0
 11
993.2263714082589
 21
174.8404622360736
 31
0.0
  0
INSERT
  5
2241
330
21DE
100
AcDbEntity
  8
本体
  6
Continuous
 62
     0
370
    -2
100
AcDbBlockReference
  2
_OPEN30
 10
993.2263714082589
 20
133.610462236074
 30
0.0
 41
2.77
 42
2.77
 43
2.77
 50
270.0
  0
INSERT
  5
2242
330
21DE
100
AcDbEntity
  8
本体
  6
Continuous
 62
     0
370
    -2
100
AcDbBlockReference
  2
_OPEN30
 10
993.2263714082589
 20
177.6104622360739
 30
0.0
 41
2.77
 42
2.77
 43
2.77
 50
90.0
  0
MTEXT
  5
2243
330
21DE
100
AcDbEntity
  8
本体
  6
Continuous
 62
     0
100
AcDbMText
 10
990.1435714082587
 20
155.610462236074
 30
0.0
 40
4.1656
 41
0.0
 71
     5
 72
     1
  1
\A1;44
 11
0.0000000000000001
 21
1.0
 31
0.0
 73
     1
 44
1.0
  0
POINT
  5
2244
330
21DE
100
AcDbEntity
  8
DEFPOINTS
  6
Continuous
 62
     0
100
AcDbPoint
 10
1016.823277408259
 20
133.610462236074
 30
0.0
  0
POINT
  5
2245
330
21DE
100
AcDbEntity
  8
DEFPOINTS
  6
Continuous
 62
     0
100
AcDbPoint
 10
1017.823277408258
 20
177.6104622360739
 30
0.0
  0
POINT
  5
2246
330
21DE
100
AcDbEntity
  8
DEFPOINTS
  6
Continuous
 62
     0
100
AcDbPoint
 10
993.2263714082589
 20
177.6104622360739
 30
0.0
  0
ENDBLK
  5
21E9
330
21DE
100
AcDbEntity
  8
0
100
AcDbBlockEnd
  0
BLOCK
  5
21F4
330
21EA
100
AcDbEntity
  8
0
100
AcDbBlockBegin
  2
*D15
 70
     1
 10
0.0
 20
0.0
 30
0.0
  3
*D15
  1

  0
LINE
  5
2250
330
21EA
100
AcDbEntity
  8
本体
  6
Continuous
 62
     0
370
    -2
100
AcDbLine
 10
633.4620337767812
 20
202.6474063346573
 30
0.0
 11
608.8651277767815
 21
202.6474063346573
 31
0.0
  0
LINE
  5
2251
330
21EA
100
AcDbEntity
  8
本体
  6
Continuous
 62
     0
370
    -2
100
AcDbLine
 10
632.4620337767814
 20
427.6454063346573
 30
0.0
 11
608.8651277767816
 21
427.6454063346573
 31
0.0
  0
LINE
  5
2252
330
21EA
100
AcDbEntity
  8
本体
  6
Continuous
 62
     0
370
    -2
100
AcDbLine
 10
609.8651277767815
 20
205.4174063346573
 30
0.0
 11
609.8651277767816
 21
424.8754063346574
 31
0.0
  0
INSERT
  5
2253
330
21EA
100
AcDbEntity
  8
本体
  6
Continuous
 62
     0
370
    -2
100
AcDbBlockReference
  2
_OPEN30
 10
609.8651277767815
 20
202.6474063346573
 30
0.0
 41
2.77
 42
2.77
 43
2.77
 50
270.0
  0
INSERT
  5
2254
330
21EA
100
AcDbEntity
  8
本体
  6
Continuous
 62
     0
370
    -2
100
AcDbBlockReference
  2
_OPEN30
 10
609.8651277767816
 20
427.6454063346573
 30
0.0
 41
2.77
 42
2.77
 43
2.77
 50
90.0
  0
MTEXT
  5
2255
330
21EA
100
AcDbEntity
  8
本体
  6
Continuous
 62
     0
100
AcDbMText
 10
606.7823277767812
 20
315.1464063346576
 30
0.0
 40
4.1656
 41
0.0
 71
     5
 72
     1
  1
\A1;225
 11
0.0000000000000001
 21
1.0
 31
0.0
 73
     1
 44
1.0
  0
POINT
  5
2256
330
21EA
100
AcDbEntity
  8
DEFPOINTS
  6
Continuous
 62
     0
100
AcDbPoint
 10
634.4620337767812
 20
202.6474063346573
 30
0.0
  0
POINT
  5
2257
330
21EA
100
AcDbEntity
  8
DEFPOINTS
  6
Continuous
 62
     0
100
AcDbPoint
 10
633.4620337767812
 20
427.6454063346573
 30
0.0
  0
POINT
  5
2258
330
21EA
100
AcDbEntity
  8
DEFPOINTS
  6
Continuous
 62
     0
100
AcDbPoint
 10
609.8651277767816
 20
427.6454063346573
 30
0.0
  0
ENDBLK
  5
21F5
330
21EA
100
AcDbEntity
  8
0
100
AcDbBlockEnd
  0
BLOCK
  5
29F1
330
29E7
100
AcDbEntity
  8
0
100
AcDbBlockBegin
  2
*D16
 70
     1
 10
0.0
 20
0.0
 30
0.0
  3
*D16
  1

  0
LINE
  5
29E8
330
29E7
100
AcDbEntity
  8
0
 62
     0
370
    13
100
AcDbLine
 10
462.1015692797042
 20
232.9814154536659
 30
0.0
 11
462.1015692797042
 21
214.8463277843063
 31
0.0
  0
LINE
  5
29E9
330
29E7
100
AcDbEntity
  8
0
 62
     0
370
    13
100
AcDbLine
 10
672.1015692797043
 20
232.9814154536659
 30
0.0
 11
672.1015692797043
 21
214.8463277843063
 31
0.0
  0
LINE
  5
29EA
330
29E7
100
AcDbEntity
  8
0
 62
     0
370
    13
100
AcDbLine
 10
466.1015692797042
 20
215.8463277843063
 30
0.0
 11
668.1015692797043
 21
215.8463277843063
 31
0.0
  0
INSERT
  5
29EB
330
29E7
100
AcDbEntity
  8
0
 62
     0
370
    13
100
AcDbBlockReference
  2
_OPEN30
 10
462.1015692797042
 20
215.8463277843063
 30
0.0
 41
4.0
 42
4.0
 43
4.0
 50
180.0
  0
INSERT
  5
29EC
330
29E7
100
AcDbEntity
  8
0
 62
     0
370
    13
100
AcDbBlockReference
  2
_OPEN30
 10
672.1015692797043
 20
215.8463277843063
 30
0.0
 41
4.0
 42
4.0
 43
4.0
  0
MTEXT
  5
29ED
330
29E7
100
AcDbEntity
  8
0
 62
     6
100
AcDbMText
 10
563.5856755107969
 20
218.9291277843063
 30
0.0
 40
4.1656
 41
0.0
 71
     5
 72
     1
  1
\A1;210±2
 73
     1
 44
1.0
  0
POINT
  5
29EE
330
29E7
100
AcDbEntity
  8
DEFPOINTS
 62
     0
100
AcDbPoint
 10
462.1015692797042
 20
233.9814154536659
 30
0.0
  0
POINT
  5
29EF
330
29E7
100
AcDbEntity
  8
DEFPOINTS
 62
     0
100
AcDbPoint
 10
672.1015692797043
 20
233.9814154536659
 30
0.0
  0
POINT
  5
29F0
330
29E7
100
AcDbEntity
  8
DEFPOINTS
 62
     0
100
AcDbPoint
 10
672.1015692797043
 20
215.8463277843063
 30
0.0
  0
ENDBLK
  5
29F2
330
29E7
100
AcDbEntity
  8
0
100
AcDbBlockEnd
  0
BLOCK
  5
29FF
330
29F3
100
AcDbEntity
  8
0
100
AcDbBlockBegin
  2
*D17
 70
     1
 10
0.0
 20
0.0
 30
0.0
  3
*D17
  1

  0
LINE
  5
29F4
330
29F3
100
AcDbEntity
  8
0
 62
     0
370
    13
100
AcDbLine
 10
652.1415692797043
 20
152.5250336889844
 30
0.0
 11
690.7342488858135
 21
152.5250336889844
 31
0.0
  0
LINE
  5
29F5
330
29F3
100
AcDbEntity
  8
0
 62
     0
370
    13
100
AcDbLine
 10
673.1015692797043
 20
157.3260336889845
 30
0.0
 11
690.7342488858135
 21
157.3260336889845
 31
0.0
  0
LINE
  5
29F6
330
29F3
100
AcDbEntity
  8
0
 62
     0
370
    13
100
AcDbLine
 10
689.7342488858135
 20
148.5250336889844
 30
0.0
 11
689.7342488858135
 21
144.5250336889844
 31
0.0
  0
LINE
  5
29F7
330
29F3
100
AcDbEntity
  8
0
 62
     0
370
    13
100
AcDbLine
 10
689.7342488858135
 20
161.3260336889845
 30
0.0
 11
689.7342488858135
 21
165.3260336889845
 31
0.0
  0
MTEXT
  5
29F8
330
29F3
100
AcDbEntity
  8
0
 62
     6
100
AcDbMText
 10
686.2218746659396
 20
141.530498493734
 30
0.0
 40
4.1656
 41
0.0
 71
     5
 72
     1
  1
\A1;(4.8)
 11
0.0000000000000001
 21
1.0
 31
0.0
 73
     1
 44
1.0
  0
LINE
  5
29F9
330
29F3
100
AcDbEntity
  8
0
 62
     0
370
    13
100
AcDbLine
 10
689.7342488858135
 20
152.5250336889844
 30
0.0
 11
689.7342488858135
 21
157.3260336889845
 31
0.0
  0
INSERT
  5
29FA
330
29F3
100
AcDbEntity
  8
0
 62
     0
370
    13
100
AcDbBlockReference
  2
_OPEN30
 10
689.7342488858135
 20
152.5250336889844
 30
0.0
 41
4.0
 42
4.0
 43
4.0
 50
90.0
  0
INSERT
  5
29FB
330
29F3
100
AcDbEntity
  8
0
 62
     0
370
    13
100
AcDbBlockReference
  2
_OPEN30
 10
689.7342488858135
 20
157.3260336889845
 30
0.0
 41
4.0
 42
4.0
 43
4.0
 50
270.0
  0
POINT
  5
29FC
330
29F3
100
AcDbEntity
  8
DEFPOINTS
 62
     0
100
AcDbPoint
 10
651.1415692797044
 20
152.5250336889844
 30
0.0
  0
POINT
  5
29FD
330
29F3
100
AcDbEntity
  8
DEFPOINTS
 62
     0
100
AcDbPoint
 10
672.1015692797043
 20
157.3260336889845
 30
0.0
  0
POINT
  5
29FE
330
29F3
100
AcDbEntity
  8
DEFPOINTS
 62
     0
100
AcDbPoint
 10
689.7342488858135
 20
157.3260336889845
 30
0.0
  0
ENDBLK
  5
2A00
330
29F3
100
AcDbEntity
  8
0
100
AcDbBlockEnd
  0
BLOCK
  5
2A0B
330
2A01
100
AcDbEntity
  8
0
100
AcDbBlockBegin
  2
*D18
 70
     1
 10
0.0
 20
0.0
 30
0.0
  3
*D18
  1

  0
LINE
  5
2A02
330
2A01
100
AcDbEntity
  8
0
 62
     0
370
    13
100
AcDbLine
 10
673.1015692797043
 20
157.3260336889845
 30
0.0
 11
690.7342488858135
 21
157.3260336889845
 31
0.0
  0
LINE
  5
2A03
330
2A01
100
AcDbEntity
  8
0
 62
     0
370
    13
100
AcDbLine
 10
671.9015692797043
 20
201.3260336889845
 30
0.0
 11
690.7342488858135
 21
201.3260336889845
 31
0.0
  0
LINE
  5
2A04
330
2A01
100
AcDbEntity
  8
0
 62
     0
370
    13
100
AcDbLine
 10
689.7342488858135
 20
161.3260336889845
 30
0.0
 11
689.7342488858135
 21
197.3260336889839
 31
0.0
  0
INSERT
  5
2A05
330
2A01
100
AcDbEntity
  8
0
 62
     0
370
    13
100
AcDbBlockReference
  2
_OPEN30
 10
689.7342488858135
 20
157.3260336889845
 30
0.0
 41
4.0
 42
4.0
 43
4.0
 50
270.0
  0
INSERT
  5
2A06
330
2A01
100
AcDbEntity
  8
0
 62
     0
370
    13
100
AcDbBlockReference
  2
_OPEN30
 10
689.7342488858135
 20
201.3260336889845
 30
0.0
 41
4.0
 42
4.0
 43
4.0
 50
90.0
  0
MTEXT
  5
2A07
330
2A01
100
AcDbEntity
  8
0
 62
     6
100
AcDbMText
 10
686.6514488858132
 20
179.3260336889846
 30
0.0
 40
4.1656
 41
0.0
 71
     5
 72
     1
  1
\A1;44±1
 11
0.0000000000000001
 21
1.0
 31
0.0
 73
     1
 44
1.0
  0
POINT
  5
2A08
330
2A01
100
AcDbEntity
  8
DEFPOINTS
 62
     0
100
AcDbPoint
 10
672.1015692797043
 20
157.3260336889845
 30
0.0
  0
POINT
  5
2A09
330
2A01
100
AcDbEntity
  8
DEFPOINTS
 62
     0
100
AcDbPoint
 10
670.9015692797042
 20
201.3260336889845
 30
0.0
  0
POINT
  5
2A0A
330
2A01
100
AcDbEntity
  8
DEFPOINTS
 62
     0
100
AcDbPoint
 10
689.7342488858135
 20
201.3260336889845
 30
0.0
  0
ENDBLK
  5
2A0C
330
2A01
100
AcDbEntity
  8
0
100
AcDbBlockEnd
  0
BLOCK
  5
2A17
330
2A0D
100
AcDbEntity
  8
0
100
AcDbBlockBegin
  2
*D19
 70
     1
 10
0.0
 20
0.0
 30
0.0
  3
*D19
  1

  0
LINE
  5
2A0E
330
2A0D
100
AcDbEntity
  8
0
 62
     0
370
    13
100
AcDbLine
 10
671.9015692797041
 20
232.7814154536659
 30
0.0
 11
690.7342488858135
 21
232.7814154536659
 31
0.0
  0
LINE
  5
2A0F
330
2A0D
100
AcDbEntity
  8
0
 62
     0
370
    13
100
AcDbLine
 10
673.1015692797043
 20
457.7814154536658
 30
0.0
 11
690.7342488858136
 21
457.7814154536658
 31
0.0
  0
LINE
  5
2A10
330
2A0D
100
AcDbEntity
  8
0
 62
     0
370
    13
100
AcDbLine
 10
689.7342488858135
 20
236.7814154536659
 30
0.0
 11
689.7342488858136
 21
453.7814154536658
 31
0.0
  0
INSERT
  5
2A11
330
2A0D
100
AcDbEntity
  8
0
 62
     0
370
    13
100
AcDbBlockReference
  2
_OPEN30
 10
689.7342488858135
 20
232.7814154536659
 30
0.0
 41
4.0
 42
4.0
 43
4.0
 50
270.0
  0
INSERT
  5
2A12
330
2A0D
100
AcDbEntity
  8
0
 62
     0
370
    13
100
AcDbBlockReference
  2
_OPEN30
 10
689.7342488858136
 20
457.7814154536658
 30
0.0
 41
4.0
 42
4.0
 43
4.0
 50
90.0
  0
MTEXT
  5
2A13
330
2A0D
100
AcDbEntity
  8
0
 62
     6
100
AcDbMText
 10
686.6514488858132
 20
345.2814154536658
 30
0.0
 40
4.1656
 41
0.0
 71
     5
 72
     1
  1
\A1;225±2
 11
0.0000000000000001
 21
1.0
 31
0.0
 73
     1
 44
1.0
  0
POINT
  5
2A14
330
2A0D
100
AcDbEntity
  8
DEFPOINTS
 62
     0
100
AcDbPoint
 10
670.9015692797041
 20
232.7814154536659
 30
0.0
  0
POINT
  5
2A15
330
2A0D
100
AcDbEntity
  8
DEFPOINTS
 62
     0
100
AcDbPoint
 10
672.1015692797045
 20
457.7814154536658
 30
0.0
  0
POINT
  5
2A16
330
2A0D
100
AcDbEntity
  8
DEFPOINTS
 62
     0
100
AcDbPoint
 10
689.7342488858136
 20
457.7814154536658
 30
0.0
  0
ENDBLK
  5
2A18
330
2A0D
100
AcDbEntity
  8
0
100
AcDbBlockEnd
  0
BLOCK
  5
33AB
330
33A1
100
AcDbEntity
  8
0
 62
    84
100
AcDbBlockBegin
  2
*D20
 70
     1
 10
0.0
 20
0.0
 30
0.0
  3
*D20
  1

  0
LINE
  5
3433
330
33A1
100
AcDbEntity
  8
本体
 62
     0
370
    13
100
AcDbLine
 10
767.1118850307367
 20
251.6409481899834
 30
0.0
 11
767.1118850307367
 21
233.5058605206237
 31
0.0
  0
LINE
  5
3434
330
33A1
100
AcDbEntity
  8
本体
 62
     0
370
    13
100
AcDbLine
 10
977.1118850307367
 20
251.6409481899833
 30
0.0
 11
977.1118850307367
 21
233.5058605206237
 31
0.0
  0
LINE
  5
3435
330
33A1
100
AcDbEntity
  8
本体
 62
     0
370
    13
100
AcDbLine
 10
771.1118850307367
 20
234.5058605206236
 30
0.0
 11
973.1118850307368
 21
234.5058605206236
 31
0.0
  0
INSERT
  5
3436
330
33A1
100
AcDbEntity
  8
本体
 62
     0
370
    13
100
AcDbBlockReference
  2
_OPEN30
 10
767.1118850307367
 20
234.5058605206236
 30
0.0
 41
4.0
 42
4.0
 43
4.0
 50
180.0
  0
INSERT
  5
3437
330
33A1
100
AcDbEntity
  8
本体
 62
     0
370
    13
100
AcDbBlockReference
  2
_OPEN30
 10
977.1118850307367
 20
234.5058605206236
 30
0.0
 41
4.0
 42
4.0
 43
4.0
  0
MTEXT
  5
3438
330
33A1
100
AcDbEntity
  8
本体
 62
     6
100
AcDbMText
 10
868.5959912618297
 20
237.5886605206237
 30
0.0
 40
4.1656
 41
0.0
 71
     5
 72
     1
  1
\A1;210±2
 73
     1
 44
1.0
  0
POINT
  5
3439
330
33A1
100
AcDbEntity
  8
DEFPOINTS
 62
     0
100
AcDbPoint
 10
767.1118850307367
 20
252.6409481899834
 30
0.0
  0
POINT
  5
343A
330
33A1
100
AcDbEntity
  8
DEFPOINTS
 62
     0
100
AcDbPoint
 10
977.1118850307367
 20
252.6409481899833
 30
0.0
  0
POINT
  5
343B
330
33A1
100
AcDbEntity
  8
DEFPOINTS
 62
     0
100
AcDbPoint
 10
977.1118850307367
 20
234.5058605206236
 30
0.0
  0
ENDBLK
  5
33AC
330
33A1
100
AcDbEntity
  8
0
 62
    84
100
AcDbBlockEnd
  0
BLOCK
  5
33B7
330
33AD
100
AcDbEntity
  8
0
 62
    84
100
AcDbBlockBegin
  2
*D21
 70
     1
 10
0.0
 20
0.0
 30
0.0
  3
*D21
  1

  0
LINE
  5
343C
330
33AD
100
AcDbEntity
  8
本体
 62
     0
370
    13
100
AcDbLine
 10
976.9118850307366
 20
251.4409481899833
 30
0.0
 11
995.744564636846
 21
251.4409481899833
 31
0.0
  0
LINE
  5
343D
330
33AD
100
AcDbEntity
  8
本体
 62
     0
370
    13
100
AcDbLine
 10
978.111885030737
 20
476.4409481899833
 30
0.0
 11
995.744564636846
 21
476.4409481899833
 31
0.0
  0
LINE
  5
343E
330
33AD
100
AcDbEntity
  8
本体
 62
     0
370
    13
100
AcDbLine
 10
994.7445646368461
 20
255.4409481899833
 30
0.0
 11
994.7445646368461
 21
472.4409481899833
 31
0.0
  0
INSERT
  5
343F
330
33AD
100
AcDbEntity
  8
本体
 62
     0
370
    13
100
AcDbBlockReference
  2
_OPEN30
 10
994.7445646368461
 20
251.4409481899833
 30
0.0
 41
4.0
 42
4.0
 43
4.0
 50
270.0
  0
INSERT
  5
3440
330
33AD
100
AcDbEntity
  8
本体
 62
     0
370
    13
100
AcDbBlockReference
  2
_OPEN30
 10
994.7445646368461
 20
476.4409481899833
 30
0.0
 41
4.0
 42
4.0
 43
4.0
 50
90.0
  0
MTEXT
  5
3441
330
33AD
100
AcDbEntity
  8
本体
 62
     6
100
AcDbMText
 10
991.6617646368459
 20
363.9409481899835
 30
0.0
 40
4.1656
 41
0.0
 71
     5
 72
     1
  1
\A1;225±2
 11
0.0000000000000001
 21
1.0
 31
0.0
 73
     1
 44
1.0
  0
POINT
  5
3442
330
33AD
100
AcDbEntity
  8
DEFPOINTS
 62
     0
100
AcDbPoint
 10
975.9118850307366
 20
251.4409481899833
 30
0.0
  0
POINT
  5
3443
330
33AD
100
AcDbEntity
  8
DEFPOINTS
 62
     0
100
AcDbPoint
 10
977.111885030737
 20
476.4409481899833
 30
0.0
  0
POINT
  5
3444
330
33AD
100
AcDbEntity
  8
DEFPOINTS
 62
     0
100
AcDbPoint
 10
994.7445646368461
 20
476.4409481899833
 30
0.0
  0
ENDBLK
  5
33B8
330
33AD
100
AcDbEntity
  8
0
 62
    84
100
AcDbBlockEnd
  0
BLOCK
  5
33C3
330
33B9
100
AcDbEntity
  8
0
 62
    84
100
AcDbBlockBegin
  2
*D22
 70
     1
 10
0.0
 20
0.0
 30
0.0
  3
*D22
  1

  0
LINE
  5
342A
330
33B9
100
AcDbEntity
  8
本体
 62
     0
370
    13
100
AcDbLine
 10
978.1118850307366
 20
175.9855664253018
 30
0.0
 11
995.744564636846
 21
175.9855664253018
 31
0.0
  0
LINE
  5
342B
330
33B9
100
AcDbEntity
  8
本体
 62
     0
370
    13
100
AcDbLine
 10
976.9118850307366
 20
219.9855664253019
 30
0.0
 11
995.744564636846
 21
219.9855664253019
 31
0.0
  0
LINE
  5
342C
330
33B9
100
AcDbEntity
  8
本体
 62
     0
370
    13
100
AcDbLine
 10
994.7445646368461
 20
179.9855664253018
 30
0.0
 11
994.7445646368461
 21
215.9855664253019
 31
0.0
  0
INSERT
  5
342D
330
33B9
100
AcDbEntity
  8
本体
 62
     0
370
    13
100
AcDbBlockReference
  2
_OPEN30
 10
994.7445646368461
 20
175.9855664253018
 30
0.0
 41
4.0
 42
4.0
 43
4.0
 50
270.0
  0
INSERT
  5
342E
330
33B9
100
AcDbEntity
  8
本体
 62
     0
370
    13
100
AcDbBlockReference
  2
_OPEN30
 10
994.7445646368461
 20
219.9855664253019
 30
0.0
 41
4.0
 42
4.0
 43
4.0
 50
90.0
  0
MTEXT
  5
342F
330
33B9
100
AcDbEntity
  8
本体
 62
     6
100
AcDbMText
 10
991.6617646368459
 20
197.985566425302
 30
0.0
 40
4.1656
 41
0.0
 71
     5
 72
     1
  1
\A1;44±1
 11
0.0000000000000001
 21
1.0
 31
0.0
 73
     1
 44
1.0
  0
POINT
  5
3430
330
33B9
100
AcDbEntity
  8
DEFPOINTS
 62
     0
100
AcDbPoint
 10
977.1118850307367
 20
175.9855664253018
 30
0.0
  0
POINT
  5
3431
330
33B9
100
AcDbEntity
  8
DEFPOINTS
 62
     0
100
AcDbPoint
 10
975.9118850307366
 20
219.9855664253019
 30
0.0
  0
POINT
  5
3432
330
33B9
100
AcDbEntity
  8
DEFPOINTS
 62
     0
100
AcDbPoint
 10
994.7445646368461
 20
219.9855664253019
 30
0.0
  0
ENDBLK
  5
33C4
330
33B9
100
AcDbEntity
  8
0
 62
    84
100
AcDbBlockEnd
  0
BLOCK
  5
33D1
330
33C5
100
AcDbEntity
  8
0
 62
    84
100
AcDbBlockBegin
  2
*D23
 70
     1
 10
0.0
 20
0.0
 30
0.0
  3
*D23
  1

  0
LINE
  5
341F
330
33C5
100
AcDbEntity
  8
本体
 62
     0
370
    13
100
AcDbLine
 10
957.1518850307366
 20
171.1845664253018
 30
0.0
 11
995.744564636846
 21
171.1845664253018
 31
0.0
  0
LINE
  5
3420
330
33C5
100
AcDbEntity
  8
本体
 62
     0
370
    13
100
AcDbLine
 10
978.1118850307366
 20
175.9855664253018
 30
0.0
 11
995.744564636846
 21
175.9855664253018
 31
0.0
  0
LINE
  5
3421
330
33C5
100
AcDbEntity
  8
本体
 62
     0
370
    13
100
AcDbLine
 10
994.7445646368461
 20
167.1845664253018
 30
0.0
 11
994.7445646368461
 21
163.1845664253018
 31
0.0
  0
LINE
  5
3422
330
33C5
100
AcDbEntity
  8
本体
 62
     0
370
    13
100
AcDbLine
 10
994.7445646368461
 20
179.9855664253018
 30
0.0
 11
994.7445646368461
 21
183.9855664253019
 31
0.0
  0
MTEXT
  5
3423
330
33C5
100
AcDbEntity
  8
本体
 62
     6
100
AcDbMText
 10
991.232190416972
 20
160.1900312300513
 30
0.0
 40
4.1656
 41
0.0
 71
     5
 72
     1
  1
\A1;(4.8)
 11
0.0000000000000001
 21
1.0
 31
0.0
 73
     1
 44
1.0
  0
LINE
  5
3424
330
33C5
100
AcDbEntity
  8
本体
 62
     0
370
    13
100
AcDbLine
 10
994.7445646368461
 20
171.1845664253018
 30
0.0
 11
994.7445646368461
 21
175.9855664253018
 31
0.0
  0
INSERT
  5
3425
330
33C5
100
AcDbEntity
  8
本体
 62
     0
370
    13
100
AcDbBlockReference
  2
_OPEN30
 10
994.7445646368461
 20
171.1845664253018
 30
0.0
 41
4.0
 42
4.0
 43
4.0
 50
90.0
  0
INSERT
  5
3426
330
33C5
100
AcDbEntity
  8
本体
 62
     0
370
    13
100
AcDbBlockReference
  2
_OPEN30
 10
994.7445646368461
 20
175.9855664253018
 30
0.0
 41
4.0
 42
4.0
 43
4.0
 50
270.0
  0
POINT
  5
3427
330
33C5
100
AcDbEntity
  8
DEFPOINTS
 62
     0
100
AcDbPoint
 10
956.1518850307367
 20
171.1845664253018
 30
0.0
  0
POINT
  5
3428
330
33C5
100
AcDbEntity
  8
DEFPOINTS
 62
     0
100
AcDbPoint
 10
977.1118850307367
 20
175.9855664253018
 30
0.0
  0
POINT
  5
3429
330
33C5
100
AcDbEntity
  8
DEFPOINTS
 62
     0
100
AcDbPoint
 10
994.7445646368461
 20
175.9855664253018
 30
0.0
  0
ENDBLK
  5
33D2
330
33C5
100
AcDbEntity
  8
0
 62
    84
100
AcDbBlockEnd
  0
BLOCK
  5
395B
330
3951
100
AcDbEntity
  8
0
  6
ByBlock
 62
     0
100
AcDbBlockBegin
  2
*D24
 70
     1
 10
0.0
 20
0.0
 30
0.0
  3
*D24
  1

  0
LINE
  5
3952
330
3951
100
AcDbEntity
  8
0
  6
ByBlock
 62
     0
100
AcDbLine
 10
179.242912
 20
-45.820596
 30
0.0
 11
157.242912
 21
-45.820596
 31
0.0
  0
LINE
  5
3953
330
3951
100
AcDbEntity
  8
0
  6
ByBlock
 62
     0
100
AcDbLine
 10
179.242912
 20
-37.681387
 30
0.0
 11
179.242912
 21
-46.820596
 31
0.0
  0
LINE
  5
3954
330
3951
100
AcDbEntity
  8
0
  6
ByBlock
 62
     0
100
AcDbLine
 10
157.242912
 20
-37.181387
 30
0.0
 11
157.242912
 21
-46.820596
 31
0.0
  0
INSERT
  5
3955
330
3951
100
AcDbEntity
  8
0
  6
ByBlock
 62
     0
100
AcDbBlockReference
  2
_OPEN30
 10
179.242912
 20
-45.820596
 30
0.0
 41
2.77
 42
2.77
 43
2.77
  0
INSERT
  5
3956
330
3951
100
AcDbEntity
  8
0
  6
ByBlock
 62
     0
100
AcDbBlockReference
  2
_OPEN30
 10
157.242912
 20
-45.820596
 30
0.0
 41
2.77
 42
2.77
 43
2.77
 50
180.0
  0
MTEXT
  5
3957
330
3951
100
AcDbEntity
  8
0
  6
ByBlock
 62
     3
100
AcDbMText
 10
168.242912
 20
-43.220596
 30
0.0
 40
3.2
 41
0.0
 71
     5
 72
     1
  1
\A1;44±1
 73
     1
 44
1.0
  0
POINT
  5
3958
330
3951
100
AcDbEntity
  8
DEFPOINTS
  6
ByBlock
 62
     0
100
AcDbPoint
 10
179.242912
 20
-36.681387
 30
0.0
  0
POINT
  5
3959
330
3951
100
AcDbEntity
  8
DEFPOINTS
  6
ByBlock
 62
     0
100
AcDbPoint
 10
157.242912
 20
-36.181387
 30
0.0
  0
POINT
  5
395A
330
3951
100
AcDbEntity
  8
DEFPOINTS
  6
ByBlock
 62
     0
100
AcDbPoint
 10
157.242912
 20
-45.820596
 30
0.0
  0
ENDBLK
  5
395C
330
3951
100
AcDbEntity
  8
0
  6
ByBlock
 62
     0
100
AcDbBlockEnd
  0
BLOCK
  5
3967
330
395D
100
AcDbEntity
  8
0
  6
ByBlock
 62
     0
100
AcDbBlockBegin
  2
*D25
 70
     1
 10
0.0
 20
0.0
 30
0.0
  3
*D25
  1

  0
LINE
  5
395E
330
395D
100
AcDbEntity
  8
0
  6
ByBlock
 62
     0
100
AcDbLine
 10
148.62923
 20
68.31861299999999
 30
0.0
 11
148.62923
 21
-36.681387
 31
0.0
  0
LINE
  5
395F
330
395D
100
AcDbEntity
  8
0
  6
ByBlock
 62
     0
100
AcDbLine
 10
138.5533959999999
 20
68.31861299999999
 30
0.0
 11
149.62923
 21
68.31861299999999
 31
0.0
  0
LINE
  5
3960
330
395D
100
AcDbEntity
  8
0
  6
ByBlock
 62
     0
100
AcDbLine
 10
138.5533959999999
 20
-36.681387
 30
0.0
 11
149.62923
 21
-36.681387
 31
0.0
  0
INSERT
  5
3961
330
395D
100
AcDbEntity
  8
0
  6
ByBlock
 62
     0
100
AcDbBlockReference
  2
_OPEN30
 10
148.62923
 20
68.31861299999999
 30
0.0
 41
2.77
 42
2.77
 43
2.77
 50
90.0
  0
INSERT
  5
3962
330
395D
100
AcDbEntity
  8
0
  6
ByBlock
 62
     0
100
AcDbBlockReference
  2
_OPEN30
 10
148.62923
 20
-36.681387
 30
0.0
 41
2.77
 42
2.77
 43
2.77
 50
270.0
  0
MTEXT
  5
3963
330
395D
100
AcDbEntity
  8
0
  6
ByBlock
 62
     3
100
AcDbMText
 10
146.02923
 20
15.818613
 30
0.0
 40
3.2
 41
0.0
 71
     5
 72
     1
  1
\A1;210±1
 11
0.0
 21
1.0
 31
0.0
 73
     1
 44
1.0
  0
POINT
  5
3964
330
395D
100
AcDbEntity
  8
DEFPOINTS
  6
ByBlock
 62
     0
100
AcDbPoint
 10
137.553396
 20
68.31861299999999
 30
0.0
  0
POINT
  5
3965
330
395D
100
AcDbEntity
  8
DEFPOINTS
  6
ByBlock
 62
     0
100
AcDbPoint
 10
137.553396
 20
-36.681387
 30
0.0
  0
POINT
  5
3966
330
395D
100
AcDbEntity
  8
DEFPOINTS
  6
ByBlock
 62
     0
100
AcDbPoint
 10
148.62923
 20
-36.681387
 30
0.0
  0
ENDBLK
  5
3968
330
395D
100
AcDbEntity
  8
0
  6
ByBlock
 62
     0
100
AcDbBlockEnd
  0
BLOCK
  5
3973
330
3969
100
AcDbEntity
  8
0
  6
ByBlock
 62
     0
100
AcDbBlockBegin
  2
*D26
 70
     1
 10
0.0
 20
0.0
 30
0.0
  3
*D26
  1

  0
LINE
  5
396A
330
3969
100
AcDbEntity
  8
0
  6
ByBlock
 62
     0
100
AcDbLine
 10
138.0533959999999
 20
-45.820596
 30
0.0
 11
25.554396
 21
-45.820596
 31
0.0
  0
LINE
  5
396B
330
3969
100
AcDbEntity
  8
0
  6
ByBlock
 62
     0
100
AcDbLine
 10
138.0533959999999
 20
-37.181387
 30
0.0
 11
138.0533959999999
 21
-46.820596
 31
0.0
  0
LINE
  5
396C
330
3969
100
AcDbEntity
  8
0
  6
ByBlock
 62
     0
100
AcDbLine
 10
25.554396
 20
-37.681387
 30
0.0
 11
25.554396
 21
-46.820596
 31
0.0
  0
INSERT
  5
396D
330
3969
100
AcDbEntity
  8
0
  6
ByBlock
 62
     0
100
AcDbBlockReference
  2
_OPEN30
 10
138.0533959999999
 20
-45.820596
 30
0.0
 41
2.77
 42
2.77
 43
2.77
  0
INSERT
  5
396E
330
3969
100
AcDbEntity
  8
0
  6
ByBlock
 62
     0
100
AcDbBlockReference
  2
_OPEN30
 10
25.554396
 20
-45.820596
 30
0.0
 41
2.77
 42
2.77
 43
2.77
 50
180.0
  0
MTEXT
  5
396F
330
3969
100
AcDbEntity
  8
0
  6
ByBlock
 62
     3
100
AcDbMText
 10
81.80389599999998
 20
-43.220596
 30
0.0
 40
3.2
 41
0.0
 71
     5
 72
     1
  1
\A1;225±1
 73
     1
 44
1.0
  0
POINT
  5
3970
330
3969
100
AcDbEntity
  8
DEFPOINTS
  6
ByBlock
 62
     0
100
AcDbPoint
 10
138.0533959999999
 20
-36.181387
 30
0.0
  0
POINT
  5
3971
330
3969
100
AcDbEntity
  8
DEFPOINTS
  6
ByBlock
 62
     0
100
AcDbPoint
 10
25.554396
 20
-36.681387
 30
0.0
  0
POINT
  5
3972
330
3969
100
AcDbEntity
  8
DEFPOINTS
  6
ByBlock
 62
     0
100
AcDbPoint
 10
25.554396
 20
-45.820596
 30
0.0
  0
ENDBLK
  5
3974
330
3969
100
AcDbEntity
  8
0
  6
ByBlock
 62
     0
100
AcDbBlockEnd
  0
BLOCK
  5
42A0
330
4296
100
AcDbEntity
  8
0
 62
    84
100
AcDbBlockBegin
  2
*D27
 70
     1
 10
0.0
 20
0.0
 30
0.0
  3
*D27
  1

  0
LINE
  5
4333
330
4296
100
AcDbEntity
  8
本体
  6
Continuous
 62
     0
370
    -2
100
AcDbLine
 10
1068.205901558956
 20
191.9376677638391
 30
0.0
 11
1068.205901558956
 21
169.7859997638393
 31
0.0
  0
LINE
  5
4334
330
4296
100
AcDbEntity
  8
本体
  6
Continuous
 62
     0
370
    -2
100
AcDbLine
 10
858.2059015589562
 20
191.9376677638391
 30
0.0
 11
858.2059015589562
 21
169.7859997638393
 31
0.0
  0
LINE
  5
4335
330
4296
100
AcDbEntity
  8
本体
  6
Continuous
 62
     0
370
    -2
100
AcDbLine
 10
1065.435901558956
 20
170.7859997638393
 30
0.0
 11
860.9759015589565
 21
170.7859997638393
 31
0.0
  0
INSERT
  5
4336
330
4296
100
AcDbEntity
  8
本体
  6
Continuous
 62
     0
370
    -2
100
AcDbBlockReference
  2
_OPEN30
 10
1068.205901558956
 20
170.7859997638393
 30
0.0
 41
2.77
 42
2.77
 43
2.77
  0
INSERT
  5
4337
330
4296
100
AcDbEntity
  8
本体
  6
Continuous
 62
     0
370
    -2
100
AcDbBlockReference
  2
_OPEN30
 10
858.2059015589562
 20
170.7859997638393
 30
0.0
 41
2.77
 42
2.77
 43
2.77
 50
180.0
  0
MTEXT
  5
4338
330
4296
100
AcDbEntity
  8
本体
  6
Continuous
 62
     0
100
AcDbMText
 10
963.2059015589566
 20
173.8687997638391
 30
0.0
 40
4.1656
 41
0.0
 71
     5
 72
     1
  1
\A1;210±1
 73
     1
 44
1.0
  0
POINT
  5
4339
330
4296
100
AcDbEntity
  8
DEFPOINTS
  6
Continuous
 62
     0
100
AcDbPoint
 10
1068.205901558956
 20
192.9376677638391
 30
0.0
  0
POINT
  5
433A
330
4296
100
AcDbEntity
  8
DEFPOINTS
  6
Continuous
 62
     0
100
AcDbPoint
 10
858.2059015589562
 20
192.9376677638391
 30
0.0
  0
POINT
  5
433B
330
4296
100
AcDbEntity
  8
DEFPOINTS
  6
Continuous
 62
     0
100
AcDbPoint
 10
858.2059015589562
 20
170.7859997638393
 30
0.0
  0
ENDBLK
  5
42A1
330
4296
100
AcDbEntity
  8
0
 62
    84
100
AcDbBlockEnd
  0
BLOCK
  5
42AC
330
42A2
100
AcDbEntity
  8
0
 62
    84
100
AcDbBlockBegin
  2
*D28
 70
     1
 10
0.0
 20
0.0
 30
0.0
  3
*D28
  1

  0
LINE
  5
432A
330
42A2
100
AcDbEntity
  8
本体
  6
Continuous
 62
     0
370
    -2
100
AcDbLine
 10
858.2059015589562
 20
191.9376677638391
 30
0.0
 11
838.9274835589562
 21
191.9376677638391
 31
0.0
  0
LINE
  5
432B
330
42A2
100
AcDbEntity
  8
本体
  6
Continuous
 62
     0
370
    -2
100
AcDbLine
 10
857.2059015589566
 20
416.9356677638393
 30
0.0
 11
838.9274835589562
 21
416.9356677638393
 31
0.0
  0
LINE
  5
432C
330
42A2
100
AcDbEntity
  8
本体
  6
Continuous
 62
     0
370
    -2
100
AcDbLine
 10
839.9274835589562
 20
194.7076677638392
 30
0.0
 11
839.9274835589562
 21
414.1656677638393
 31
0.0
  0
INSERT
  5
432D
330
42A2
100
AcDbEntity
  8
本体
  6
Continuous
 62
     0
370
    -2
100
AcDbBlockReference
  2
_OPEN30
 10
839.9274835589562
 20
191.9376677638391
 30
0.0
 41
2.77
 42
2.77
 43
2.77
 50
270.0
  0
INSERT
  5
432E
330
42A2
100
AcDbEntity
  8
本体
  6
Continuous
 62
     0
370
    -2
100
AcDbBlockReference
  2
_OPEN30
 10
839.9274835589562
 20
416.9356677638393
 30
0.0
 41
2.77
 42
2.77
 43
2.77
 50
90.0
  0
MTEXT
  5
432F
330
42A2
100
AcDbEntity
  8
本体
  6
Continuous
 62
     0
100
AcDbMText
 10
836.8446835589562
 20
304.4366677638393
 30
0.0
 40
4.1656
 41
0.0
 71
     5
 72
     1
  1
\A1;225±1
 11
0.0000000000000001
 21
1.0
 31
0.0
 73
     1
 44
1.0
  0
POINT
  5
4330
330
42A2
100
AcDbEntity
  8
DEFPOINTS
  6
Continuous
 62
     0
100
AcDbPoint
 10
859.2059015589565
 20
191.9376677638391
 30
0.0
  0
POINT
  5
4331
330
42A2
100
AcDbEntity
  8
DEFPOINTS
  6
Continuous
 62
     0
100
AcDbPoint
 10
858.2059015589566
 20
416.9356677638393
 30
0.0
  0
POINT
  5
4332
330
42A2
100
AcDbEntity
  8
DEFPOINTS
  6
Continuous
 62
     0
100
AcDbPoint
 10
839.9274835589562
 20
416.9356677638393
 30
0.0
  0
ENDBLK
  5
42AD
330
42A2
100
AcDbEntity
  8
0
 62
    84
100
AcDbBlockEnd
  0
BLOCK
  5
42BA
330
42AE
100
AcDbEntity
  8
0
 62
    84
100
AcDbBlockBegin
  2
*D29
 70
     1
 10
0.0
 20
0.0
 30
0.0
  3
*D29
  1

  0
LINE
  5
433C
330
42AE
100
AcDbEntity
  8
本体
  6
Continuous
 62
     0
370
    -2
100
AcDbLine
 10
857.2059015589562
 20
109.5586357638393
 30
0.0
 11
838.9274835589562
 21
109.5586357638393
 31
0.0
  0
LINE
  5
433D
330
42AE
100
AcDbEntity
  8
本体
  6
Continuous
 62
     0
370
    -2
100
AcDbLine
 10
858.2059015589562
 20
153.5586357638393
 30
0.0
 11
838.9274835589562
 21
153.5586357638393
 31
0.0
  0
LINE
  5
433E
330
42AE
100
AcDbEntity
  8
本体
  6
Continuous
 62
     0
370
    -2
100
AcDbLine
 10
839.9274835589562
 20
112.3286357638394
 30
0.0
 11
839.9274835589562
 21
150.7886357638394
 31
0.0
  0
INSERT
  5
433F
330
42AE
100
AcDbEntity
  8
本体
  6
Continuous
 62
     0
370
    -2
100
AcDbBlockReference
  2
_OPEN30
 10
839.9274835589562
 20
109.5586357638393
 30
0.0
 41
2.77
 42
2.77
 43
2.77
 50
270.0
  0
INSERT
  5
4340
330
42AE
100
AcDbEntity
  8
本体
  6
Continuous
 62
     0
370
    -2
100
AcDbBlockReference
  2
_OPEN30
 10
839.9274835589562
 20
153.5586357638393
 30
0.0
 41
2.77
 42
2.77
 43
2.77
 50
90.0
  0
MTEXT
  5
4341
330
42AE
100
AcDbEntity
  8
本体
  6
Continuous
 62
     0
100
AcDbMText
 10
836.8446835589562
 20
131.5586357638393
 30
0.0
 40
4.1656
 41
0.0
 71
     5
 72
     1
  1
\A1;44±1
 11
0.0000000000000001
 21
1.0
 31
0.0
 73
     1
 44
1.0
  0
POINT
  5
4342
330
42AE
100
AcDbEntity
  8
DEFPOINTS
  6
Continuous
 62
     0
100
AcDbPoint
 10
858.2059015589562
 20
109.5586357638393
 30
0.0
  0
POINT
  5
4343
330
42AE
100
AcDbEntity
  8
DEFPOINTS
  6
Continuous
 62
     0
100
AcDbPoint
 10
859.2059015589565
 20
153.5586357638393
 30
0.0
  0
POINT
  5
4344
330
42AE
100
AcDbEntity
  8
DEFPOINTS
  6
Continuous
 62
     0
100
AcDbPoint
 10
839.9274835589562
 20
153.5586357638393
 30
0.0
  0
ENDBLK
  5
42BB
330
42AE
100
AcDbEntity
  8
0
 62
    84
100
AcDbBlockEnd
  0
BLOCK
  5
49EA
330
49E0
100
AcDbEntity
  8
0
100
AcDbBlockBegin
  2
*D30
 70
     1
 10
0.0
 20
0.0
 30
0.0
  3
*D30
  1

  0
LINE
  5
49E1
330
49E0
100
AcDbEntity
  8
1
  6
Continuous
 62
     0
370
    13
100
AcDbLine
 10
281.5945778061603
 20
128.1675877099378
 30
0.0
 11
304.3670238061603
 21
128.1675877099378
 31
0.0
  0
LINE
  5
49E2
330
49E0
100
AcDbEntity
  8
1
  6
Continuous
 62
     0
370
    13
100
AcDbLine
 10
281.5945778061603
 20
-81.83241229006219
 30
0.0
 11
304.3670238061603
 21
-81.83241229006219
 31
0.0
  0
LINE
  5
49E3
330
49E0
100
AcDbEntity
  8
1
  6
Continuous
 62
     0
370
    13
100
AcDbLine
 10
303.3670238061603
 20
124.1675877099378
 30
0.0
 11
303.3670238061603
 21
-77.83241229006219
 31
0.0
  0
INSERT
  5
49E4
330
49E0
100
AcDbEntity
  8
1
  6
Continuous
 62
     0
370
    13
100
AcDbBlockReference
  2
_OPEN30
 10
303.3670238061603
 20
128.1675877099378
 30
0.0
 41
4.0
 42
4.0
 43
4.0
 50
90.0
  0
INSERT
  5
49E5
330
49E0
100
AcDbEntity
  8
1
  6
Continuous
 62
     0
370
    13
100
AcDbBlockReference
  2
_OPEN30
 10
303.3670238061603
 20
-81.83241229006219
 30
0.0
 41
4.0
 42
4.0
 43
4.0
 50
270.0
  0
MTEXT
  5
49E6
330
49E0
100
AcDbEntity
  8
1
  6
Continuous
 62
     6
100
AcDbMText
 10
300.2842238061603
 20
23.16758770993782
 30
0.0
 40
4.1656
 41
0.0
 71
     5
 72
     1
  1
\A1;210±2
 11
0.0000000000000001
 21
1.0
 31
0.0
 73
     1
 44
1.0
  0
POINT
  5
49E7
330
49E0
100
AcDbEntity
  8
DEFPOINTS
  6
Continuous
 62
     0
100
AcDbPoint
 10
280.5945778061603
 20
128.1675877099378
 30
0.0
  0
POINT
  5
49E8
330
49E0
100
AcDbEntity
  8
DEFPOINTS
  6
Continuous
 62
     0
100
AcDbPoint
 10
280.5945778061603
 20
-81.83241229006219
 30
0.0
  0
POINT
  5
49E9
330
49E0
100
AcDbEntity
  8
DEFPOINTS
  6
Continuous
 62
     0
100
AcDbPoint
 10
303.3670238061603
 20
-81.83241229006219
 30
0.0
  0
ENDBLK
  5
49EB
330
49E0
100
AcDbEntity
  8
0
100
AcDbBlockEnd
  0
BLOCK
  5
49F6
330
49EC
100
AcDbEntity
  8
0
100
AcDbBlockBegin
  2
*D31
 70
     1
 10
0.0
 20
0.0
 30
0.0
  3
*D31
  1

  0
LINE
  5
49ED
330
49EC
100
AcDbEntity
  8
1
  6
Continuous
 62
     0
370
    13
100
AcDbLine
 10
188.5945798061603
 20
-81.83241229006219
 30
0.0
 11
188.5945798061603
 21
-101.6672922900621
 31
0.0
  0
LINE
  5
49EE
330
49EC
100
AcDbEntity
  8
1
  6
Continuous
 62
     0
370
    13
100
AcDbLine
 10
-36.40542019383961
 20
-82.8324122900622
 30
0.0
 11
-36.40542019383961
 21
-101.6672922900621
 31
0.0
  0
LINE
  5
49EF
330
49EC
100
AcDbEntity
  8
1
  6
Continuous
 62
     0
370
    13
100
AcDbLine
 10
184.5945798061603
 20
-100.6672922900621
 30
0.0
 11
-32.40542019383962
 21
-100.6672922900621
 31
0.0
  0
INSERT
  5
49F0
330
49EC
100
AcDbEntity
  8
1
  6
Continuous
 62
     0
370
    13
100
AcDbBlockReference
  2
_OPEN30
 10
188.5945798061603
 20
-100.6672922900621
 30
0.0
 41
4.0
 42
4.0
 43
4.0
  0
INSERT
  5
49F1
330
49EC
100
AcDbEntity
  8
1
  6
Continuous
 62
     0
370
    13
100
AcDbBlockReference
  2
_OPEN30
 10
-36.40542019383961
 20
-100.6672922900621
 30
0.0
 41
4.0
 42
4.0
 43
4.0
 50
180.0
  0
MTEXT
  5
49F2
330
49EC
100
AcDbEntity
  8
1
  6
Continuous
 62
     6
100
AcDbMText
 10
76.09457980616039
 20
-97.58449229006217
 30
0.0
 40
4.1656
 41
0.0
 71
     5
 72
     1
  1
\A1;225±2
 73
     1
 44
1.0
  0
POINT
  5
49F3
330
49EC
100
AcDbEntity
  8
DEFPOINTS
  6
Continuous
 62
     0
100
AcDbPoint
 10
188.5945798061603
 20
-80.83241229006217
 30
0.0
  0
POINT
  5
49F4
330
49EC
100
AcDbEntity
  8
DEFPOINTS
  6
Continuous
 62
     0
100
AcDbPoint
 10
-36.40542019383961
 20
-81.83241229006219
 30
0.0
  0
POINT
  5
49F5
330
49EC
100
AcDbEntity
  8
DEFPOINTS
  6
Continuous
 62
     0
100
AcDbPoint
 10
-36.40542019383961
 20
-100.6672922900621
 30
0.0
  0
ENDBLK
  5
49F7
330
49EC
100
AcDbEntity
  8
0
100
AcDbBlockEnd
  0
BLOCK
  5
4A04
330
49F8
100
AcDbEntity
  8
0
100
AcDbBlockBegin
  2
*D32
 70
     1
 10
0.0
 20
0.0
 30
0.0
  3
*D32
  1

  0
LINE
  5
49F9
330
49F8
100
AcDbEntity
  8
1
  6
Continuous
 62
     0
370
    13
100
AcDbLine
 10
285.3945798061603
 20
-66.87241429006218
 30
0.0
 11
285.3945798061603
 21
-101.6672922900621
 31
0.0
  0
LINE
  5
49FA
330
49F8
100
AcDbEntity
  8
1
  6
Continuous
 62
     0
370
    13
100
AcDbLine
 10
280.5945798061603
 20
-82.8324122900622
 30
0.0
 11
280.5945798061603
 21
-101.6672922900621
 31
0.0
  0
LINE
  5
49FB
330
49F8
100
AcDbEntity
  8
1
  6
Continuous
 62
     0
370
    13
100
AcDbLine
 10
276.5945798061603
 20
-100.6672922900621
 30
0.0
 11
272.5945798061603
 21
-100.6672922900621
 31
0.0
  0
LINE
  5
49FC
330
49F8
100
AcDbEntity
  8
1
  6
Continuous
 62
     0
370
    13
100
AcDbLine
 10
289.3945798061603
 20
-100.6672922900621
 30
0.0
 11
312.1764844728268
 21
-100.6672922900621
 31
0.0
  0
LINE
  5
49FD
330
49F8
100
AcDbEntity
  8
1
  6
Continuous
 62
     0
370
    13
100
AcDbLine
 10
280.5945798061603
 20
-100.6672922900621
 30
0.0
 11
285.3945798061603
 21
-100.6672922900621
 31
0.0
  0
INSERT
  5
49FE
330
49F8
100
AcDbEntity
  8
1
  6
Continuous
 62
     0
370
    13
100
AcDbBlockReference
  2
_OPEN30
 10
280.5945798061603
 20
-100.6672922900621
 30
0.0
 41
4.0
 42
4.0
 43
4.0
  0
INSERT
  5
49FF
330
49F8
100
AcDbEntity
  8
1
  6
Continuous
 62
     0
370
    13
100
AcDbBlockReference
  2
_OPEN30
 10
285.3945798061603
 20
-100.6672922900621
 30
0.0
 41
4.0
 42
4.0
 43
4.0
 50
180.0
  0
MTEXT
  5
4A00
330
49F8
100
AcDbEntity
  8
1
  6
Continuous
 62
     6
100
AcDbMText
 10
304.2338178061601
 20
-97.58449229006217
 30
0.0
 40
4.1656
 41
0.0
 71
     5
 72
     1
  1
\A1;(4.8)
 73
     1
 44
1.0
  0
POINT
  5
4A01
330
49F8
100
AcDbEntity
  8
DEFPOINTS
  6
Continuous
 62
     0
100
AcDbPoint
 10
285.3945798061603
 20
-65.87241429006218
 30
0.0
  0
POINT
  5
4A02
330
49F8
100
AcDbEntity
  8
DEFPOINTS
  6
Continuous
 62
     0
100
AcDbPoint
 10
280.5945798061603
 20
-81.83241229006219
 30
0.0
  0
POINT
  5
4A03
330
49F8
100
AcDbEntity
  8
DEFPOINTS
  6
Continuous
 62
     0
100
AcDbPoint
 10
280.5945798061603
 20
-100.6672922900621
 30
0.0
  0
ENDBLK
  5
4A05
330
49F8
100
AcDbEntity
  8
0
100
AcDbBlockEnd
  0
BLOCK
  5
4A10
330
4A06
100
AcDbEntity
  8
0
100
AcDbBlockBegin
  2
*D33
 70
     1
 10
0.0
 20
0.0
 30
0.0
  3
*D33
  1

  0
LINE
  5
4A07
330
4A06
100
AcDbEntity
  8
1
  6
Continuous
 62
     0
370
    13
100
AcDbLine
 10
280.5945798061603
 20
-82.8324122900622
 30
0.0
 11
280.5945798061603
 21
-101.6672922900621
 31
0.0
  0
LINE
  5
4A08
330
4A06
100
AcDbEntity
  8
1
  6
Continuous
 62
     0
370
    13
100
AcDbLine
 10
236.5945798061602
 20
-81.83241229006219
 30
0.0
 11
236.5945798061602
 21
-101.6672922900621
 31
0.0
  0
LINE
  5
4A09
330
4A06
100
AcDbEntity
  8
1
  6
Continuous
 62
     0
370
    13
100
AcDbLine
 10
276.5945798061603
 20
-100.6672922900621
 30
0.0
 11
240.5945798061603
 21
-100.6672922900621
 31
0.0
  0
INSERT
  5
4A0A
330
4A06
100
AcDbEntity
  8
1
  6
Continuous
 62
     0
370
    13
100
AcDbBlockReference
  2
_OPEN30
 10
280.5945798061603
 20
-100.6672922900621
 30
0.0
 41
4.0
 42
4.0
 43
4.0
  0
INSERT
  5
4A0B
330
4A06
100
AcDbEntity
  8
1
  6
Continuous
 62
     0
370
    13
100
AcDbBlockReference
  2
_OPEN30
 10
236.5945798061602
 20
-100.6672922900621
 30
0.0
 41
4.0
 42
4.0
 43
4.0
 50
180.0
  0
MTEXT
  5
4A0C
330
4A06
100
AcDbEntity
  8
1
  6
Continuous
 62
     6
100
AcDbMText
 10
258.5945798061603
 20
-97.58449229006217
 30
0.0
 40
4.1656
 41
0.0
 71
     5
 72
     1
  1
\A1;44±1
 73
     1
 44
1.0
  0
POINT
  5
4A0D
330
4A06
100
AcDbEntity
  8
DEFPOINTS
  6
Continuous
 62
     0
100
AcDbPoint
 10
280.5945798061603
 20
-81.83241229006219
 30
0.0
  0
POINT
  5
4A0E
330
4A06
100
AcDbEntity
  8
DEFPOINTS
  6
Continuous
 62
     0
100
AcDbPoint
 10
236.5945798061602
 20
-80.83241229006217
 30
0.0
  0
POINT
  5
4A0F
330
4A06
100
AcDbEntity
  8
DEFPOINTS
  6
Continuous
 62
     0
100
AcDbPoint
 10
236.5945798061602
 20
-100.6672922900621
 30
0.0
  0
ENDBLK
  5
4A11
330
4A06
100
AcDbEntity
  8
0
100
AcDbBlockEnd
  0
BLOCK
  5
5584
330
557A
100
AcDbEntity
  8
0
 62
    84
100
AcDbBlockBegin
  2
*D34
 70
     1
 10
0.0
 20
0.0
 30
0.0
  3
*D34
  1

  0
LINE
  5
564F
330
557A
100
AcDbEntity
  8
本体
  6
Continuous
 62
     0
370
    13
100
AcDbLine
 10
806.5791842768245
 20
73.03528999527407
 30
0.0
 11
806.5791842768245
 21
50.26284399527412
 31
0.0
  0
LINE
  5
5650
330
557A
100
AcDbEntity
  8
本体
  6
Continuous
 62
     0
370
    13
100
AcDbLine
 10
596.5791842768242
 20
73.03528999527407
 30
0.0
 11
596.5791842768242
 21
50.26284399527412
 31
0.0
  0
LINE
  5
5651
330
557A
100
AcDbEntity
  8
本体
  6
Continuous
 62
     0
370
    13
100
AcDbLine
 10
802.5791842768242
 20
51.26284399527412
 30
0.0
 11
600.5791842768242
 21
51.26284399527412
 31
0.0
  0
INSERT
  5
5652
330
557A
100
AcDbEntity
  8
本体
  6
Continuous
 62
     0
370
    13
100
AcDbBlockReference
  2
_OPEN30
 10
806.5791842768245
 20
51.26284399527412
 30
0.0
 41
4.0
 42
4.0
 43
4.0
  0
INSERT
  5
5653
330
557A
100
AcDbEntity
  8
本体
  6
Continuous
 62
     0
370
    13
100
AcDbBlockReference
  2
_OPEN30
 10
596.5791842768242
 20
51.26284399527412
 30
0.0
 41
4.0
 42
4.0
 43
4.0
 50
180.0
  0
MTEXT
  5
5654
330
557A
100
AcDbEntity
  8
本体
  6
Continuous
 62
     6
100
AcDbMText
 10
701.5791842768241
 20
54.3456439952741
 30
0.0
 40
4.1656
 41
0.0
 71
     5
 72
     1
  1
\A1;210±2
 73
     1
 44
1.0
  0
POINT
  5
5655
330
557A
100
AcDbEntity
  8
DEFPOINTS
  6
Continuous
 62
     0
100
AcDbPoint
 10
806.5791842768245
 20
74.03528999527407
 30
0.0
  0
POINT
  5
5656
330
557A
100
AcDbEntity
  8
DEFPOINTS
  6
Continuous
 62
     0
100
AcDbPoint
 10
596.5791842768242
 20
74.03528999527407
 30
0.0
  0
POINT
  5
5657
330
557A
100
AcDbEntity
  8
DEFPOINTS
  6
Continuous
 62
     0
100
AcDbPoint
 10
596.5791842768242
 20
51.26284399527412
 30
0.0
  0
ENDBLK
  5
5585
330
557A
100
AcDbEntity
  8
0
 62
    84
100
AcDbBlockEnd
  0
BLOCK
  5
5590
330
5586
100
AcDbEntity
  8
0
 62
    84
100
AcDbBlockBegin
  2
*D35
 70
     1
 10
0.0
 20
0.0
 30
0.0
  3
*D35
  1

  0
LINE
  5
5646
330
5586
100
AcDbEntity
  8
本体
  6
Continuous
 62
     0
370
    13
100
AcDbLine
 10
596.5791842768242
 20
166.0352879952743
 30
0.0
 11
576.7443042768242
 21
166.0352879952743
 31
0.0
  0
LINE
  5
5647
330
5586
100
AcDbEntity
  8
本体
  6
Continuous
 62
     0
370
    13
100
AcDbLine
 10
595.5791842768242
 20
391.0352879952741
 30
0.0
 11
576.7443042768242
 21
391.0352879952741
 31
0.0
  0
LINE
  5
5648
330
5586
100
AcDbEntity
  8
本体
  6
Continuous
 62
     0
370
    13
100
AcDbLine
 10
577.7443042768242
 20
170.0352879952743
 30
0.0
 11
577.7443042768242
 21
387.0352879952741
 31
0.0
  0
INSERT
  5
5649
330
5586
100
AcDbEntity
  8
本体
  6
Continuous
 62
     0
370
    13
100
AcDbBlockReference
  2
_OPEN30
 10
577.7443042768242
 20
166.0352879952743
 30
0.0
 41
4.0
 42
4.0
 43
4.0
 50
270.0
  0
INSERT
  5
564A
330
5586
100
AcDbEntity
  8
本体
  6
Continuous
 62
     0
370
    13
100
AcDbBlockReference
  2
_OPEN30
 10
577.7443042768242
 20
391.0352879952741
 30
0.0
 41
4.0
 42
4.0
 43
4.0
 50
90.0
  0
MTEXT
  5
564B
330
5586
100
AcDbEntity
  8
本体
  6
Continuous
 62
     6
100
AcDbMText
 10
574.6615042768243
 20
278.535287995274
 30
0.0
 40
4.1656
 41
0.0
 71
     5
 72
     1
  1
\A1;225±2
 11
0.0000000000000001
 21
1.0
 31
0.0
 73
     1
 44
1.0
  0
POINT
  5
564C
330
5586
100
AcDbEntity
  8
DEFPOINTS
  6
Continuous
 62
     0
100
AcDbPoint
 10
597.5791842768241
 20
166.0352879952743
 30
0.0
  0
POINT
  5
564D
330
5586
100
AcDbEntity
  8
DEFPOINTS
  6
Continuous
 62
     0
100
AcDbPoint
 10
596.5791842768242
 20
391.0352879952741
 30
0.0
  0
POINT
  5
564E
330
5586
100
AcDbEntity
  8
DEFPOINTS
  6
Continuous
 62
     0
100
AcDbPoint
 10
577.7443042768242
 20
391.0352879952741
 30
0.0
  0
ENDBLK
  5
5591
330
5586
100
AcDbEntity
  8
0
 62
    84
100
AcDbBlockEnd
  0
BLOCK
  5
559E
330
5592
100
AcDbEntity
  8
0
 62
    84
100
AcDbBlockBegin
  2
*D36
 70
     1
 10
0.0
 20
0.0
 30
0.0
  3
*D36
  1

  0
LINE
  5
5661
330
5592
100
AcDbEntity
  8
本体
  6
Continuous
 62
     0
370
    13
100
AcDbLine
 10
611.5391822768245
 20
69.23528799527412
 30
0.0
 11
584.6869709434911
 21
69.23528799527415
 31
0.0
  0
LINE
  5
5662
330
5592
100
AcDbEntity
  8
本体
  6
Continuous
 62
     0
370
    13
100
AcDbLine
 10
595.5791842768242
 20
74.0352879952743
 30
0.0
 11
584.6869709434911
 21
74.0352879952743
 31
0.0
  0
LINE
  5
5663
330
5592
100
AcDbEntity
  8
本体
  6
Continuous
 62
     0
370
    13
100
AcDbLine
 10
585.6869709434911
 20
78.0352879952743
 30
0.0
 11
585.6869709434911
 21
82.03528799527431
 31
0.0
  0
LINE
  5
5664
330
5592
100
AcDbEntity
  8
本体
  6
Continuous
 62
     0
370
    13
100
AcDbLine
 10
585.6869709434911
 20
65.23528799527413
 30
0.0
 11
585.6869709434911
 21
50.39604999527401
 31
0.0
  0
LINE
  5
5665
330
5592
100
AcDbEntity
  8
本体
  6
Continuous
 62
     0
370
    13
100
AcDbLine
 10
585.6869709434911
 20
50.39604999527401
 30
0.0
 11
570.8016376101577
 21
50.39604999527401
 31
0.0
  0
LINE
  5
5666
330
5592
100
AcDbEntity
  8
本体
  6
Continuous
 62
     0
370
    13
100
AcDbLine
 10
585.6869709434911
 20
74.0352879952743
 30
0.0
 11
585.6869709434911
 21
69.23528799527415
 31
0.0
  0
INSERT
  5
5667
330
5592
100
AcDbEntity
  8
本体
  6
Continuous
 62
     0
370
    13
100
AcDbBlockReference
  2
_OPEN30
 10
585.6869709434911
 20
74.0352879952743
 30
0.0
 41
4.0
 42
4.0
 43
4.0
 50
270.0
  0
INSERT
  5
5668
330
5592
100
AcDbEntity
  8
本体
  6
Continuous
 62
     0
370
    13
100
AcDbBlockReference
  2
_OPEN30
 10
585.6869709434911
 20
69.23528799527415
 30
0.0
 41
4.0
 42
4.0
 43
4.0
 50
90.0
  0
MTEXT
  5
5669
330
5592
100
AcDbEntity
  8
本体
  6
Continuous
 62
     6
100
AcDbMText
 10
577.7443042768242
 20
53.47884999527409
 30
0.0
 40
4.1656
 41
0.0
 71
     5
 72
     1
  1
\A1;(4.8)
 73
     1
 44
1.0
  0
POINT
  5
566A
330
5592
100
AcDbEntity
  8
DEFPOINTS
  6
Continuous
 62
     0
100
AcDbPoint
 10
612.5391822768245
 20
69.23528799527412
 30
0.0
  0
POINT
  5
566B
330
5592
100
AcDbEntity
  8
DEFPOINTS
  6
Continuous
 62
     0
100
AcDbPoint
 10
596.5791842768242
 20
74.0352879952743
 30
0.0
  0
POINT
  5
566C
330
5592
100
AcDbEntity
  8
DEFPOINTS
  6
Continuous
 62
     0
100
AcDbPoint
 10
585.6869709434911
 20
74.0352879952743
 30
0.0
  0
ENDBLK
  5
559F
330
5592
100
AcDbEntity
  8
0
 62
    84
100
AcDbBlockEnd
  0
BLOCK
  5
55AA
330
55A0
100
AcDbEntity
  8
0
 62
    84
100
AcDbBlockBegin
  2
*D37
 70
     1
 10
0.0
 20
0.0
 30
0.0
  3
*D37
  1

  0
LINE
  5
5658
330
55A0
100
AcDbEntity
  8
本体
  6
Continuous
 62
     0
370
    13
100
AcDbLine
 10
595.5791842768242
 20
74.0352879952743
 30
0.0
 11
576.7443042768242
 21
74.0352879952743
 31
0.0
  0
LINE
  5
5659
330
55A0
100
AcDbEntity
  8
本体
  6
Continuous
 62
     0
370
    13
100
AcDbLine
 10
596.5791842768242
 20
118.0352879952742
 30
0.0
 11
576.7443042768242
 21
118.0352879952742
 31
0.0
  0
LINE
  5
565A
330
55A0
100
AcDbEntity
  8
本体
  6
Continuous
 62
     0
370
    13
100
AcDbLine
 10
577.7443042768242
 20
78.0352879952743
 30
0.0
 11
577.7443042768242
 21
114.0352879952743
 31
0.0
  0
INSERT
  5
565B
330
55A0
100
AcDbEntity
  8
本体
  6
Continuous
 62
     0
370
    13
100
AcDbBlockReference
  2
_OPEN30
 10
577.7443042768242
 20
74.0352879952743
 30
0.0
 41
4.0
 42
4.0
 43
4.0
 50
270.0
  0
INSERT
  5
565C
330
55A0
100
AcDbEntity
  8
本体
  6
Continuous
 62
     0
370
    13
100
AcDbBlockReference
  2
_OPEN30
 10
577.7443042768242
 20
118.0352879952742
 30
0.0
 41
4.0
 42
4.0
 43
4.0
 50
90.0
  0
MTEXT
  5
565D
330
55A0
100
AcDbEntity
  8
本体
  6
Continuous
 62
     6
100
AcDbMText
 10
574.6615042768243
 20
96.03528799527431
 30
0.0
 40
4.1656
 41
0.0
 71
     5
 72
     1
  1
\A1;44±1
 11
0.0000000000000001
 21
1.0
 31
0.0
 73
     1
 44
1.0
  0
POINT
  5
565E
330
55A0
100
AcDbEntity
  8
DEFPOINTS
  6
Continuous
 62
     0
100
AcDbPoint
 10
596.5791842768242
 20
74.0352879952743
 30
0.0
  0
POINT
  5
565F
330
55A0
100
AcDbEntity
  8
DEFPOINTS
  6
Continuous
 62
     0
100
AcDbPoint
 10
597.5791842768241
 20
118.0352879952742
 30
0.0
  0
POINT
  5
5660
330
55A0
100
AcDbEntity
  8
DEFPOINTS
  6
Continuous
 62
     0
100
AcDbPoint
 10
577.7443042768242
 20
118.0352879952742
 30
0.0
  0
ENDBLK
  5
55AB
330
55A0
100
AcDbEntity
  8
0
 62
    84
100
AcDbBlockEnd
  0
BLOCK
  5
5C2F
330
5C25
100
AcDbEntity
  8
0
  6
ByBlock
 62
     0
100
AcDbBlockBegin
  2
*D38
 70
     1
 10
0.0
 20
0.0
 30
0.0
  3
*D38
  1

  0
LINE
  5
5C26
330
5C25
100
AcDbEntity
  8
0
  6
ByBlock
 62
     0
100
AcDbLine
 10
174.239605
 20
-40.23922299999997
 30
0.0
 11
152.239605
 21
-40.23922299999997
 31
0.0
  0
LINE
  5
5C27
330
5C25
100
AcDbEntity
  8
0
  6
ByBlock
 62
     0
100
AcDbLine
 10
174.239605
 20
-29.44077
 30
0.0
 11
174.239605
 21
-41.23922299999999
 31
0.0
  0
LINE
  5
5C28
330
5C25
100
AcDbEntity
  8
0
  6
ByBlock
 62
     0
100
AcDbLine
 10
152.239605
 20
-28.94077
 30
0.0
 11
152.239605
 21
-41.23922299999999
 31
0.0
  0
INSERT
  5
5C29
330
5C25
100
AcDbEntity
  8
0
  6
ByBlock
 62
     0
100
AcDbBlockReference
  2
_OPEN30
 10
174.239605
 20
-40.23922299999997
 30
0.0
 41
2.77
 42
2.77
 43
2.77
  0
INSERT
  5
5C2A
330
5C25
100
AcDbEntity
  8
0
  6
ByBlock
 62
     0
100
AcDbBlockReference
  2
_OPEN30
 10
152.239605
 20
-40.23922299999997
 30
0.0
 41
2.77
 42
2.77
 43
2.77
 50
180.0
  0
MTEXT
  5
5C2B
330
5C25
100
AcDbEntity
  8
0
  6
ByBlock
 62
     3
100
AcDbMText
 10
163.239605
 20
-37.639223
 30
0.0
 40
3.2
 41
0.0
 71
     5
 72
     1
  1
\A1;44±1
 73
     1
 44
1.0
  0
POINT
  5
5C2C
330
5C25
100
AcDbEntity
  8
DEFPOINTS
  6
ByBlock
 62
     0
100
AcDbPoint
 10
174.239605
 20
-28.44077
 30
0.0
  0
POINT
  5
5C2D
330
5C25
100
AcDbEntity
  8
DEFPOINTS
  6
ByBlock
 62
     0
100
AcDbPoint
 10
152.239605
 20
-27.94077
 30
0.0
  0
POINT
  5
5C2E
330
5C25
100
AcDbEntity
  8
DEFPOINTS
  6
ByBlock
 62
     0
100
AcDbPoint
 10
152.239605
 20
-40.23922299999997
 30
0.0
  0
ENDBLK
  5
5C30
330
5C25
100
AcDbEntity
  8
0
  6
ByBlock
 62
     0
100
AcDbBlockEnd
  0
BLOCK
  5
5C3B
330
5C31
100
AcDbEntity
  8
0
  6
ByBlock
 62
     0
100
AcDbBlockBegin
  2
*D39
 70
     1
 10
0.0
 20
0.0
 30
0.0
  3
*D39
  1

  0
LINE
  5
5C32
330
5C31
100
AcDbEntity
  8
0
  6
ByBlock
 62
     0
100
AcDbLine
 10
139.9970719999999
 20
-40.23922299999997
 30
0.0
 11
27.49807199999999
 21
-40.23922299999997
 31
0.0
  0
LINE
  5
5C33
330
5C31
100
AcDbEntity
  8
0
  6
ByBlock
 62
     0
100
AcDbLine
 10
139.9970719999999
 20
-28.94077
 30
0.0
 11
139.9970719999999
 21
-41.23922299999999
 31
0.0
  0
LINE
  5
5C34
330
5C31
100
AcDbEntity
  8
0
  6
ByBlock
 62
     0
100
AcDbLine
 10
27.49807199999999
 20
-29.44077
 30
0.0
 11
27.49807199999999
 21
-41.23922299999999
 31
0.0
  0
INSERT
  5
5C35
330
5C31
100
AcDbEntity
  8
0
  6
ByBlock
 62
     0
100
AcDbBlockReference
  2
_OPEN30
 10
139.9970719999999
 20
-40.23922299999997
 30
0.0
 41
2.77
 42
2.77
 43
2.77
  0
INSERT
  5
5C36
330
5C31
100
AcDbEntity
  8
0
  6
ByBlock
 62
     0
100
AcDbBlockReference
  2
_OPEN30
 10
27.49807199999999
 20
-40.23922299999997
 30
0.0
 41
2.77
 42
2.77
 43
2.77
 50
180.0
  0
MTEXT
  5
5C37
330
5C31
100
AcDbEntity
  8
0
  6
ByBlock
 62
     3
100
AcDbMText
 10
83.747571
 20
-37.639223
 30
0.0
 40
3.2
 41
0.0
 71
     5
 72
     1
  1
\A1;225±2
 73
     1
 44
1.0
  0
POINT
  5
5C38
330
5C31
100
AcDbEntity
  8
DEFPOINTS
  6
ByBlock
 62
     0
100
AcDbPoint
 10
139.9970719999999
 20
-27.94077
 30
0.0
  0
POINT
  5
5C39
330
5C31
100
AcDbEntity
  8
DEFPOINTS
  6
ByBlock
 62
     0
100
AcDbPoint
 10
27.49807199999999
 20
-28.44077
 30
0.0
  0
POINT
  5
5C3A
330
5C31
100
AcDbEntity
  8
DEFPOINTS
  6
ByBlock
 62
     0
100
AcDbPoint
 10
27.49807199999999
 20
-40.23922299999997
 30
0.0
  0
ENDBLK
  5
5C3C
330
5C31
100
AcDbEntity
  8
0
  6
ByBlock
 62
     0
100
AcDbBlockEnd
  0
BLOCK
  5
6223
330
6219
100
AcDbEntity
  8
0
 62
    84
100
AcDbBlockBegin
  2
*D40
 70
     1
 10
0.0
 20
0.0
 30
0.0
  3
*D40
  1

  0
LINE
  5
627D
330
6219
100
AcDbEntity
  8
本体
  6
Continuous
 62
     0
370
    -2
100
AcDbLine
 10
588.0994309223857
 20
206.8450571228703
 30
0.0
 11
563.5025249223857
 21
206.8450571228703
 31
0.0
  0
LINE
  5
627E
330
6219
100
AcDbEntity
  8
本体
  6
Continuous
 62
     0
370
    -2
100
AcDbLine
 10
587.0994309223857
 20
431.8430571228703
 30
0.0
 11
563.5025249223859
 21
431.8430571228703
 31
0.0
  0
LINE
  5
627F
330
6219
100
AcDbEntity
  8
本体
  6
Continuous
 62
     0
370
    -2
100
AcDbLine
 10
564.5025249223857
 20
209.6150571228704
 30
0.0
 11
564.5025249223857
 21
429.0730571228704
 31
0.0
  0
INSERT
  5
6280
330
6219
100
AcDbEntity
  8
本体
  6
Continuous
 62
     0
370
    -2
100
AcDbBlockReference
  2
_OPEN30
 10
564.5025249223857
 20
206.8450571228703
 30
0.0
 41
2.77
 42
2.77
 43
2.77
 50
270.0
  0
INSERT
  5
6281
330
6219
100
AcDbEntity
  8
本体
  6
Continuous
 62
     0
370
    -2
100
AcDbBlockReference
  2
_OPEN30
 10
564.5025249223857
 20
431.8430571228703
 30
0.0
 41
2.77
 42
2.77
 43
2.77
 50
90.0
  0
MTEXT
  5
6282
330
6219
100
AcDbEntity
  8
本体
  6
Continuous
 62
     0
100
AcDbMText
 10
561.4197249223857
 20
319.3440591228703
 30
0.0
 40
4.1656
 41
0.0
 71
     5
 72
     1
  1
\A1;225±2
 11
0.0000000000000001
 21
1.0
 31
0.0
 73
     1
 44
1.0
  0
POINT
  5
6283
330
6219
100
AcDbEntity
  8
DEFPOINTS
  6
Continuous
 62
     0
100
AcDbPoint
 10
589.0994309223857
 20
206.8450571228703
 30
0.0
  0
POINT
  5
6284
330
6219
100
AcDbEntity
  8
DEFPOINTS
  6
Continuous
 62
     0
100
AcDbPoint
 10
588.0994309223857
 20
431.8430571228703
 30
0.0
  0
POINT
  5
6285
330
6219
100
AcDbEntity
  8
DEFPOINTS
  6
Continuous
 62
     0
100
AcDbPoint
 10
564.5025249223857
 20
431.8430571228703
 30
0.0
  0
ENDBLK
  5
6224
330
6219
100
AcDbEntity
  8
0
 62
    84
100
AcDbBlockEnd
  0
BLOCK
  5
6231
330
6225
100
AcDbEntity
  8
0
 62
    84
100
AcDbBlockBegin
  2
*D41
 70
     1
 10
0.0
 20
0.0
 30
0.0
  3
*D41
  1

  0
LINE
  5
6286
330
6225
100
AcDbEntity
  8
本体
  6
Continuous
 62
     0
370
    -2
100
AcDbLine
 10
587.0994309223856
 20
138.3599911228699
 30
0.0
 11
563.5025249223857
 21
138.3599911228704
 31
0.0
  0
LINE
  5
6287
330
6225
100
AcDbEntity
  8
本体
  6
Continuous
 62
     0
370
    -2
100
AcDbLine
 10
588.0994309223857
 20
182.3599911228703
 30
0.0
 11
563.5025249223857
 21
182.3599911228704
 31
0.0
  0
LINE
  5
6288
330
6225
100
AcDbEntity
  8
本体
  6
Continuous
 62
     0
370
    -2
100
AcDbLine
 10
564.5025249223857
 20
141.1299911228701
 30
0.0
 11
564.5025249223857
 21
179.5899911228703
 31
0.0
  0
INSERT
  5
6289
330
6225
100
AcDbEntity
  8
本体
  6
Continuous
 62
     0
370
    -2
100
AcDbBlockReference
  2
_OPEN30
 10
564.5025249223857
 20
138.3599911228704
 30
0.0
 41
2.77
 42
2.77
 43
2.77
 50
270.0
  0
INSERT
  5
628A
330
6225
100
AcDbEntity
  8
本体
  6
Continuous
 62
     0
370
    -2
100
AcDbBlockReference
  2
_OPEN30
 10
564.5025249223857
 20
182.3599911228704
 30
0.0
 41
2.77
 42
2.77
 43
2.77
 50
90.0
  0
MTEXT
  5
628B
330
6225
100
AcDbEntity
  8
本体
  6
Continuous
 62
     0
100
AcDbMText
 10
561.4197249223857
 20
160.3599911228699
 30
0.0
 40
4.1656
 41
0.0
 71
     5
 72
     1
  1
\A1;44±1
 11
0.0000000000000001
 21
1.0
 31
0.0
 73
     1
 44
1.0
  0
POINT
  5
628C
330
6225
100
AcDbEntity
  8
DEFPOINTS
  6
Continuous
 62
     0
100
AcDbPoint
 10
588.0994309223856
 20
138.3599911228699
 30
0.0
  0
POINT
  5
628D
330
6225
100
AcDbEntity
  8
DEFPOINTS
  6
Continuous
 62
     0
100
AcDbPoint
 10
589.0994309223857
 20
182.3599911228703
 30
0.0
  0
POINT
  5
628E
330
6225
100
AcDbEntity
  8
DEFPOINTS
  6
Continuous
 62
     0
100
AcDbPoint
 10
564.5025249223857
 20
182.3599911228704
 30
0.0
  0
ENDBLK
  5
6232
330
6225
100
AcDbEntity
  8
0
 62
    84
100
AcDbBlockEnd
  0
BLOCK
  5
6646
330
663C
100
AcDbEntity
  8
0
  6
ByBlock
 62
     0
100
AcDbBlockBegin
  2
*D42
 70
     1
 10
0.0
 20
0.0
 30
0.0
  3
*D42
  1

  0
LINE
  5
663D
330
663C
100
AcDbEntity
  8
0
  6
ByBlock
 62
     0
100
AcDbLine
 10
176.2020099999999
 20
-55.006567
 30
0.0
 11
154.20201
 21
-55.006567
 31
0.0
  0
LINE
  5
663E
330
663C
100
AcDbEntity
  8
0
  6
ByBlock
 62
     0
100
AcDbLine
 10
176.2020099999999
 20
-43.68024499999999
 30
0.0
 11
176.2020099999999
 21
-56.006567
 31
0.0
  0
LINE
  5
663F
330
663C
100
AcDbEntity
  8
0
  6
ByBlock
 62
     0
100
AcDbLine
 10
154.20201
 20
-43.18024499999999
 30
0.0
 11
154.20201
 21
-56.006567
 31
0.0
  0
INSERT
  5
6640
330
663C
100
AcDbEntity
  8
0
  6
ByBlock
 62
     0
100
AcDbBlockReference
  2
_OPEN30
 10
176.2020099999999
 20
-55.006567
 30
0.0
 41
2.77
 42
2.77
 43
2.77
  0
INSERT
  5
6641
330
663C
100
AcDbEntity
  8
0
  6
ByBlock
 62
     0
100
AcDbBlockReference
  2
_OPEN30
 10
154.20201
 20
-55.006567
 30
0.0
 41
2.77
 42
2.77
 43
2.77
 50
180.0
  0
MTEXT
  5
6642
330
663C
100
AcDbEntity
  8
0
  6
ByBlock
 62
     3
100
AcDbMText
 10
165.20201
 20
-52.40656699999998
 30
0.0
 40
3.2
 41
0.0
 71
     5
 72
     1
  1
\A1;44±1
 73
     1
 44
1.0
  0
POINT
  5
6643
330
663C
100
AcDbEntity
  8
DEFPOINTS
  6
ByBlock
 62
     0
100
AcDbPoint
 10
176.2020099999999
 20
-42.680245
 30
0.0
  0
POINT
  5
6644
330
663C
100
AcDbEntity
  8
DEFPOINTS
  6
ByBlock
 62
     0
100
AcDbPoint
 10
154.20201
 20
-42.180245
 30
0.0
  0
POINT
  5
6645
330
663C
100
AcDbEntity
  8
DEFPOINTS
  6
ByBlock
 62
     0
100
AcDbPoint
 10
154.20201
 20
-55.006567
 30
0.0
  0
ENDBLK
  5
6647
330
663C
100
AcDbEntity
  8
0
  6
ByBlock
 62
     0
100
AcDbBlockEnd
  0
BLOCK
  5
6652
330
6648
100
AcDbEntity
  8
0
  6
ByBlock
 62
     0
100
AcDbBlockBegin
  2
*D43
 70
     1
 10
0.0
 20
0.0
 30
0.0
  3
*D43
  1

  0
LINE
  5
6649
330
6648
100
AcDbEntity
  8
0
  6
ByBlock
 62
     0
100
AcDbLine
 10
129.20201
 20
-55.006567
 30
0.0
 11
59.20200999999998
 21
-55.006567
 31
0.0
  0
LINE
  5
664A
330
6648
100
AcDbEntity
  8
0
  6
ByBlock
 62
     0
100
AcDbLine
 10
129.20201
 20
-43.18024499999999
 30
0.0
 11
129.20201
 21
-56.006567
 31
0.0
  0
LINE
  5
664B
330
6648
100
AcDbEntity
  8
0
  6
ByBlock
 62
     0
100
AcDbLine
 10
59.20200999999998
 20
-42.580245
 30
0.0
 11
59.20200999999998
 21
-56.006567
 31
0.0
  0
INSERT
  5
664C
330
6648
100
AcDbEntity
  8
0
  6
ByBlock
 62
     0
100
AcDbBlockReference
  2
_OPEN30
 10
129.20201
 20
-55.006567
 30
0.0
 41
2.77
 42
2.77
 43
2.77
  0
INSERT
  5
664D
330
6648
100
AcDbEntity
  8
0
  6
ByBlock
 62
     0
100
AcDbBlockReference
  2
_OPEN30
 10
59.20200999999998
 20
-55.006567
 30
0.0
 41
2.77
 42
2.77
 43
2.77
 50
180.0
  0
MTEXT
  5
664E
330
6648
100
AcDbEntity
  8
0
  6
ByBlock
 62
     3
100
AcDbMText
 10
94.20201
 20
-52.40656699999998
 30
0.0
 40
3.2
 41
0.0
 71
     5
 72
     1
  1
\A1;140±2
 73
     1
 44
1.0
  0
POINT
  5
664F
330
6648
100
AcDbEntity
  8
DEFPOINTS
  6
ByBlock
 62
     0
100
AcDbPoint
 10
129.20201
 20
-42.180245
 30
0.0
  0
POINT
  5
6650
330
6648
100
AcDbEntity
  8
DEFPOINTS
  6
ByBlock
 62
     0
100
AcDbPoint
 10
59.20200999999998
 20
-41.58024499999998
 30
0.0
  0
POINT
  5
6651
330
6648
100
AcDbEntity
  8
DEFPOINTS
  6
ByBlock
 62
     0
100
AcDbPoint
 10
59.20200999999998
 20
-55.006567
 30
0.0
  0
ENDBLK
  5
6653
330
6648
100
AcDbEntity
  8
0
  6
ByBlock
 62
     0
100
AcDbBlockEnd
  0
BLOCK
  5
6BDC
330
6BD0
100
AcDbEntity
  8
0
 62
    84
100
AcDbBlockBegin
  2
*D44
 70
     1
 10
0.0
 20
0.0
 30
0.0
  3
*D44
  1

  0
LINE
  5
6C41
330
6BD0
100
AcDbEntity
  8
本体
  6
Continuous
 62
     0
370
    -2
100
AcDbLine
 10
630.9094443195679
 20
169.415044912198
 30
0.0
 11
606.2568003195679
 21
169.415044912198
 31
0.0
  0
LINE
  5
6C42
330
6BD0
100
AcDbEntity
  8
本体
  6
Continuous
 62
     0
370
    -2
100
AcDbLine
 10
631.9094443195679
 20
213.415044912198
 30
0.0
 11
606.2568003195679
 21
213.415044912198
 31
0.0
  0
LINE
  5
6C43
330
6BD0
100
AcDbEntity
  8
本体
  6
Continuous
 62
     0
370
    -2
100
AcDbLine
 10
607.2568003195677
 20
172.1850449121979
 30
0.0
 11
607.2568003195677
 21
210.6450449121978
 31
0.0
  0
INSERT
  5
6C44
330
6BD0
100
AcDbEntity
  8
本体
  6
Continuous
 62
     0
370
    -2
100
AcDbBlockReference
  2
_OPEN30
 10
607.2568003195677
 20
169.415044912198
 30
0.0
 41
2.77
 42
2.77
 43
2.77
 50
270.0
  0
INSERT
  5
6C45
330
6BD0
100
AcDbEntity
  8
本体
  6
Continuous
 62
     0
370
    -2
100
AcDbBlockReference
  2
_OPEN30
 10
607.2568003195677
 20
213.415044912198
 30
0.0
 41
2.77
 42
2.77
 43
2.77
 50
90.0
  0
MTEXT
  5
6C46
330
6BD0
100
AcDbEntity
  8
本体
  6
Continuous
 62
     0
100
AcDbMText
 10
604.1740003195679
 20
191.415044912198
 30
0.0
 40
4.1656
 41
0.0
 71
     5
 72
     1
  1
\A1;44±1
 11
0.0000000000000001
 21
1.0
 31
0.0
 73
     1
 44
1.0
  0
POINT
  5
6C47
330
6BD0
100
AcDbEntity
  8
DEFPOINTS
  6
Continuous
 62
     0
100
AcDbPoint
 10
631.9094443195679
 20
169.415044912198
 30
0.0
  0
POINT
  5
6C48
330
6BD0
100
AcDbEntity
  8
DEFPOINTS
  6
Continuous
 62
     0
100
AcDbPoint
 10
632.9094443195677
 20
213.415044912198
 30
0.0
  0
POINT
  5
6C49
330
6BD0
100
AcDbEntity
  8
DEFPOINTS
  6
Continuous
 62
     0
100
AcDbPoint
 10
607.2568003195677
 20
213.415044912198
 30
0.0
  0
ENDBLK
  5
6BDD
330
6BD0
100
AcDbEntity
  8
0
 62
    84
100
AcDbBlockEnd
  0
BLOCK
  5
6BE8
330
6BDE
100
AcDbEntity
  8
0
 62
    84
100
AcDbBlockBegin
  2
*D45
 70
     1
 10
0.0
 20
0.0
 30
0.0
  3
*D45
  1

  0
LINE
  5
6C38
330
6BDE
100
AcDbEntity
  8
本体
  6
Continuous
 62
     0
370
    -2
100
AcDbLine
 10
631.9094443195679
 20
263.4150449121979
 30
0.0
 11
606.2568003195679
 21
263.4150449121979
 31
0.0
  0
LINE
  5
6C39
330
6BDE
100
AcDbEntity
  8
本体
  6
Continuous
 62
     0
370
    -2
100
AcDbLine
 10
633.1094443195677
 20
403.4150449121979
 30
0.0
 11
606.2568003195679
 21
403.4150449121979
 31
0.0
  0
LINE
  5
6C3A
330
6BDE
100
AcDbEntity
  8
本体
  6
Continuous
 62
     0
370
    -2
100
AcDbLine
 10
607.256800319568
 20
266.185044912198
 30
0.0
 11
607.256800319568
 21
400.645044912198
 31
0.0
  0
INSERT
  5
6C3B
330
6BDE
100
AcDbEntity
  8
本体
  6
Continuous
 62
     0
370
    -2
100
AcDbBlockReference
  2
_OPEN30
 10
607.256800319568
 20
263.4150449121979
 30
0.0
 41
2.77
 42
2.77
 43
2.77
 50
270.0
  0
INSERT
  5
6C3C
330
6BDE
100
AcDbEntity
  8
本体
  6
Continuous
 62
     0
370
    -2
100
AcDbBlockReference
  2
_OPEN30
 10
607.256800319568
 20
403.4150449121979
 30
0.0
 41
2.77
 42
2.77
 43
2.77
 50
90.0
  0
MTEXT
  5
6C3D
330
6BDE
100
AcDbEntity
  8
本体
  6
Continuous
 62
     0
100
AcDbMText
 10
604.1740003195679
 20
333.4150449121978
 30
0.0
 40
4.1656
 41
0.0
 71
     5
 72
     1
  1
\A1;140±2
 11
0.0000000000000001
 21
1.0
 31
0.0
 73
     1
 44
1.0
  0
POINT
  5
6C3E
330
6BDE
100
AcDbEntity
  8
DEFPOINTS
  6
Continuous
 62
     0
100
AcDbPoint
 10
632.9094443195677
 20
263.4150449121979
 30
0.0
  0
POINT
  5
6C3F
330
6BDE
100
AcDbEntity
  8
DEFPOINTS
  6
Continuous
 62
     0
100
AcDbPoint
 10
634.1094443195677
 20
403.4150449121979
 30
0.0
  0
POINT
  5
6C40
330
6BDE
100
AcDbEntity
  8
DEFPOINTS
  6
Continuous
 62
     0
100
AcDbPoint
 10
607.256800319568
 20
403.4150449121979
 30
0.0
  0
ENDBLK
  5
6BE9
330
6BDE
100
AcDbEntity
  8
0
 62
    84
100
AcDbBlockEnd
  0
BLOCK
  5
6F43
330
6F3C
100
AcDbEntity
  8
0
 62
    84
100
AcDbBlockBegin
  2
*D46
 70
     1
 10
0.0
 20
0.0
 30
0.0
  3
*D46
  1

  0
LINE
  5
6F3D
330
6F3C
100
AcDbEntity
  8
寸法
  6
Continuous
 62
     0
370
    13
100
AcDbLine
 10
307.61716410526
 20
165.6768095051889
 30
0.0
 11
264.5446041052593
 21
165.6768095051889
 31
0.0
  0
LINE
  5
6F3E
330
6F3C
100
AcDbEntity
  8
寸法
  6
Continuous
 62
     0
370
    13
100
AcDbLine
 10
264.5446041052593
 20
165.6768095051889
 30
0.0
 11
242.8111781732559
 21
185.3544407210442
 31
0.0
  0
MTEXT
  5
6F3F
330
6F3C
100
AcDbEntity
  8
寸法
  6
Continuous
 62
     6
100
AcDbMText
 10
286.5808841052601
 20
168.7596095051891
 30
0.0
 40
4.1656
 41
0.0
 71
     5
 72
     1
  1
\A1;4-10×\U+22057(長丸)
 73
     1
 44
1.0
  0
INSERT
  5
6F40
330
6F3C
100
AcDbEntity
  8
寸法
  6
Continuous
 62
     0
370
    13
100
AcDbBlockReference
  2
_OPEN30
 10
239.8459892808527
 20
188.0391483089143
 30
0.0
 41
4.0
 42
4.0
 43
4.0
 50
137.842036620583
  0
POINT
  5
6F41
330
6F3C
100
AcDbEntity
  8
DEFPOINTS
  6
Continuous
 62
     0
100
AcDbPoint
 10
239.8459892808527
 20
188.0391483089143
 30
0.0
  0
POINT
  5
6F42
330
6F3C
100
AcDbEntity
  8
DEFPOINTS
  6
Continuous
 62
     0
100
AcDbPoint
 10
234.6569087191467
 20
192.7373865876871
 30
0.0
  0
ENDBLK
  5
6F44
330
6F3C
100
AcDbEntity
  8
0
 62
    84
100
AcDbBlockEnd
  0
BLOCK
  5
6F4F
330
6F45
100
AcDbEntity
  8
0
 62
    84
100
AcDbBlockBegin
  2
*D47
 70
     1
 10
0.0
 20
0.0
 30
0.0
  3
*D47
  1

  0
LINE
  5
6F46
330
6F45
100
AcDbEntity
  8
寸法
  6
Continuous
 62
     0
370
    13
100
AcDbLine
 10
2.251448999999865
 20
183.2632674483009
 30
0.0
 11
2.251448999999864
 21
163.7895167399098
 31
0.0
  0
LINE
  5
6F47
330
6F45
100
AcDbEntity
  8
寸法
  6
Continuous
 62
     0
370
    13
100
AcDbLine
 10
243.2514489999999
 20
183.955815718669
 30
0.0
 11
243.2514489999999
 21
163.7895167399098
 31
0.0
  0
LINE
  5
6F48
330
6F45
100
AcDbEntity
  8
寸法
  6
Continuous
 62
     0
370
    13
100
AcDbLine
 10
6.251448999999861
 20
164.7895167399098
 30
0.0
 11
239.2514489999999
 21
164.7895167399098
 31
0.0
  0
MTEXT
  5
6F49
330
6F45
100
AcDbEntity
  8
寸法
  6
Continuous
 62
     6
100
AcDbMText
 10
122.7514489999999
 20
170.3599289710074
 30
0.0
 40
8.0
 41
0.0
 71
     5
 72
     1
  1
\A1;241
  7
Standard
 73
     1
 44
1.0
  0
INSERT
  5
6F4A
330
6F45
100
AcDbEntity
  8
寸法
  6
Continuous
 62
     0
370
    13
100
AcDbBlockReference
  2
_OPEN30
 10
2.251448999999864
 20
164.7895167399098
 30
0.0
 41
4.0
 42
4.0
 43
4.0
 50
180.0
  0
INSERT
  5
6F4B
330
6F45
100
AcDbEntity
  8
寸法
  6
Continuous
 62
     0
370
    13
100
AcDbBlockReference
  2
_OPEN30
 10
243.2514489999999
 20
164.7895167399098
 30
0.0
 41
4.0
 42
4.0
 43
4.0
  0
POINT
  5
6F4C
330
6F45
100
AcDbEntity
  8
DEFPOINTS
  6
Continuous
 62
     0
100
AcDbPoint
 10
2.251448999999865
 20
184.2632674483009
 30
0.0
  0
POINT
  5
6F4D
330
6F45
100
AcDbEntity
  8
DEFPOINTS
  6
Continuous
 62
     0
100
AcDbPoint
 10
243.2514489999999
 20
184.955815718669
 30
0.0
  0
POINT
  5
6F4E
330
6F45
100
AcDbEntity
  8
DEFPOINTS
  6
Continuous
 62
     0
100
AcDbPoint
 10
243.2514489999999
 20
164.7895167399098
 30
0.0
  0
ENDBLK
  5
6F50
330
6F45
100
AcDbEntity
  8
0
 62
    84
100
AcDbBlockEnd
  0
BLOCK
  5
6FD4
330
6FCD
100
AcDbEntity
  8
0
 62
    84
100
AcDbBlockBegin
  2
*D48
 70
     1
 10
0.0
 20
0.0
 30
0.0
  3
*D48
  1

  0
LINE
  5
6FF4
330
6FCD
100
AcDbEntity
  8
寸法
  6
Continuous
 62
     0
370
    13
100
AcDbLine
 10
307.6171641052601
 20
165.676809505189
 30
0.0
 11
264.5446041052589
 21
165.676809505189
 31
0.0
  0
LINE
  5
6FF5
330
6FCD
100
AcDbEntity
  8
寸法
  6
Continuous
 62
     0
370
    13
100
AcDbLine
 10
264.5446041052589
 20
165.676809505189
 30
0.0
 11
242.8111781732562
 21
185.3544407210442
 31
0.0
  0
MTEXT
  5
6FF6
330
6FCD
100
AcDbEntity
  8
寸法
  6
Continuous
 62
     6
100
AcDbMText
 10
286.5808841052601
 20
168.7596095051891
 30
0.0
 40
4.1656
 41
0.0
 71
     5
 72
     1
  1
\A1;4-10×\U+22057(長丸)
 73
     1
 44
1.0
  0
INSERT
  5
6FF7
330
6FCD
100
AcDbEntity
  8
寸法
  6
Continuous
 62
     0
370
    13
100
AcDbBlockReference
  2
_OPEN30
 10
239.8459892808528
 20
188.0391483089144
 30
0.0
 41
4.0
 42
4.0
 43
4.0
 50
137.8420366205822
  0
POINT
  5
6FF8
330
6FCD
100
AcDbEntity
  8
DEFPOINTS
  6
Continuous
 62
     0
100
AcDbPoint
 10
239.8459892808528
 20
188.0391483089144
 30
0.0
  0
POINT
  5
6FF9
330
6FCD
100
AcDbEntity
  8
DEFPOINTS
  6
Continuous
 62
     0
100
AcDbPoint
 10
234.6569087191467
 20
192.7373865876873
 30
0.0
  0
ENDBLK
  5
6FD5
330
6FCD
100
AcDbEntity
  8
0
 62
    84
100
AcDbBlockEnd
  0
BLOCK
  5
6FE0
330
6FD6
100
AcDbEntity
  8
0
 62
    84
100
AcDbBlockBegin
  2
*D49
 70
     1
 10
0.0
 20
0.0
 30
0.0
  3
*D49
  1

  0
LINE
  5
6FFA
330
6FD6
100
AcDbEntity
  8
寸法
  6
Continuous
 62
     0
370
    13
100
AcDbLine
 10
2.251448999999865
 20
183.263267448301
 30
0.0
 11
2.251448999999864
 21
163.78951673991
 31
0.0
  0
LINE
  5
6FFB
330
6FD6
100
AcDbEntity
  8
寸法
  6
Continuous
 62
     0
370
    13
100
AcDbLine
 10
243.2514489999998
 20
183.955815718669
 30
0.0
 11
243.2514489999998
 21
163.78951673991
 31
0.0
  0
LINE
  5
6FFC
330
6FD6
100
AcDbEntity
  8
寸法
  6
Continuous
 62
     0
370
    13
100
AcDbLine
 10
6.251448999999863
 20
164.78951673991
 30
0.0
 11
239.2514489999998
 21
164.78951673991
 31
0.0
  0
MTEXT
  5
6FFD
330
6FD6
100
AcDbEntity
  8
寸法
  6
Continuous
 62
     6
100
AcDbMText
 10
122.7514489999999
 20
170.3599289710076
 30
0.0
 40
8.0
 41
0.0
 71
     5
 72
     1
  1
\A1;241
  7
Standard
 73
     1
 44
1.0
  0
INSERT
  5
6FFE
330
6FD6
100
AcDbEntity
  8
寸法
  6
Continuous
 62
     0
370
    13
100
AcDbBlockReference
  2
_OPEN30
 10
2.251448999999864
 20
164.78951673991
 30
0.0
 41
4.0
 42
4.0
 43
4.0
 50
180.0
  0
INSERT
  5
6FFF
330
6FD6
100
AcDbEntity
  8
寸法
  6
Continuous
 62
     0
370
    13
100
AcDbBlockReference
  2
_OPEN30
 10
243.2514489999998
 20
164.78951673991
 30
0.0
 41
4.0
 42
4.0
 43
4.0
  0
POINT
  5
7000
330
6FD6
100
AcDbEntity
  8
DEFPOINTS
  6
Continuous
 62
     0
100
AcDbPoint
 10
2.251448999999865
 20
184.263267448301
 30
0.0
  0
POINT
  5
7001
330
6FD6
100
AcDbEntity
  8
DEFPOINTS
  6
Continuous
 62
     0
100
AcDbPoint
 10
243.2514489999998
 20
184.9558157186691
 30
0.0
  0
POINT
  5
7002
330
6FD6
100
AcDbEntity
  8
DEFPOINTS
  6
Continuous
 62
     0
100
AcDbPoint
 10
243.2514489999998
 20
164.78951673991
 30
0.0
  0
ENDBLK
  5
6FE1
330
6FD6
100
AcDbEntity
  8
0
 62
    84
100
AcDbBlockEnd
  0
ENDSEC
  0
SECTION
  2
ENTITIES
  0
DIMENSION
  5
293
330
A
100
AcDbEntity
  8
寸法
  6
Continuous
100
AcDbDimension
  2
*D2
 10
243.2514489999999
 20
118.1724716655794
 30
0.0
 11
0.3089395737897576
 21
118.1724716655794
 31
0.0
 70
   160
  1
<>
 71
     5
 42
481.9999999999998
  3
ARTICS
100
AcDbAlignedDimension
 13
-238.7485509999999
 23
186.2632674483009
 33
0.0
 14
243.2514489999999
 24
186.2632674483009
 34
0.0
100
AcDbRotatedDimension
1001
ACAD
1000
DSTYLE
1002
{
1070
   340
1005
3E4
1070
   140
1040
8.0
1002
}
  0
DIMENSION
  5
2A2
330
A
100
AcDbEntity
  8
寸法
  6
Continuous
100
AcDbDimension
  2
*D4
 10
283.924933
 20
184.2632674483009
 30
0.0
 11
283.924933
 21
206.2632674483007
 31
0.0
 70
   160
  1
<>
 71
     5
 42
43.99999999999989
  3
ARTICS
100
AcDbAlignedDimension
 13
241.2514509999999
 23
228.2632674483008
 33
0.0
 14
241.2514509999999
 24
184.2632674483009
 34
0.0
 50
90.0
100
AcDbRotatedDimension
1001
ACAD
1000
DSTYLE
1002
{
1070
   340
1005
3E4
1070
   140
1040
8.0
1002
}
  0
DIMENSION
  5
2AF
330
A
100
AcDbEntity
  8
寸法
  6
Continuous
100
AcDbDimension
  2
*D3
 10
266.9691569999999
 20
190.3882674483009
 30
0.0
 11
266.9691569999999
 21
206.263267448301
 31
0.0
 70
   160
  1
<>
 71
     5
 42
31.75
  3
ARTICS
100
AcDbAlignedDimension
 13
241.7514509999999
 23
222.1382674483009
 33
0.0
 14
241.7514509999999
 24
190.3882674483009
 34
0.0
 50
90.0
100
AcDbRotatedDimension
1001
ACAD
1000
DSTYLE
1002
{
1070
   340
1005
3E4
1070
   140
1040
6.0
1070
   271
1070
     2
1002
}
  0
DIMENSION
  5
2C0
330
A
100
AcDbEntity
  8
寸法
  6
Continuous
100
AcDbDimension
  2
*D1
 10
235.2514489999999
 20
141.4198676363743
 30
0.0
 11
0.5544602312297684
 21
141.4198676363743
 31
0.0
 70
   160
  1
<>
 71
     5
 42
465.9999999999998
  3
ARTICS
100
AcDbAlignedDimension
 13
-230.7485509999999
 23
185.8882674483009
 33
0.0
 14
235.2514489999999
 24
185.8882674483009
 34
0.0
100
AcDbRotatedDimension
1001
ACAD
1000
DSTYLE
1002
{
1070
   340
1005
3E4
1070
   140
1040
8.0
1002
}
  0
LINE
  5
2C2
330
A
100
AcDbEntity
  8
ear
  6
CENTER
 48
0.2
100
AcDbLine
 10
-237.2485509999999
 20
190.3882674483009
 30
0.0
 11
-224.2485509999999
 21
190.3882674483009
 31
0.0
  0
LINE
  5
2C3
330
A
100
AcDbEntity
  8
ear
  6
CENTER
 48
0.2
100
AcDbLine
 10
-237.2485509999999
 20
222.1382674483009
 30
0.0
 11
-224.2485509999999
 21
222.1382674483009
 31
0.0
  0
LINE
  5
2C4
330
A
100
AcDbEntity
  8
ear
  6
CENTER
 48
0.5
100
AcDbLine
 10
-230.7485509999999
 20
226.638267448301
 30
0.0
 11
-230.7485509999999
 21
185.8882674483009
 31
0.0
  0
LINE
  5
340
330
A
100
AcDbEntity
  8
ear
  6
Continuous
100
AcDbLine
 10
-238.7485509999999
 20
186.2632674483009
 30
0.0
 11
-236.7485509999999
 21
184.2632674483009
 31
0.0
  0
LINE
  5
341
330
A
100
AcDbEntity
  8
ear
  6
Continuous
100
AcDbLine
 10
-236.7485509999999
 20
228.2632674483008
 30
0.0
 11
-238.7485509999999
 21
226.2632674483008
 31
0.0
  0
LINE
  5
342
330
A
100
AcDbEntity
  8
ear
  6
Continuous
100
AcDbLine
 10
-207.7485509999999
 20
184.2632674483009
 30
0.0
 11
-236.7485509999999
 21
184.2632674483009
 31
0.0
  0
LINE
  5
343
330
A
100
AcDbEntity
  8
ear
  6
Continuous
100
AcDbLine
 10
-207.7485509999999
 20
228.2632674483008
 30
0.0
 11
-236.7485509999999
 21
228.2632674483008
 31
0.0
  0
ARC
  5
344
330
A
100
AcDbEntity
  8
ear
  6
Continuous
100
AcDbCircle
 10
-232.7485509999999
 20
222.1382674483009
 30
0.0
 40
3.5
100
AcDbArc
 50
90.0
 51
270.0
  0
ARC
  5
345
330
A
100
AcDbEntity
  8
ear
  6
Continuous
100
AcDbCircle
 10
-228.7485509999999
 20
222.1382674483009
 30
0.0
 40
3.5
100
AcDbArc
 50
270.0
 51
90.0
  0
LINE
  5
346
330
A
100
AcDbEntity
  8
ear
  6
Continuous
100
AcDbLine
 10
-228.7485509999999
 20
225.6382674483007
 30
0.0
 11
-232.7485509999999
 21
225.6382674483007
 31
0.0
  0
LINE
  5
347
330
A
100
AcDbEntity
  8
ear
  6
Continuous
100
AcDbLine
 10
-228.7485509999999
 20
218.6382674483009
 30
0.0
 11
-232.7485509999999
 21
218.6382674483009
 31
0.0
  0
LINE
  5
348
330
A
100
AcDbEntity
  8
ear
  6
Continuous
100
AcDbLine
 10
-228.7485509999999
 20
193.8882674483009
 30
0.0
 11
-232.7485509999999
 21
193.8882674483009
 31
0.0
  0
LINE
  5
349
330
A
100
AcDbEntity
  8
ear
  6
Continuous
100
AcDbLine
 10
-228.7485509999999
 20
186.8882674483008
 30
0.0
 11
-232.7485509999999
 21
186.8882674483008
 31
0.0
  0
ARC
  5
34A
330
A
100
AcDbEntity
  8
ear
  6
Continuous
100
AcDbCircle
 10
-228.7485509999999
 20
190.3882674483009
 30
0.0
 40
3.5
100
AcDbArc
 50
270.0
 51
90.0
  0
ARC
  5
34B
330
A
100
AcDbEntity
  8
ear
  6
Continuous
100
AcDbCircle
 10
-232.7485509999999
 20
190.3882674483009
 30
0.0
 40
3.5
100
AcDbArc
 50
90.0
 51
270.0
  0
LINE
  5
34C
330
A
100
AcDbEntity
  8
ear
  6
Continuous
100
AcDbLine
 10
-238.7485509999999
 20
226.2632674483008
 30
0.0
 11
-238.7485509999999
 21
186.2632674483009
 31
0.0
  0
LINE
  5
461
330
A
100
AcDbEntity
  8
ear
  6
Continuous
100
AcDbLine
 10
-207.7485510000002
 20
184.2632674483009
 30
0.0
 11
-207.7485509999999
 21
228.2632674483008
 31
0.0
  0
DIMENSION
  5
E12
330
A
100
AcDbEntity
  8
寸法
  6
Continuous
100
AcDbDimension
  2
*D6
 10
339.4829582826633
 20
269.2687594576344
 30
0.0
 11
339.4829582826632
 21
339.2672594576343
 31
0.0
 70
   160
 71
     5
 42
139.9969999999999
  3
ARTICS
100
AcDbAlignedDimension
 13
304.9299213345951
 23
409.2657594576341
 33
0.0
 14
307.1299213345951
 24
269.2687594576344
 34
0.0
 50
90.0
100
AcDbRotatedDimension
1001
ACAD
1000
DSTYLE
1002
{
1070
   340
1005
3E4
1070
   140
1040
8.0
1070
   271
1070
     0
1002
}
  0
DIMENSION
  5
187B
330
A
100
AcDbEntity
  8
寸法
  6
Continuous
100
AcDbDimension
  2
*D10
 10
323.9542674794396
 20
269.2687594576344
 30
0.0
 11
323.9542674794396
 21
277.7654111480801
 31
0.0
 70
   160
 71
     5
 42
16.9969999999999
  3
ARTICS
100
AcDbAlignedDimension
 13
271.1299213345951
 23
286.2657594576343
 33
0.0
 14
307.1299213345951
 24
269.2687594576344
 34
0.0
 50
90.0
100
AcDbRotatedDimension
1001
ACAD
1000
DSTYLE
1002
{
1070
   340
1005
3E4
1070
   140
1040
8.0
1070
   271
1070
     0
1002
}
  0
ARC
  5
1928
330
A
100
AcDbEntity
  8
ear
  6
Continuous
100
AcDbCircle
 10
-232.7485509999998
 20
528.7405855374313
 30
0.0
 40
3.5
100
AcDbArc
 50
90.00000000000005
 51
270.0
  0
ARC
  5
1929
330
A
100
AcDbEntity
  8
ear
  6
Continuous
100
AcDbCircle
 10
-228.7485509999999
 20
528.7405855374313
 30
0.0
 40
3.5
100
AcDbArc
 50
270.0
 51
90.00000000000005
  0
LINE
  5
192A
330
A
100
AcDbEntity
  8
ear
  6
CENTER
 48
0.5
100
AcDbLine
 10
-230.7485509999998
 20
492.4905855374313
 30
0.0
 11
-230.7485509999998
 21
533.2405855374313
 31
0.0
  0
LINE
  5
192B
330
A
100
AcDbEntity
  8
ear
  6
Continuous
100
AcDbLine
 10
-238.7485509999998
 20
492.8655855374313
 30
0.0
 11
-238.7485509999998
 21
532.8655855374313
 31
0.0
  0
LINE
  5
192C
330
A
100
AcDbEntity
  8
ear
  6
Continuous
100
AcDbLine
 10
-207.7485509999998
 20
534.8655855374313
 30
0.0
 11
-207.7485509999998
 21
490.8655855374313
 31
0.0
  0
LINE
  5
192D
330
A
100
AcDbEntity
  8
ear
  6
Continuous
100
AcDbLine
 10
-207.7485509999998
 20
534.8655855374313
 30
0.0
 11
-236.7485509999998
 21
534.8655855374313
 31
0.0
  0
LINE
  5
192E
330
A
100
AcDbEntity
  8
ear
  6
CENTER
 48
0.2
100
AcDbLine
 10
-237.2485509999999
 20
528.7405855374313
 30
0.0
 11
-224.2485509999998
 21
528.7405855374313
 31
0.0
  0
LINE
  5
192F
330
A
100
AcDbEntity
  8
ear
  6
Continuous
100
AcDbLine
 10
-238.7485509999998
 20
532.8655855374313
 30
0.0
 11
-236.7485509999998
 21
534.8655855374313
 31
0.0
  0
LINE
  5
1930
330
A
100
AcDbEntity
  8
ear
  6
Continuous
100
AcDbLine
 10
-228.7485509999999
 20
532.2405855374313
 30
0.0
 11
-232.7485509999998
 21
532.2405855374313
 31
0.0
  0
LINE
  5
1931
330
A
100
AcDbEntity
  8
ear
  6
Continuous
100
AcDbLine
 10
-207.7485509999998
 20
490.8655855374313
 30
0.0
 11
-236.7485509999998
 21
490.8655855374313
 31
0.0
  0
LINE
  5
1932
330
A
100
AcDbEntity
  8
ear
  6
Continuous
100
AcDbLine
 10
-228.7485509999999
 20
525.2405855374313
 30
0.0
 11
-232.7485509999998
 21
525.2405855374313
 31
0.0
  0
LINE
  5
1933
330
A
100
AcDbEntity
  8
ear
  6
CENTER
 48
0.2
100
AcDbLine
 10
-237.2485509999999
 20
496.9905855374313
 30
0.0
 11
-224.2485509999998
 21
496.9905855374313
 31
0.0
  0
ARC
  5
1934
330
A
100
AcDbEntity
  8
ear
  6
Continuous
100
AcDbCircle
 10
-232.7485509999998
 20
496.9905855374313
 30
0.0
 40
3.5
100
AcDbArc
 50
90.00000000000005
 51
270.0
  0
LINE
  5
1935
330
A
100
AcDbEntity
  8
ear
  6
Continuous
100
AcDbLine
 10
-236.7485509999998
 20
490.8655855374313
 30
0.0
 11
-238.7485509999998
 21
492.8655855374313
 31
0.0
  0
ARC
  5
1936
330
A
100
AcDbEntity
  8
ear
  6
Continuous
100
AcDbCircle
 10
-228.7485509999999
 20
496.9905855374313
 30
0.0
 40
3.5
100
AcDbArc
 50
270.0
 51
90.00000000000005
  0
LINE
  5
1937
330
A
100
AcDbEntity
  8
ear
  6
Continuous
100
AcDbLine
 10
-228.7485509999999
 20
493.4905855374313
 30
0.0
 11
-232.7485509999998
 21
493.4905855374313
 31
0.0
  0
LINE
  5
1938
330
A
100
AcDbEntity
  8
ear
  6
Continuous
100
AcDbLine
 10
-228.7485509999999
 20
500.4905855374313
 30
0.0
 11
-232.7485509999998
 21
500.4905855374313
 31
0.0
  0
LINE
  5
194A
330
A
100
AcDbEntity
  8
ear
  6
Continuous
100
AcDbLine
 10
-209.7488312556847
 20
534.8655855374313
 30
0.0
 11
-209.7485509999998
 21
490.8655855374313
 31
0.0
  0
LINE
  5
1950
330
A
100
AcDbEntity
  8
ear
  6
Continuous
100
AcDbLine
 10
-209.7488377258707
 20
522.1718254837352
 30
0.0
 11
-209.7488377258707
 21
529.4078934837354
 31
0.0
  0
ARC
  5
1951
330
A
100
AcDbEntity
  8
ear
  6
Continuous
100
AcDbCircle
 10
-204.2488377258707
 20
525.7898594837355
 30
0.0
 40
8.0
100
AcDbArc
 50
150.626961
 51
209.3730389999999
  0
ARC
  5
1952
330
A
100
AcDbEntity
  8
ear
  6
Continuous
100
AcDbCircle
 10
-210.7488377258705
 20
523.2898594837353
 30
0.0
 40
1.5
100
AcDbArc
 50
251.677105
 51
311.810315
  0
ARC
  5
1953
330
A
100
AcDbEntity
  8
ear
  6
Continuous
100
AcDbCircle
 10
-210.7488377258705
 20
528.2898594837352
 30
0.0
 40
1.5
100
AcDbArc
 50
48.189685
 51
108.3228949999994
  0
LINE
  5
1954
330
A
100
AcDbEntity
  8
ear
  6
Continuous
100
AcDbLine
 10
-209.7485509999998
 20
496.2475515374312
 30
0.0
 11
-209.7485509999998
 21
503.4836195374309
 31
0.0
  0
ARC
  5
1955
330
A
100
AcDbEntity
  8
ear
  6
Continuous
100
AcDbCircle
 10
-204.2485509999997
 20
499.8655855374312
 30
0.0
 40
8.0
100
AcDbArc
 50
150.626961
 51
209.3730389999999
  0
ARC
  5
1956
330
A
100
AcDbEntity
  8
ear
  6
Continuous
100
AcDbCircle
 10
-210.7485509999995
 20
497.3655855374313
 30
0.0
 40
1.5
100
AcDbArc
 50
251.677105
 51
311.810315
  0
ARC
  5
1957
330
A
100
AcDbEntity
  8
ear
  6
Continuous
100
AcDbCircle
 10
-210.7485509999995
 20
502.3655855374313
 30
0.0
 40
1.5
100
AcDbArc
 50
48.189685
 51
108.3228949999994
  0
LINE
  5
1A85
330
A
100
AcDbEntity
  8
ear
  6
Continuous
100
AcDbLine
 10
-207.7485509999998
 20
492.8655855374313
 30
0.0
 11
-209.7485509999998
 21
492.8655855374313
 31
0.0
  0
LINE
  5
1A86
330
A
100
AcDbEntity
  8
ear
  6
Continuous
100
AcDbLine
 10
-207.7485509999998
 20
532.8655855374313
 30
0.0
 11
-209.7485509999998
 21
532.8655855374313
 31
0.0
  0
LINE
  5
243E
102
{ACAD_REACTORS
330
244B
102
}
330
A
100
AcDbEntity
  8
ear
  6
Continuous
100
AcDbLine
 10
-209.7485509999999
 20
269.2657594576343
 30
0.0
 11
-238.7485509999999
 21
269.2657594576343
 31
0.0
  0
LINE
  5
243F
102
{ACAD_REACTORS
330
244B
102
}
330
A
100
AcDbEntity
  8
ear
  6
Continuous
100
AcDbLine
 10
-209.7485509999999
 20
271.2657594576343
 30
0.0
 11
-238.7485509999999
 21
271.2657594576343
 31
0.0
  0
ARC
  5
2440
102
{ACAD_REACTORS
330
244B
102
}
330
A
100
AcDbEntity
  8
ear
  6
Continuous
100
AcDbCircle
 10
-204.2485510893972
 20
286.2667511079909
 30
0.0
 40
8.0
100
AcDbArc
 50
150.6372914328171
 51
209.3833694328171
  0
LINE
  5
2441
102
{ACAD_REACTORS
330
244B
102
}
330
A
100
AcDbEntity
  8
ear
  6
Continuous
100
AcDbLine
 10
-209.7492033317648
 20
289.8837933988263
 30
0.0
 11
-209.747898668235
 21
282.6477255164421
 31
0.0
  0
LINE
  5
2442
102
{ACAD_REACTORS
330
244B
102
}
330
A
100
AcDbEntity
  8
ear
  6
Continuous
100
AcDbLine
 10
-207.7485509999999
 20
296.2657594576343
 30
0.0
 11
-207.7485509999999
 21
271.2657594576343
 31
0.0
  0
LINE
  5
2443
102
{ACAD_REACTORS
330
244B
102
}
330
A
100
AcDbEntity
  8
ear
  6
Continuous
100
AcDbLine
 10
-209.7485509999999
 20
296.2657594576343
 30
0.0
 11
-209.7485509999999
 21
271.2657594576343
 31
0.0
  0
ARC
  5
2444
102
{ACAD_REACTORS
330
244B
102
}
330
A
100
AcDbEntity
  8
ear
  6
Continuous
100
AcDbCircle
 10
-209.7485509999999
 20
271.2657594576343
 30
0.0
 40
2.0
100
AcDbArc
 50
270.0
 51
0.000000000000007
  0
ARC
  5
2445
102
{ACAD_REACTORS
330
244B
102
}
330
A
100
AcDbEntity
  8
ear
  6
Continuous
100
AcDbCircle
 10
-210.7481002335836
 20
283.7655791982043
 30
0.0
 40
1.5
100
AcDbArc
 50
251.687435432817
 51
311.820645432817
  0
LINE
  5
2446
102
{ACAD_REACTORS
330
244B
102
}
330
A
100
AcDbEntity
  8
ear
  6
Continuous
100
AcDbLine
 10
-207.7485509999999
 20
296.2657594576343
 30
0.0
 11
-209.7485509999999
 21
296.2657594576343
 31
0.0
  0
LINE
  5
2447
102
{ACAD_REACTORS
330
244B
102
}
330
A
100
AcDbEntity
  8
ear
  6
Continuous
100
AcDbLine
 10
-207.7485509999999
 20
294.2657594576343
 30
0.0
 11
-209.7485509999999
 21
294.2657594576343
 31
0.0
  0
ARC
  5
2448
102
{ACAD_REACTORS
330
244B
102
}
330
A
100
AcDbEntity
  8
ear
  6
Continuous
100
AcDbCircle
 10
-210.749001733908
 20
288.7655791169343
 30
0.0
 40
1.5
100
AcDbArc
 50
48.20001543281728
 51
108.3332254328171
  0
LINE
  5
2449
102
{ACAD_REACTORS
330
244B
102
}
330
A
100
AcDbEntity
  8
ear
  6
Continuous
100
AcDbLine
 10
-238.7485509999999
 20
271.2657594576343
 30
0.0
 11
-238.7485509999999
 21
269.2657594576343
 31
0.0
  0
LINE
  5
244A
102
{ACAD_REACTORS
330
244B
102
}
330
A
100
AcDbEntity
  8
ear
  6
Continuous
100
AcDbLine
 10
-236.7485509999999
 20
271.2657594576343
 30
0.0
 11
-236.7485509999999
 21
269.2657594576343
 31
0.0
  0
LINE
  5
26DE
102
{ACAD_REACTORS
330
2720
102
}
330
A
100
AcDbEntity
  8
ear
  6
Continuous
100
AcDbLine
 10
-302.6270233345953
 20
269.2657594576343
 30
0.0
 11
-258.6270233345953
 21
269.2657594576343
 31
0.0
  0
LINE
  5
26DF
102
{ACAD_REACTORS
330
2720
102
}
330
A
100
AcDbEntity
  8
ear
  6
Continuous
100
AcDbLine
 10
-258.6270233345953
 20
269.2657594576343
 30
0.0
 11
-258.6270233345953
 21
294.2657594576343
 31
0.0
  0
LINE
  5
26E0
102
{ACAD_REACTORS
330
2720
102
}
330
A
100
AcDbEntity
  8
ear
  6
Continuous
100
AcDbLine
 10
-260.6270233345953
 20
296.2657594576343
 30
0.0
 11
-300.6270233345953
 21
296.2657594576343
 31
0.0
  0
LINE
  5
26E1
102
{ACAD_REACTORS
330
2720
102
}
330
A
100
AcDbEntity
  8
ear
  6
Continuous
100
AcDbLine
 10
-302.6270233345953
 20
294.2657594576343
 30
0.0
 11
-302.6270233345953
 21
269.2657594576343
 31
0.0
  0
LINE
  5
26E2
102
{ACAD_REACTORS
330
2720
102
}
330
A
100
AcDbEntity
  8
ear
  6
Continuous
100
AcDbLine
 10
-302.6270233345953
 20
271.2657594576343
 30
0.0
 11
-258.6270233345953
 21
271.2657594576343
 31
0.0
  0
LINE
  5
26E3
102
{ACAD_REACTORS
330
2720
102
}
330
A
100
AcDbEntity
  8
ear
  6
Continuous
100
AcDbLine
 10
-300.6270233345953
 20
269.2657594576343
 30
0.0
 11
-300.6270233345953
 21
271.2657594576343
 31
0.0
  0
LINE
  5
26E4
102
{ACAD_REACTORS
330
2720
102
}
330
A
100
AcDbEntity
  8
ear
  6
Continuous
100
AcDbLine
 10
-260.6270233345953
 20
271.2657594576343
 30
0.0
 11
-260.6270233345953
 21
269.2657594576343
 31
0.0
  0
LINE
  5
26E5
102
{ACAD_REACTORS
330
2720
102
}
330
A
100
AcDbEntity
  8
ear
  6
Continuous
100
AcDbLine
 10
-302.6270233345953
 20
294.2657594576343
 30
0.0
 11
-300.6270233345953
 21
296.2657594576343
 31
0.0
  0
LINE
  5
26E6
102
{ACAD_REACTORS
330
2720
102
}
330
A
100
AcDbEntity
  8
ear
  6
Continuous
100
AcDbLine
 10
-260.6270233345953
 20
296.2657594576343
 30
0.0
 11
-258.6270233345953
 21
294.2657594576343
 31
0.0
  0
CIRCLE
  5
26E7
102
{ACAD_REACTORS
330
2720
102
}
330
A
100
AcDbEntity
  8
ear
  6
Continuous
100
AcDbCircle
 10
-294.6270233345953
 20
286.2657594576343
 30
0.0
 40
4.0
  0
CIRCLE
  5
26E8
102
{ACAD_REACTORS
330
2720
102
}
330
A
100
AcDbEntity
  8
ear
  6
Continuous
100
AcDbCircle
 10
-294.6270233345953
 20
286.2657594576343
 30
0.0
 40
3.5
  0
CIRCLE
  5
26E9
102
{ACAD_REACTORS
330
2720
102
}
330
A
100
AcDbEntity
  8
ear
  6
Continuous
100
AcDbCircle
 10
-296.0410233345955
 20
286.2657594576343
 30
0.0
 40
0.3
  0
ARC
  5
26EA
102
{ACAD_REACTORS
330
2720
102
}
330
A
100
AcDbEntity
  8
ear
  6
Continuous
100
AcDbCircle
 10
-293.2830233345956
 20
286.2657594576343
 30
0.0
 40
0.6
100
AcDbArc
 50
135.0674799999995
 51
224.9325100000016
  0
ARC
  5
26EB
102
{ACAD_REACTORS
330
2720
102
}
330
A
100
AcDbEntity
  8
ear
  6
Continuous
100
AcDbCircle
 10
-295.9710233345953
 20
286.2657594576343
 30
0.0
 40
0.6
100
AcDbArc
 50
315.067485999999
 51
44.93251000000161
  0
LINE
  5
26EC
102
{ACAD_REACTORS
330
2720
102
}
330
A
100
AcDbEntity
  8
ear
  6
Continuous
100
AcDbLine
 10
-296.2888653345956
 20
285.0989174576342
 30
0.0
 11
-295.7938653345951
 21
284.6039174576342
 31
0.0
  0
LINE
  5
26ED
102
{ACAD_REACTORS
330
2720
102
}
330
A
100
AcDbEntity
  8
ear
  6
Continuous
100
AcDbLine
 10
-295.5460233345956
 20
285.8417594576343
 30
0.0
 11
-296.2888653345956
 21
285.0989174576342
 31
0.0
  0
LINE
  5
26EE
102
{ACAD_REACTORS
330
2720
102
}
330
A
100
AcDbEntity
  8
ear
  6
Continuous
100
AcDbLine
 10
-295.0510233345957
 20
285.3467594576342
 30
0.0
 11
-295.7938653345951
 21
284.6039174576342
 31
0.0
  0
LINE
  5
26EF
102
{ACAD_REACTORS
330
2720
102
}
330
A
100
AcDbEntity
  8
ear
  6
Continuous
100
AcDbLine
 10
-294.2030233345951
 20
285.3467594576342
 30
0.0
 11
-293.4601813345956
 21
284.6039174576342
 31
0.0
  0
ARC
  5
26F0
102
{ACAD_REACTORS
330
2720
102
}
330
A
100
AcDbEntity
  8
ear
  6
Continuous
100
AcDbCircle
 10
-294.6270233345953
 20
284.9217594576342
 30
0.0
 40
0.6
100
AcDbArc
 50
45.06747999999979
 51
134.9325100000015
  0
LINE
  5
26F1
102
{ACAD_REACTORS
330
2720
102
}
330
A
100
AcDbEntity
  8
ear
  6
Continuous
100
AcDbLine
 10
-292.9651813345953
 20
285.0989174576342
 30
0.0
 11
-293.4601813345956
 21
284.6039174576342
 31
0.0
  0
LINE
  5
26F2
102
{ACAD_REACTORS
330
2720
102
}
330
A
100
AcDbEntity
  8
ear
  6
Continuous
100
AcDbLine
 10
-293.7080233345956
 20
285.8417594576343
 30
0.0
 11
-292.9651813345953
 21
285.0989174576342
 31
0.0
  0
LINE
  5
26F3
102
{ACAD_REACTORS
330
2720
102
}
330
A
100
AcDbEntity
  8
ear
  6
Continuous
100
AcDbLine
 10
-295.7938653345951
 20
287.9276034576344
 30
0.0
 11
-296.2888653345956
 21
287.4326034576342
 31
0.0
  0
LINE
  5
26F4
102
{ACAD_REACTORS
330
2720
102
}
330
A
100
AcDbEntity
  8
ear
  6
Continuous
100
AcDbLine
 10
-296.2888653345956
 20
287.4326034576342
 30
0.0
 11
-295.5460233345956
 21
286.6897594576343
 31
0.0
  0
LINE
  5
26F5
102
{ACAD_REACTORS
330
2720
102
}
330
A
100
AcDbEntity
  8
ear
  6
Continuous
100
AcDbLine
 10
-295.7938653345951
 20
287.9276034576344
 30
0.0
 11
-295.0510233345957
 21
287.1847594576341
 31
0.0
  0
LINE
  5
26F6
102
{ACAD_REACTORS
330
2720
102
}
330
A
100
AcDbEntity
  8
ear
  6
Continuous
100
AcDbLine
 10
-293.4601813345956
 20
287.9276034576344
 30
0.0
 11
-294.2030233345951
 21
287.1847594576341
 31
0.0
  0
ARC
  5
26F7
102
{ACAD_REACTORS
330
2720
102
}
330
A
100
AcDbEntity
  8
ear
  6
Continuous
100
AcDbCircle
 10
-294.6270233345953
 20
287.6097594576343
 30
0.0
 40
0.6
100
AcDbArc
 50
225.0674799999996
 51
314.9325130000011
  0
LINE
  5
26F8
102
{ACAD_REACTORS
330
2720
102
}
330
A
100
AcDbEntity
  8
ear
  6
Continuous
100
AcDbLine
 10
-292.9651813345953
 20
287.4326034576342
 30
0.0
 11
-293.7080233345956
 21
286.6897594576343
 31
0.0
  0
LINE
  5
26F9
102
{ACAD_REACTORS
330
2720
102
}
330
A
100
AcDbEntity
  8
ear
  6
Continuous
100
AcDbLine
 10
-293.4601813345956
 20
287.9276034576344
 30
0.0
 11
-292.9651813345953
 21
287.4326034576342
 31
0.0
  0
LINE
  5
270D
102
{ACAD_REACTORS
330
2720
102
}
330
A
100
AcDbEntity
  8
ear
  6
Continuous
100
AcDbLine
 10
-267.7938653345953
 20
287.9276034576344
 30
0.0
 11
-267.0510233345956
 21
287.1847594576341
 31
0.0
  0
LINE
  5
270E
102
{ACAD_REACTORS
330
2720
102
}
330
A
100
AcDbEntity
  8
ear
  6
Continuous
100
AcDbLine
 10
-268.2888653345957
 20
287.4326034576342
 30
0.0
 11
-267.5460233345956
 21
286.6897594576343
 31
0.0
  0
LINE
  5
270F
102
{ACAD_REACTORS
330
2720
102
}
330
A
100
AcDbEntity
  8
ear
  6
Continuous
100
AcDbLine
 10
-267.0510233345956
 20
285.3467594576342
 30
0.0
 11
-267.7938653345953
 21
284.6039174576342
 31
0.0
  0
LINE
  5
2710
102
{ACAD_REACTORS
330
2720
102
}
330
A
100
AcDbEntity
  8
ear
  6
Continuous
100
AcDbLine
 10
-267.5460233345956
 20
285.8417594576343
 30
0.0
 11
-268.2888653345957
 21
285.0989174576342
 31
0.0
  0
CIRCLE
  5
2711
102
{ACAD_REACTORS
330
2720
102
}
330
A
100
AcDbEntity
  8
ear
  6
Continuous
100
AcDbCircle
 10
-266.6270233345954
 20
286.2657594576343
 30
0.0
 40
3.5
  0
CIRCLE
  5
2712
102
{ACAD_REACTORS
330
2720
102
}
330
A
100
AcDbEntity
  8
ear
  6
Continuous
100
AcDbCircle
 10
-266.6270233345954
 20
286.2657594576343
 30
0.0
 40
4.0
  0
LINE
  5
2713
102
{ACAD_REACTORS
330
2720
102
}
330
A
100
AcDbEntity
  8
ear
  6
Continuous
100
AcDbLine
 10
-268.2888653345957
 20
285.0989174576342
 30
0.0
 11
-267.7938653345953
 21
284.6039174576342
 31
0.0
  0
LINE
  5
2714
102
{ACAD_REACTORS
330
2720
102
}
330
A
100
AcDbEntity
  8
ear
  6
Continuous
100
AcDbLine
 10
-267.7938653345953
 20
287.9276034576344
 30
0.0
 11
-268.2888653345957
 21
287.4326034576342
 31
0.0
  0
CIRCLE
  5
2715
102
{ACAD_REACTORS
330
2720
102
}
330
A
100
AcDbEntity
  8
ear
  6
Continuous
100
AcDbCircle
 10
-268.0410233345954
 20
286.2657594576343
 30
0.0
 40
0.3
  0
LINE
  5
2716
102
{ACAD_REACTORS
330
2720
102
}
330
A
100
AcDbEntity
  8
ear
  6
Continuous
100
AcDbLine
 10
-265.7080233345956
 20
285.8417594576343
 30
0.0
 11
-264.9651813345954
 21
285.0989174576342
 31
0.0
  0
LINE
  5
2717
102
{ACAD_REACTORS
330
2720
102
}
330
A
100
AcDbEntity
  8
ear
  6
Continuous
100
AcDbLine
 10
-264.9651813345954
 20
285.0989174576342
 30
0.0
 11
-265.4601813345956
 21
284.6039174576342
 31
0.0
  0
ARC
  5
2718
102
{ACAD_REACTORS
330
2720
102
}
330
A
100
AcDbEntity
  8
ear
  6
Continuous
100
AcDbCircle
 10
-266.6270233345954
 20
284.9217594576342
 30
0.0
 40
0.6
100
AcDbArc
 50
45.06747999999979
 51
134.9325100000015
  0
LINE
  5
2719
102
{ACAD_REACTORS
330
2720
102
}
330
A
100
AcDbEntity
  8
ear
  6
Continuous
100
AcDbLine
 10
-266.2030233345951
 20
285.3467594576342
 30
0.0
 11
-265.4601813345956
 21
284.6039174576342
 31
0.0
  0
LINE
  5
271A
102
{ACAD_REACTORS
330
2720
102
}
330
A
100
AcDbEntity
  8
ear
  6
Continuous
100
AcDbLine
 10
-265.4601813345956
 20
287.9276034576344
 30
0.0
 11
-264.9651813345954
 21
287.4326034576342
 31
0.0
  0
LINE
  5
271B
102
{ACAD_REACTORS
330
2720
102
}
330
A
100
AcDbEntity
  8
ear
  6
Continuous
100
AcDbLine
 10
-264.9651813345954
 20
287.4326034576342
 30
0.0
 11
-265.7080233345956
 21
286.6897594576343
 31
0.0
  0
ARC
  5
271C
102
{ACAD_REACTORS
330
2720
102
}
330
A
100
AcDbEntity
  8
ear
  6
Continuous
100
AcDbCircle
 10
-266.6270233345954
 20
287.6097594576343
 30
0.0
 40
0.6
100
AcDbArc
 50
225.0674799999996
 51
314.9325130000011
  0
LINE
  5
271D
102
{ACAD_REACTORS
330
2720
102
}
330
A
100
AcDbEntity
  8
ear
  6
Continuous
100
AcDbLine
 10
-265.4601813345956
 20
287.9276034576344
 30
0.0
 11
-266.2030233345951
 21
287.1847594576341
 31
0.0
  0
ARC
  5
271E
102
{ACAD_REACTORS
330
2720
102
}
330
A
100
AcDbEntity
  8
ear
  6
Continuous
100
AcDbCircle
 10
-267.9710233345953
 20
286.2657594576343
 30
0.0
 40
0.6
100
AcDbArc
 50
315.067485999999
 51
44.93251000000161
  0
ARC
  5
271F
102
{ACAD_REACTORS
330
2720
102
}
330
A
100
AcDbEntity
  8
ear
  6
Continuous
100
AcDbCircle
 10
-265.2830233345956
 20
286.2657594576343
 30
0.0
 40
0.6
100
AcDbArc
 50
135.0674799999995
 51
224.9325100000016
  0
LINE
  5
286B
102
{ACAD_REACTORS
330
28E8
102
}
330
A
100
AcDbEntity
  8
ear
  6
Continuous
100
AcDbLine
 10
265.129921334595
 20
296.2657594576343
 30
0.0
 11
305.1299213345951
 21
296.2657594576343
 31
0.0
  0
LINE
  5
286C
102
{ACAD_REACTORS
330
28E8
102
}
330
A
100
AcDbEntity
  8
ear
  6
Continuous
100
AcDbLine
 10
307.1299213345951
 20
271.2657594576343
 30
0.0
 11
263.129921334595
 21
271.2657594576343
 31
0.0
  0
LINE
  5
286D
102
{ACAD_REACTORS
330
28E8
102
}
330
A
100
AcDbEntity
  8
ear
  6
Continuous
100
AcDbLine
 10
307.1299213345951
 20
269.2657594576343
 30
0.0
 11
263.129921334595
 21
269.2657594576343
 31
0.0
  0
ARC
  5
286F
102
{ACAD_REACTORS
330
28E8
102
}
330
A
100
AcDbEntity
  8
ear
  6
Continuous
100
AcDbCircle
 10
300.473921334595
 20
286.2657594576343
 30
0.0
 40
0.6
100
AcDbArc
 50
135.0674899999984
 51
224.932514000001
  0
ARC
  5
2870
102
{ACAD_REACTORS
330
28E8
102
}
330
A
100
AcDbEntity
  8
ear
  6
Continuous
100
AcDbCircle
 10
297.7859213345956
 20
286.2657594576343
 30
0.0
 40
0.6
100
AcDbArc
 50
315.0674899999983
 51
44.93252000000049
  0
CIRCLE
  5
2871
102
{ACAD_REACTORS
330
28E8
102
}
330
A
100
AcDbEntity
  8
ear
  6
Continuous
100
AcDbCircle
 10
300.5439213345953
 20
286.2657594576343
 30
0.0
 40
0.3
  0
LINE
  5
2872
102
{ACAD_REACTORS
330
28E8
102
}
330
A
100
AcDbEntity
  8
ear
  6
Continuous
100
AcDbLine
 10
307.1299213345951
 20
294.2657594576343
 30
0.0
 11
307.1299213345951
 21
269.2657594576343
 31
0.0
  0
CIRCLE
  5
2873
102
{ACAD_REACTORS
330
28E8
102
}
330
A
100
AcDbEntity
  8
ear
  6
Continuous
100
AcDbCircle
 10
299.1299213345953
 20
286.2657594576343
 30
0.0
 40
3.5
  0
CIRCLE
  5
2874
102
{ACAD_REACTORS
330
28E8
102
}
330
A
100
AcDbEntity
  8
ear
  6
Continuous
100
AcDbCircle
 10
299.1299213345953
 20
286.2657594576343
 30
0.0
 40
4.0
  0
LINE
  5
2876
102
{ACAD_REACTORS
330
28E8
102
}
330
A
100
AcDbEntity
  8
ear
  6
Continuous
100
AcDbLine
 10
305.1299213345951
 20
269.2657594576343
 30
0.0
 11
305.1299213345951
 21
271.2657594576343
 31
0.0
  0
LINE
  5
2878
102
{ACAD_REACTORS
330
28E8
102
}
330
A
100
AcDbEntity
  8
ear
  6
Continuous
100
AcDbLine
 10
298.2109213345956
 20
285.8417594576343
 30
0.0
 11
297.4680793345953
 21
285.0989174576342
 31
0.0
  0
LINE
  5
2879
102
{ACAD_REACTORS
330
28E8
102
}
330
A
100
AcDbEntity
  8
ear
  6
Continuous
100
AcDbLine
 10
297.4680793345953
 20
285.0989174576342
 30
0.0
 11
297.9630793345953
 21
284.6039174576342
 31
0.0
  0
ARC
  5
287A
102
{ACAD_REACTORS
330
28E8
102
}
330
A
100
AcDbEntity
  8
ear
  6
Continuous
100
AcDbCircle
 10
299.1299213345953
 20
284.9217594576342
 30
0.0
 40
0.6
100
AcDbArc
 50
45.06748999999849
 51
134.9325200000002
  0
LINE
  5
287B
102
{ACAD_REACTORS
330
28E8
102
}
330
A
100
AcDbEntity
  8
ear
  6
Continuous
100
AcDbLine
 10
298.7059213345953
 20
285.3467594576342
 30
0.0
 11
297.9630793345953
 21
284.6039174576342
 31
0.0
  0
LINE
  5
287C
102
{ACAD_REACTORS
330
28E8
102
}
330
A
100
AcDbEntity
  8
ear
  6
Continuous
100
AcDbLine
 10
300.7917633345956
 20
285.0989174576342
 30
0.0
 11
300.2967633345953
 21
284.6039174576342
 31
0.0
  0
LINE
  5
287D
102
{ACAD_REACTORS
330
28E8
102
}
330
A
100
AcDbEntity
  8
ear
  6
Continuous
100
AcDbLine
 10
299.5539213345956
 20
285.3467594576342
 30
0.0
 11
300.2967633345953
 21
284.6039174576342
 31
0.0
  0
LINE
  5
287E
102
{ACAD_REACTORS
330
28E8
102
}
330
A
100
AcDbEntity
  8
ear
  6
Continuous
100
AcDbLine
 10
300.0489213345955
 20
285.8417594576343
 30
0.0
 11
300.7917633345956
 21
285.0989174576342
 31
0.0
  0
LINE
  5
2885
102
{ACAD_REACTORS
330
28E8
102
}
330
A
100
AcDbEntity
  8
ear
  6
Continuous
100
AcDbLine
 10
307.1299213345951
 20
294.2657594576343
 30
0.0
 11
305.1299213345951
 21
296.2657594576343
 31
0.0
  0
LINE
  5
2886
102
{ACAD_REACTORS
330
28E8
102
}
330
A
100
AcDbEntity
  8
ear
  6
Continuous
100
AcDbLine
 10
297.9630793345953
 20
287.9276034576344
 30
0.0
 11
297.4680793345953
 21
287.4326034576342
 31
0.0
  0
LINE
  5
2887
102
{ACAD_REACTORS
330
28E8
102
}
330
A
100
AcDbEntity
  8
ear
  6
Continuous
100
AcDbLine
 10
297.4680793345953
 20
287.4326034576342
 30
0.0
 11
298.2109213345956
 21
286.6897594576343
 31
0.0
  0
ARC
  5
2888
102
{ACAD_REACTORS
330
28E8
102
}
330
A
100
AcDbEntity
  8
ear
  6
Continuous
100
AcDbCircle
 10
299.1299213345953
 20
287.6097594576343
 30
0.0
 40
0.6
100
AcDbArc
 50
225.0674869999989
 51
314.9325200000004
  0
LINE
  5
2889
102
{ACAD_REACTORS
330
28E8
102
}
330
A
100
AcDbEntity
  8
ear
  6
Continuous
100
AcDbLine
 10
297.9630793345953
 20
287.9276034576344
 30
0.0
 11
298.7059213345953
 21
287.1847594576341
 31
0.0
  0
LINE
  5
288A
102
{ACAD_REACTORS
330
28E8
102
}
330
A
100
AcDbEntity
  8
ear
  6
Continuous
100
AcDbLine
 10
300.2967633345953
 20
287.9276034576344
 30
0.0
 11
300.7917633345956
 21
287.4326034576342
 31
0.0
  0
LINE
  5
288B
102
{ACAD_REACTORS
330
28E8
102
}
330
A
100
AcDbEntity
  8
ear
  6
Continuous
100
AcDbLine
 10
300.2967633345953
 20
287.9276034576344
 30
0.0
 11
299.5539213345956
 21
287.1847594576341
 31
0.0
  0
LINE
  5
288C
102
{ACAD_REACTORS
330
28E8
102
}
330
A
100
AcDbEntity
  8
ear
  6
Continuous
100
AcDbLine
 10
300.7917633345956
 20
287.4326034576342
 30
0.0
 11
300.0489213345955
 21
286.6897594576343
 31
0.0
  0
LINE
  5
288D
102
{ACAD_REACTORS
330
28E8
102
}
330
A
100
AcDbEntity
  8
ear
  6
Continuous
100
AcDbLine
 10
263.129921334595
 20
269.2657594576343
 30
0.0
 11
263.129921334595
 21
294.2657594576343
 31
0.0
  0
ARC
  5
288E
102
{ACAD_REACTORS
330
28E8
102
}
330
A
100
AcDbEntity
  8
ear
  6
Continuous
100
AcDbCircle
 10
269.7859213345956
 20
286.2657594576343
 30
0.0
 40
0.6
100
AcDbArc
 50
315.0674899999983
 51
44.93252000000049
  0
ARC
  5
288F
102
{ACAD_REACTORS
330
28E8
102
}
330
A
100
AcDbEntity
  8
ear
  6
Continuous
100
AcDbCircle
 10
272.4739213345951
 20
286.2657594576343
 30
0.0
 40
0.6
100
AcDbArc
 50
135.0674899999984
 51
224.932514000001
  0
CIRCLE
  5
2890
102
{ACAD_REACTORS
330
28E8
102
}
330
A
100
AcDbEntity
  8
ear
  6
Continuous
100
AcDbCircle
 10
272.5439213345954
 20
286.2657594576343
 30
0.0
 40
0.3
  0
CIRCLE
  5
2891
102
{ACAD_REACTORS
330
28E8
102
}
330
A
100
AcDbEntity
  8
ear
  6
Continuous
100
AcDbCircle
 10
271.1299213345951
 20
286.2657594576343
 30
0.0
 40
4.0
  0
CIRCLE
  5
2892
102
{ACAD_REACTORS
330
28E8
102
}
330
A
100
AcDbEntity
  8
ear
  6
Continuous
100
AcDbCircle
 10
271.1299213345951
 20
286.2657594576343
 30
0.0
 40
3.5
  0
LINE
  5
2893
102
{ACAD_REACTORS
330
28E8
102
}
330
A
100
AcDbEntity
  8
ear
  6
Continuous
100
AcDbLine
 10
271.5539213345956
 20
285.3467594576342
 30
0.0
 11
272.2967633345954
 21
284.6039174576342
 31
0.0
  0
LINE
  5
2895
102
{ACAD_REACTORS
330
28E8
102
}
330
A
100
AcDbEntity
  8
ear
  6
Continuous
100
AcDbLine
 10
272.0489213345956
 20
285.8417594576343
 30
0.0
 11
272.7917633345956
 21
285.0989174576342
 31
0.0
  0
LINE
  5
2896
102
{ACAD_REACTORS
330
28E8
102
}
330
A
100
AcDbEntity
  8
ear
  6
Continuous
100
AcDbLine
 10
272.7917633345956
 20
285.0989174576342
 30
0.0
 11
272.2967633345954
 21
284.6039174576342
 31
0.0
  0
LINE
  5
2897
102
{ACAD_REACTORS
330
28E8
102
}
330
A
100
AcDbEntity
  8
ear
  6
Continuous
100
AcDbLine
 10
265.129921334595
 20
271.2657594576343
 30
0.0
 11
265.129921334595
 21
269.2657594576343
 31
0.0
  0
LINE
  5
2898
102
{ACAD_REACTORS
330
28E8
102
}
330
A
100
AcDbEntity
  8
ear
  6
Continuous
100
AcDbLine
 10
270.2109213345954
 20
285.8417594576343
 30
0.0
 11
269.4680793345954
 21
285.0989174576342
 31
0.0
  0
LINE
  5
2899
102
{ACAD_REACTORS
330
28E8
102
}
330
A
100
AcDbEntity
  8
ear
  6
Continuous
100
AcDbLine
 10
270.7059213345953
 20
285.3467594576342
 30
0.0
 11
269.9630793345956
 21
284.6039174576342
 31
0.0
  0
ARC
  5
289A
102
{ACAD_REACTORS
330
28E8
102
}
330
A
100
AcDbEntity
  8
ear
  6
Continuous
100
AcDbCircle
 10
271.1299213345951
 20
284.9217594576342
 30
0.0
 40
0.6
100
AcDbArc
 50
45.06748999999849
 51
134.9325200000002
  0
LINE
  5
289B
102
{ACAD_REACTORS
330
28E8
102
}
330
A
100
AcDbEntity
  8
ear
  6
Continuous
100
AcDbLine
 10
269.4680793345954
 20
285.0989174576342
 30
0.0
 11
269.9630793345956
 21
284.6039174576342
 31
0.0
  0
LINE
  5
289C
102
{ACAD_REACTORS
330
28E8
102
}
330
A
100
AcDbEntity
  8
ear
  6
Continuous
100
AcDbLine
 10
272.2967633345954
 20
287.9276034576344
 30
0.0
 11
271.5539213345956
 21
287.1847594576341
 31
0.0
  0
LINE
  5
289D
102
{ACAD_REACTORS
330
28E8
102
}
330
A
100
AcDbEntity
  8
ear
  6
Continuous
100
AcDbLine
 10
272.2967633345954
 20
287.9276034576344
 30
0.0
 11
272.7917633345956
 21
287.4326034576342
 31
0.0
  0
LINE
  5
289E
102
{ACAD_REACTORS
330
28E8
102
}
330
A
100
AcDbEntity
  8
ear
  6
Continuous
100
AcDbLine
 10
272.7917633345956
 20
287.4326034576342
 30
0.0
 11
272.0489213345956
 21
286.6897594576343
 31
0.0
  0
LINE
  5
289F
102
{ACAD_REACTORS
330
28E8
102
}
330
A
100
AcDbEntity
  8
ear
  6
Continuous
100
AcDbLine
 10
269.9630793345956
 20
287.9276034576344
 30
0.0
 11
270.7059213345953
 21
287.1847594576341
 31
0.0
  0
ARC
  5
28A0
102
{ACAD_REACTORS
330
28E8
102
}
330
A
100
AcDbEntity
  8
ear
  6
Continuous
100
AcDbCircle
 10
271.1299213345951
 20
287.6097594576343
 30
0.0
 40
0.6
100
AcDbArc
 50
225.0674869999989
 51
314.9325200000004
  0
LINE
  5
28A1
102
{ACAD_REACTORS
330
28E8
102
}
330
A
100
AcDbEntity
  8
ear
  6
Continuous
100
AcDbLine
 10
269.4680793345954
 20
287.4326034576342
 30
0.0
 11
270.2109213345954
 21
286.6897594576343
 31
0.0
  0
LINE
  5
28A2
102
{ACAD_REACTORS
330
28E8
102
}
330
A
100
AcDbEntity
  8
ear
  6
Continuous
100
AcDbLine
 10
269.9630793345956
 20
287.9276034576344
 30
0.0
 11
269.4680793345954
 21
287.4326034576342
 31
0.0
  0
LINE
  5
28A3
102
{ACAD_REACTORS
330
28E8
102
}
330
A
100
AcDbEntity
  8
ear
  6
Continuous
100
AcDbLine
 10
265.129921334595
 20
296.2657594576343
 30
0.0
 11
263.129921334595
 21
294.2657594576343
 31
0.0
  0
LINE
  5
6914
102
{ACAD_REACTORS
330
6C4D
102
}
330
A
100
AcDbEntity
  8
本体
  6
Continuous
 62
    84
100
AcDbLine
 10
-204.2485510000001
 20
185.763267448301
 30
0.0
 11
-1.248551000000132
 21
185.763267448301
 31
0.0
  0
LINE
  5
6915
102
{ACAD_REACTORS
330
6C4D
102
}
330
A
100
AcDbEntity
  8
本体
  6
Continuous
 62
    84
100
AcDbLine
 10
-204.2485510000001
 20
226.7632674483011
 30
0.0
 11
-1.248551000000132
 21
226.763267448301
 31
0.0
  0
LINE
  5
6916
102
{ACAD_REACTORS
330
6C4D
102
}
330
A
100
AcDbEntity
  8
本体
  6
Continuous
 62
    84
100
AcDbLine
 10
-206.748551
 20
228.263267448301
 30
0.0
 11
1.251448999999865
 21
228.263267448301
 31
0.0
  0
LINE
  5
6917
102
{ACAD_REACTORS
330
6C4D
102
}
330
A
100
AcDbEntity
  8
本体
  6
Continuous
 62
    84
100
AcDbLine
 10
-207.7485509999999
 20
184.2632674483011
 30
0.0
 11
2.251448999999865
 21
184.263267448301
 31
0.0
  0
LINE
  5
6918
330
A
100
AcDbEntity
  8
本体
  6
Continuous
 62
    84
100
AcDbLine
 10
-206.7485510000015
 20
269.2657594576343
 30
0.0
 11
1.251448999998501
 21
269.2657594576342
 31
0.0
  0
LINE
  5
6919
330
A
100
AcDbEntity
  8
本体
  6
Continuous
 62
    84
100
AcDbLine
 10
-207.7485510000014
 20
409.2657594576341
 30
0.0
 11
2.251448999998499
 21
409.2657594576341
 31
0.0
  0
LINE
  5
691A
330
A
100
AcDbEntity
  8
本体
  6
Continuous
 62
    84
100
AcDbLine
 10
-181.0485509999998
 20
525.7655855374313
 30
0.0
 11
-160.4485509999999
 21
525.7655855374313
 31
0.0
  0
LINE
  5
691B
330
A
100
AcDbEntity
  8
本体
  6
Continuous
 62
    84
100
AcDbLine
 10
-181.0485509999998
 20
513.7655855374313
 30
0.0
 11
-160.4485509999999
 21
513.7655855374313
 31
0.0
  0
LINE
  5
691C
330
A
100
AcDbEntity
  8
本体
  6
Continuous
 62
    84
100
AcDbLine
 10
-160.4485509999999
 20
513.7655855374313
 30
0.0
 11
-181.0485509999998
 21
513.7655855374313
 31
0.0
  0
LINE
  5
691D
330
A
100
AcDbEntity
  8
本体
  6
Continuous
 62
    84
100
AcDbLine
 10
-203.0485509999996
 20
532.1655855374315
 30
0.0
 11
-2.448550999999838
 21
532.1655855374313
 31
0.0
  0
LINE
  5
691E
330
A
100
AcDbEntity
  8
本体
  6
Continuous
 62
    84
100
AcDbLine
 10
-203.0485509999996
 20
493.5655855374315
 30
0.0
 11
-2.448550999999838
 21
493.5655855374315
 31
0.0
  0
LINE
  5
691F
330
A
100
AcDbEntity
  8
本体
  6
Continuous
 62
    84
100
AcDbLine
 10
-206.5485509999998
 20
492.0655855374316
 30
0.0
 11
1.051449000000159
 21
492.0655855374315
 31
0.0
  0
LINE
  5
6920
330
A
100
AcDbEntity
  8
本体
  6
Continuous
 62
    84
100
AcDbLine
 10
-206.7485509999999
 20
490.8655855374314
 30
0.0
 11
1.251449000000093
 21
490.8655855374314
 31
0.0
  0
LINE
  5
6921
330
A
100
AcDbEntity
  8
本体
  6
Continuous
 62
    84
100
AcDbLine
 10
-206.5485509999998
 20
533.6655855374315
 30
0.0
 11
-19.24854499999992
 21
533.6655855374313
 31
0.0
  0
LINE
  5
6922
330
A
100
AcDbEntity
  8
本体
  6
Continuous
 62
    84
100
AcDbLine
 10
-207.7485509999998
 20
534.8655855374317
 30
0.0
 11
2.251449000000093
 21
534.8655855374314
 31
0.0
  0
LINE
  5
6923
330
A
100
AcDbEntity
  8
本体
  6
Continuous
 62
    84
100
AcDbLine
 10
-205.5485509999998
 20
533.6655855374315
 30
0.0
 11
1.051449000000159
 21
533.6655855374313
 31
0.0
  0
LINE
  5
6924
330
A
100
AcDbEntity
  8
本体
  6
Continuous
 62
    84
100
AcDbLine
 10
-205.5485509999998
 20
492.0655855374316
 30
0.0
 11
0.0514490000001615
 21
492.0655855374315
 31
0.0
  0
SOLID
  5
6925
102
{ACAD_REACTORS
330
6C4D
102
}
330
A
100
AcDbEntity
  8
本体
  6
Continuous
 62
    84
100
AcDbTrace
 10
-203.7485509999999
 20
219.263263448301
 30
0.0
 11
-1.748551000000134
 21
219.2632634483008
 31
0.0
 12
-203.7485509999999
 22
220.0632634483008
 32
0.0
 13
-1.748551000000134
 23
220.0632634483008
 33
0.0
  0
LINE
  5
6926
102
{ACAD_REACTORS
330
6C4D
102
}
330
A
100
AcDbEntity
  8
本体
  6
Continuous
 62
    84
100
AcDbLine
 10
-203.7485509999999
 20
220.063263448301
 30
0.0
 11
-1.748551000000134
 21
220.0632634483008
 31
0.0
  0
LINE
  5
6927
102
{ACAD_REACTORS
330
6C4D
102
}
330
A
100
AcDbEntity
  8
本体
  6
Continuous
 62
    84
100
AcDbLine
 10
-203.7485509999999
 20
219.263263448301
 30
0.0
 11
-1.748551000000134
 21
219.263263448301
 31
0.0
  0
LINE
  5
6928
330
A
100
AcDbEntity
  8
本体
  6
Continuous
 62
    84
100
AcDbLine
 10
-207.7485510000014
 20
270.2657594576343
 30
0.0
 11
-207.7485510000014
 21
409.2657594576341
 31
0.0
  0
LINE
  5
692C
330
A
100
AcDbEntity
  8
本体
  6
Continuous
 62
    84
100
AcDbLine
 10
-258.6270233345953
 20
270.2657594576343
 30
0.0
 11
-258.6270233345953
 21
409.2657594576342
 31
0.0
  0
LINE
  5
692E
330
A
100
AcDbEntity
  8
本体
  6
Continuous
 62
    84
100
AcDbLine
 10
-301.4270233345953
 20
295.4657594576342
 30
0.0
 11
-301.4270233345953
 21
408.2657594576343
 31
0.0
  0
LINE
  5
6930
330
A
100
AcDbEntity
  8
本体
  6
Continuous
 62
    84
100
AcDbLine
 10
-258.6270233345953
 20
409.2657594576342
 30
0.0
 11
-300.4270233345951
 21
409.2657594576342
 31
0.0
  0
LINE
  5
6931
330
A
100
AcDbEntity
  8
本体
  6
Continuous
 62
    84
100
AcDbLine
 10
-300.4270233345951
 20
409.2657594576342
 30
0.0
 11
-259.8270233345953
 21
409.2657594576342
 31
0.0
  0
ARC
  5
6932
330
A
100
AcDbEntity
  8
本体
  6
Continuous
 62
    84
100
AcDbCircle
 10
-300.4270233345951
 20
408.2657594576343
 30
0.0
 40
1.0
100
AcDbArc
 50
89.99999999999998
 51
180.0
  0
LINE
  5
6933
330
A
100
AcDbEntity
  8
本体
  6
Continuous
 62
    84
100
AcDbLine
 10
-300.4270233345951
 20
409.2657594576342
 30
0.0
 11
-301.4270233345953
 21
408.2657594576343
 31
0.0
  0
LINE
  5
6934
330
A
100
AcDbEntity
  8
本体
  6
Continuous
 62
    84
100
AcDbLine
 10
-205.0485509999997
 20
495.3655855374313
 30
0.0
 11
-205.0485509999997
 21
530.1655855374315
 31
0.0
  0
LINE
  5
6935
330
A
100
AcDbEntity
  8
本体
  6
Continuous
 62
    84
100
AcDbLine
 10
-206.5485509999998
 20
492.0655855374316
 30
0.0
 11
-206.5485509999998
 21
534.8655855374317
 31
0.0
  0
LINE
  5
6936
330
A
100
AcDbEntity
  8
本体
  6
Continuous
 62
    84
100
AcDbLine
 10
-207.7485509999998
 20
491.8655855374315
 30
0.0
 11
-207.7485509999998
 21
534.8655855374317
 31
0.0
  0
LINE
  5
6937
330
A
100
AcDbEntity
  8
本体
  6
Continuous
 62
    84
100
AcDbLine
 10
-206.5485509999998
 20
493.0655855374316
 30
0.0
 11
-206.5485509999998
 21
532.6655855374315
 31
0.0
  0
ARC
  5
6939
330
A
100
AcDbEntity
  8
本体
  6
Continuous
 62
    84
100
AcDbCircle
 10
-203.0485509999995
 20
530.1655855374312
 30
0.0
 40
2.0
100
AcDbArc
 50
89.99999999999998
 51
180.0
  0
ARC
  5
693A
330
A
100
AcDbEntity
  8
本体
  6
Continuous
 62
    84
100
AcDbCircle
 10
-205.5485509999996
 20
532.6655855374314
 30
0.0
 40
1.0
100
AcDbArc
 50
89.99999999999998
 51
180.0
  0
ARC
  5
6940
330
A
100
AcDbEntity
  8
本体
  6
Continuous
 62
    84
100
AcDbCircle
 10
-201.9485509999998
 20
512.8655855374314
 30
0.0
 40
7.799999999999998
100
AcDbArc
 50
157.3801400000004
 51
202.6198699999998
  0
ARC
  5
6941
330
A
100
AcDbEntity
  8
本体
  6
Continuous
 62
    84
100
AcDbCircle
 10
-208.4485509999998
 20
514.7405855374314
 30
0.0
 40
1.324999999999999
100
AcDbArc
 50
58.10921000000219
 51
121.8908000000012
  0
ARC
  5
6942
330
A
100
AcDbEntity
  8
本体
  6
Continuous
 62
    84
100
AcDbCircle
 10
-208.4485509999998
 20
510.9905855374313
 30
0.0
 40
1.324999999999999
100
AcDbArc
 50
238.1092100000021
 51
301.8907920000008
  0
MTEXT
  5
6943
330
A
100
AcDbEntity
  8
本体
  6
Continuous
 62
    84
100
AcDbMText
 10
-166.8425509999998
 20
511.7655855374313
 30
0.0
 40
3.0
 41
0.0
 71
     4
 72
     1
  1
\T0.750;\W0.889;\A1;リモート
 11
-1.0
 21
0.0000000000000002
 31
0.0
 73
     1
 44
1.0
  0
CIRCLE
  5
6944
330
A
100
AcDbEntity
  8
本体
  6
Continuous
 62
    84
100
AcDbCircle
 10
-173.4885509999998
 20
518.3455855374313
 30
0.0
 40
0.6
  0
LINE
  5
6945
330
A
100
AcDbEntity
  8
本体
  6
Continuous
 62
    84
100
AcDbLine
 10
-164.9035509999998
 20
515.8645855374315
 30
0.0
 11
-176.5935509999999
 21
515.8645855374315
 31
0.0
  0
LINE
  5
6946
330
A
100
AcDbEntity
  8
本体
  6
Continuous
 62
    84
100
AcDbLine
 10
-176.5415449999998
 20
516.3653355374314
 30
0.0
 11
-164.9035509999998
 21
516.3653355374314
 31
0.0
  0
LINE
  5
6947
330
A
100
AcDbEntity
  8
本体
  6
Continuous
 62
    84
100
AcDbLine
 10
-165.4225409999999
 20
523.1649975374311
 30
0.0
 11
-176.0285509999998
 21
523.1649975374311
 31
0.0
  0
LINE
  5
6948
330
A
100
AcDbEntity
  8
本体
  6
Continuous
 62
    84
100
AcDbLine
 10
-175.9825609999998
 20
523.6651255374314
 30
0.0
 11
-165.5145409999998
 21
523.6651255374314
 31
0.0
  0
CIRCLE
  5
6949
330
A
100
AcDbEntity
  8
本体
  6
Continuous
 62
    84
100
AcDbCircle
 10
-183.2485509999997
 20
519.7655855374313
 30
0.0
 40
1.6
  0
LINE
  5
694A
330
A
100
AcDbEntity
  8
本体
  6
Continuous
 62
    84
100
AcDbLine
 10
-185.7385509999999
 20
521.2125855374314
 30
0.0
 11
-185.7385509999999
 21
518.3255855374315
 31
0.0
  0
LINE
  5
694B
330
A
100
AcDbEntity
  8
本体
  6
Continuous
 62
    84
100
AcDbLine
 10
-180.7385509999999
 20
521.2095855374315
 30
0.0
 11
-180.7385509999999
 21
518.3225855374313
 31
0.0
  0
LINE
  5
694C
330
A
100
AcDbEntity
  8
本体
  6
Continuous
 62
    84
100
AcDbLine
 10
-177.8055509999999
 20
521.6605855374313
 30
0.0
 11
-178.3725509999999
 21
518.4445855374312
 31
0.0
  0
LINE
  5
694D
330
A
100
AcDbEntity
  8
本体
  6
Continuous
 62
    84
100
AcDbLine
 10
-178.2975509999998
 20
521.7475855374315
 30
0.0
 11
-178.8645509999998
 21
518.5315855374311
 31
0.0
  0
CIRCLE
  5
694E
330
A
100
AcDbEntity
  8
本体
  6
Continuous
 62
    84
100
AcDbCircle
 10
-183.2485509999997
 20
519.7655855374313
 30
0.0
 40
1.6
  0
LINE
  5
694F
330
A
100
AcDbEntity
  8
本体
  6
Continuous
 62
    84
100
AcDbLine
 10
-181.0485509999998
 20
521.3888895374314
 30
0.0
 11
-181.0485509999998
 21
525.7655855374313
 31
0.0
  0
CIRCLE
  5
6950
330
A
100
AcDbEntity
  8
本体
  6
Continuous
 62
    84
100
AcDbCircle
 10
-174.8585509999999
 20
521.1855855374314
 30
0.0
 40
0.6
  0
CIRCLE
  5
6951
330
A
100
AcDbEntity
  8
本体
  6
Continuous
 62
    84
100
AcDbCircle
 10
-174.8585509999999
 20
521.1855855374314
 30
0.0
 40
0.6
  0
LINE
  5
6952
330
A
100
AcDbEntity
  8
本体
  6
Continuous
 62
    84
100
AcDbLine
 10
-183.2385509999999
 20
522.6535855374314
 30
0.0
 11
-185.7385509999999
 21
521.2125855374314
 31
0.0
  0
LINE
  5
6953
330
A
100
AcDbEntity
  8
本体
  6
Continuous
 62
    84
100
AcDbLine
 10
-180.7385509999999
 20
521.2095855374315
 30
0.0
 11
-183.2385509999999
 21
522.6555855374312
 31
0.0
  0
ARC
  5
6954
330
A
100
AcDbEntity
  8
本体
  6
Continuous
 62
    84
100
AcDbCircle
 10
-176.0285509999997
 20
521.3655855374314
 30
0.0
 40
1.8
100
AcDbArc
 50
89.99999999999998
 51
170.5690700000013
  0
ARC
  5
6955
330
A
100
AcDbEntity
  8
本体
  6
Continuous
 62
    84
100
AcDbCircle
 10
-176.0285509999997
 20
521.3655855374314
 30
0.0
 40
2.299999999999998
100
AcDbArc
 50
88.85423000000008
 51
170.4393800000006
  0
LINE
  5
6956
330
A
100
AcDbEntity
  8
本体
  6
Continuous
 62
    84
100
AcDbLine
 10
-181.0485509999998
 20
525.7655855374313
 30
0.0
 11
-184.8251009999999
 21
521.7390975374313
 31
0.0
  0
CIRCLE
  5
6957
330
A
100
AcDbEntity
  8
本体
  6
Continuous
 62
    84
100
AcDbCircle
 10
-176.2285509999998
 20
518.3455855374313
 30
0.0
 40
0.6
  0
CIRCLE
  5
6958
330
A
100
AcDbEntity
  8
本体
  6
Continuous
 62
    84
100
AcDbCircle
 10
-176.2285509999998
 20
518.3455855374313
 30
0.0
 40
0.6
  0
LINE
  5
6959
330
A
100
AcDbEntity
  8
本体
  6
Continuous
 62
    84
100
AcDbLine
 10
-180.7385509999999
 20
518.3225855374313
 30
0.0
 11
-183.2385509999999
 21
516.8825855374315
 31
0.0
  0
LINE
  5
695A
330
A
100
AcDbEntity
  8
本体
  6
Continuous
 62
    84
100
AcDbLine
 10
-183.2385509999999
 20
516.8795855374313
 30
0.0
 11
-185.7385509999999
 21
518.3255855374315
 31
0.0
  0
ARC
  5
695B
330
A
100
AcDbEntity
  8
本体
  6
Continuous
 62
    84
100
AcDbCircle
 10
-176.5935509999998
 20
518.1645855374314
 30
0.0
 40
1.8
100
AcDbArc
 50
171.0505400000009
 51
271.6556699999999
  0
ARC
  5
695C
330
A
100
AcDbEntity
  8
本体
  6
Continuous
 62
    84
100
AcDbCircle
 10
-176.5935509999998
 20
518.1645855374314
 30
0.0
 40
2.299999999999998
100
AcDbArc
 50
170.8202000000003
 51
270.0
  0
LINE
  5
695D
330
A
100
AcDbEntity
  8
本体
  6
Continuous
 62
    84
100
AcDbLine
 10
-181.0485509999998
 20
513.7655855374313
 30
0.0
 11
-184.8357049999998
 21
517.8033795374314
 31
0.0
  0
LINE
  5
695E
330
A
100
AcDbEntity
  8
本体
  6
Continuous
 62
    84
100
AcDbLine
 10
-181.0485509999998
 20
513.7655855374313
 30
0.0
 11
-181.0485509999998
 21
518.1440255374313
 31
0.0
  0
LINE
  5
695F
330
A
100
AcDbEntity
  8
本体
  6
Continuous
 62
    84
100
AcDbLine
 10
-163.1245509999998
 20
518.4445855374312
 30
0.0
 11
-163.6915509999998
 21
521.6605855374313
 31
0.0
  0
LINE
  5
6960
330
A
100
AcDbEntity
  8
本体
  6
Continuous
 62
    84
100
AcDbLine
 10
-162.6325509999998
 20
518.5315855374311
 30
0.0
 11
-163.1995509999998
 21
521.7475855374315
 31
0.0
  0
CIRCLE
  5
6961
330
A
100
AcDbEntity
  8
本体
  6
Continuous
 62
    84
100
AcDbCircle
 10
-166.6385509999996
 20
521.1855855374314
 30
0.0
 40
0.6
  0
CIRCLE
  5
6962
330
A
100
AcDbEntity
  8
本体
  6
Continuous
 62
    84
100
AcDbCircle
 10
-169.3785509999998
 20
521.1855855374314
 30
0.0
 40
0.6
  0
ARC
  5
6963
330
A
100
AcDbEntity
  8
本体
  6
Continuous
 62
    84
100
AcDbCircle
 10
-165.4685509999998
 20
521.3655855374314
 30
0.0
 40
1.8
100
AcDbArc
 50
9.43092999999865
 51
88.53527999999805
  0
ARC
  5
6964
330
A
100
AcDbEntity
  8
本体
  6
Continuous
 62
    84
100
AcDbCircle
 10
-165.4685509999998
 20
521.3655855374314
 30
0.0
 40
2.299999999999998
100
AcDbArc
 50
9.560610000002554
 51
91.14575999999924
  0
CIRCLE
  5
6965
330
A
100
AcDbEntity
  8
本体
  6
Continuous
 62
    84
100
AcDbCircle
 10
-172.1185509999999
 20
521.1855855374314
 30
0.0
 40
0.6
  0
CIRCLE
  5
6966
330
A
100
AcDbEntity
  8
本体
  6
Continuous
 62
    84
100
AcDbCircle
 10
-165.2685509999995
 20
518.3455855374313
 30
0.0
 40
0.6
  0
CIRCLE
  5
6967
330
A
100
AcDbEntity
  8
本体
  6
Continuous
 62
    84
100
AcDbCircle
 10
-168.0085509999996
 20
518.3455855374313
 30
0.0
 40
0.6
  0
ARC
  5
6968
330
A
100
AcDbEntity
  8
本体
  6
Continuous
 62
    84
100
AcDbCircle
 10
-164.9035509999997
 20
518.1645855374314
 30
0.0
 40
1.8
100
AcDbArc
 50
270.0
 51
8.949450000000167
  0
ARC
  5
6969
330
A
100
AcDbEntity
  8
本体
  6
Continuous
 62
    84
100
AcDbCircle
 10
-164.9035509999997
 20
518.1645855374314
 30
0.0
 40
2.299999999999998
100
AcDbArc
 50
270.0
 51
9.179789999998572
  0
CIRCLE
  5
696A
330
A
100
AcDbEntity
  8
本体
  6
Continuous
 62
    84
100
AcDbCircle
 10
-170.7485509999997
 20
518.3455855374313
 30
0.0
 40
0.6
  0
ARC
  5
696B
330
A
100
AcDbEntity
  8
本体
  6
Continuous
 62
    84
100
AcDbCircle
 10
-203.0485509999995
 20
495.5655855374315
 30
0.0
 40
2.0
100
AcDbArc
 50
180.0
 51
270.0
  0
ARC
  5
696C
330
A
100
AcDbEntity
  8
本体
  6
Continuous
 62
    84
100
AcDbCircle
 10
-206.7485509999996
 20
491.8655855374313
 30
0.0
 40
1.0
100
AcDbArc
 50
180.0
 51
270.0
  0
LINE
  5
696D
330
A
100
AcDbEntity
  8
本体
  6
Continuous
 62
    84
100
AcDbLine
 10
-206.5485509999998
 20
493.0655855374316
 30
0.0
 11
-205.5485509999998
 21
492.0655855374316
 31
0.0
  0
LINE
  5
696E
330
A
100
AcDbEntity
  8
本体
  6
Continuous
 62
    84
100
AcDbLine
 10
-162.6035510000015
 20
414.443759457634
 30
0.0
 11
-178.8935510000014
 21
414.443759457634
 31
0.0
  0
LINE
  5
696F
330
A
100
AcDbEntity
  8
本体
  6
Continuous
 62
    84
100
AcDbLine
 10
-178.8935510000014
 20
409.2657594576341
 30
0.0
 11
-178.8935510000014
 21
414.443759457634
 31
0.0
  0
LINE
  5
6970
330
A
100
AcDbEntity
  8
本体
  6
Continuous
 62
    84
100
AcDbLine
 10
-185.7485510000014
 20
409.2657594576341
 30
0.0
 11
-185.7485510000014
 21
414.2657594576341
 31
0.0
  0
LINE
  5
6971
330
A
100
AcDbEntity
  8
本体
  6
Continuous
 62
    84
100
AcDbLine
 10
-180.7485510000015
 20
409.2657594576341
 30
0.0
 11
-180.7485510000015
 21
414.2657594576341
 31
0.0
  0
LINE
  5
6972
330
A
100
AcDbEntity
  8
本体
  6
Continuous
 62
    84
100
AcDbLine
 10
-183.2485510000014
 20
409.2657594576341
 30
0.0
 11
-183.2485510000014
 21
414.2657594576341
 31
0.0
  0
LINE
  5
6973
330
A
100
AcDbEntity
  8
本体
  6
Continuous
 62
    84
100
AcDbLine
 10
-180.7485510000015
 20
414.2657594576341
 30
0.0
 11
-185.7485510000014
 21
414.2657594576341
 31
0.0
  0
LINE
  5
6974
330
A
100
AcDbEntity
  8
本体
  6
Continuous
 62
    84
100
AcDbLine
 10
-162.6035510000015
 20
409.2657594576341
 30
0.0
 11
-162.6035510000015
 21
414.443759457634
 31
0.0
  0
CIRCLE
  5
697B
330
A
100
AcDbEntity
  8
本体
  6
Continuous
 62
    84
100
AcDbCircle
 10
-280.6270233345951
 20
394.2657594576342
 30
0.0
 40
3.0
  0
CIRCLE
  5
697C
330
A
100
AcDbEntity
  8
本体
  6
Continuous
 62
    84
100
AcDbCircle
 10
-280.6270233345951
 20
394.2657594576342
 30
0.0
 40
2.7
  0
LINE
  5
697D
330
A
100
AcDbEntity
  8
本体
  6
Continuous
 62
    84
100
AcDbLine
 10
-281.5816173345952
 20
393.8414954576344
 30
0.0
 11
-281.9528493345951
 21
393.4702634576343
 31
0.0
  0
LINE
  5
697E
330
A
100
AcDbEntity
  8
本体
  6
Continuous
 62
    84
100
AcDbLine
 10
-279.3011993345952
 20
393.4702634576343
 30
0.0
 11
-279.6724293345951
 21
393.8414954576344
 31
0.0
  0
LINE
  5
697F
330
A
100
AcDbEntity
  8
本体
  6
Continuous
 62
    84
100
AcDbLine
 10
-279.3011993345952
 20
395.0612534576342
 30
0.0
 11
-279.8315293345954
 21
395.5915834576342
 31
0.0
  0
LINE
  5
6980
330
A
100
AcDbEntity
  8
本体
  6
Continuous
 62
    84
100
AcDbLine
 10
-281.4225193345953
 20
395.5915834576342
 30
0.0
 11
-281.9528493345951
 21
395.0612534576342
 31
0.0
  0
LINE
  5
6981
330
A
100
AcDbEntity
  8
本体
  6
Continuous
 62
    84
100
AcDbLine
 10
-279.8315293345954
 20
395.5915834576342
 30
0.0
 11
-280.2027593345954
 21
395.2203534576343
 31
0.0
  0
LINE
  5
6982
330
A
100
AcDbEntity
  8
本体
  6
Continuous
 62
    84
100
AcDbLine
 10
-281.0512873345953
 20
395.2203534576343
 30
0.0
 11
-281.4225193345953
 21
395.5915834576342
 31
0.0
  0
LINE
  5
6983
330
A
100
AcDbEntity
  8
本体
  6
Continuous
 62
    84
100
AcDbLine
 10
-279.3011993345952
 20
395.0612534576342
 30
0.0
 11
-279.6724293345951
 21
394.6900234576342
 31
0.0
  0
LINE
  5
6984
330
A
100
AcDbEntity
  8
本体
  6
Continuous
 62
    84
100
AcDbLine
 10
-281.5816173345952
 20
394.6900234576342
 30
0.0
 11
-281.9528493345951
 21
395.0612534576342
 31
0.0
  0
CIRCLE
  5
6985
330
A
100
AcDbEntity
  8
本体
  6
Continuous
 62
    84
100
AcDbCircle
 10
-280.6264933345951
 20
395.6451474576341
 30
0.0
 40
0.3
  0
ARC
  5
6986
330
A
100
AcDbEntity
  8
本体
  6
Continuous
 62
    84
100
AcDbCircle
 10
-282.0058813345953
 20
394.2657594576342
 30
0.0
 40
0.6
100
AcDbArc
 50
315.0
 51
44.99999999999999
  0
ARC
  5
6987
330
A
100
AcDbEntity
  8
本体
  6
Continuous
 62
    84
100
AcDbCircle
 10
-280.6270233345951
 20
395.6446174576342
 30
0.0
 40
0.6
100
AcDbArc
 50
225.0
 51
315.0
  0
ARC
  5
6988
330
A
100
AcDbEntity
  8
本体
  6
Continuous
 62
    84
100
AcDbCircle
 10
-279.2481653345951
 20
394.2657594576342
 30
0.0
 40
0.6
100
AcDbArc
 50
135.0
 51
225.0
  0
LINE
  5
6989
330
A
100
AcDbEntity
  8
本体
  6
Continuous
 62
    84
100
AcDbLine
 10
-281.4225193345953
 20
392.9399334576342
 30
0.0
 11
-281.9528493345951
 21
393.4702634576343
 31
0.0
  0
LINE
  5
698A
330
A
100
AcDbEntity
  8
本体
  6
Continuous
 62
    84
100
AcDbLine
 10
-279.3011993345952
 20
393.4702634576343
 30
0.0
 11
-279.8315293345954
 21
392.9399334576342
 31
0.0
  0
LINE
  5
698B
330
A
100
AcDbEntity
  8
本体
  6
Continuous
 62
    84
100
AcDbLine
 10
-281.0512873345953
 20
393.3111654576342
 30
0.0
 11
-281.4225193345953
 21
392.9399334576342
 31
0.0
  0
LINE
  5
698C
330
A
100
AcDbEntity
  8
本体
  6
Continuous
 62
    84
100
AcDbLine
 10
-279.8315293345954
 20
392.9399334576342
 30
0.0
 11
-280.2027593345954
 21
393.3111654576342
 31
0.0
  0
ARC
  5
698D
330
A
100
AcDbEntity
  8
本体
  6
Continuous
 62
    84
100
AcDbCircle
 10
-280.6270233345951
 20
392.8868994576342
 30
0.0
 40
0.6
100
AcDbArc
 50
44.99999999999999
 51
135.0
  0
ARC
  5
69BD
330
A
100
AcDbEntity
  8
本体
  6
Continuous
 62
    84
100
AcDbCircle
 10
-201.9435510000011
 20
394.2657594576342
 30
0.0
 40
7.799999999999998
100
AcDbArc
 50
157.3801400000004
 51
202.6198699999998
  0
ARC
  5
69BE
330
A
100
AcDbEntity
  8
本体
  6
Continuous
 62
    84
100
AcDbCircle
 10
-208.4435510000012
 20
396.1407594576342
 30
0.0
 40
1.324999999999999
100
AcDbArc
 50
58.10921000000219
 51
121.8908000000012
  0
ARC
  5
69BF
330
A
100
AcDbEntity
  8
本体
  6
Continuous
 62
    84
100
AcDbCircle
 10
-208.4435510000012
 20
392.3907594576342
 30
0.0
 40
1.324999999999999
100
AcDbArc
 50
238.1092100000021
 51
301.8907920000008
  0
LINE
  5
69C4
102
{ACAD_REACTORS
330
6C4D
102
}
330
A
100
AcDbEntity
  8
本体
  6
Continuous
 62
    84
100
AcDbLine
 10
-206.2485510000001
 20
187.763267448301
 30
0.0
 11
-206.2485510000001
 21
224.7632674483011
 31
0.0
  0
LINE
  5
69C5
102
{ACAD_REACTORS
330
6C4D
102
}
330
A
100
AcDbEntity
  8
本体
  6
Continuous
 62
    84
100
AcDbLine
 10
-207.7485509999999
 20
184.2632674483011
 30
0.0
 11
-207.7485509999999
 21
227.263267448301
 31
0.0
  0
ARC
  5
69C9
330
A
100
AcDbEntity
  8
本体
  6
Continuous
 62
    84
100
AcDbCircle
 10
-206.7485510000015
 20
270.2657594576342
 30
0.0
 40
1.0
100
AcDbArc
 50
180.0
 51
270.0
  0
ARC
  5
69CA
102
{ACAD_REACTORS
330
6C4D
102
}
330
A
100
AcDbEntity
  8
本体
  6
Continuous
 62
    84
100
AcDbCircle
 10
-204.2485510000001
 20
224.763267448301
 30
0.0
 40
2.0
100
AcDbArc
 50
89.99999999999998
 51
180.0
  0
ARC
  5
69CB
102
{ACAD_REACTORS
330
6C4D
102
}
330
A
100
AcDbEntity
  8
本体
  6
Continuous
 62
    84
100
AcDbCircle
 10
-206.748551
 20
227.263267448301
 30
0.0
 40
1.0
100
AcDbArc
 50
89.99999999999998
 51
180.0
  0
LINE
  5
69CE
102
{ACAD_REACTORS
330
6C4D
102
}
330
A
100
AcDbEntity
  8
本体
  6
Continuous
 62
    84
100
AcDbLine
 10
-203.7485509999999
 20
220.063263448301
 30
0.0
 11
-203.7485509999999
 21
219.263263448301
 31
0.0
  0
LINE
  5
69D0
102
{ACAD_REACTORS
330
6C4D
102
}
330
A
100
AcDbEntity
  8
本体
  6
Continuous
 62
    84
100
AcDbLine
 10
-203.7485509999999
 20
220.063263448301
 30
0.0
 11
-203.7485509999999
 21
219.263263448301
 31
0.0
  0
ARC
  5
69D3
102
{ACAD_REACTORS
330
6C4D
102
}
330
A
100
AcDbEntity
  8
本体
  6
Continuous
 62
    84
100
AcDbCircle
 10
-204.2485510000001
 20
187.763267448301
 30
0.0
 40
2.0
100
AcDbArc
 50
180.0
 51
270.0
  0
LINE
  5
69DA
330
A
100
AcDbEntity
  8
本体
  6
Continuous
 62
    84
100
AcDbLine
 10
263.129921334595
 20
270.2657594576343
 30
0.0
 11
263.129921334595
 21
409.2657594576341
 31
0.0
  0
LINE
  5
69DC
330
A
100
AcDbEntity
  8
本体
  6
Continuous
 62
    84
100
AcDbLine
 10
2.251448999998499
 20
270.2657594576342
 30
0.0
 11
2.251448999998499
 21
409.2657594576341
 31
0.0
  0
CIRCLE
  5
69E1
330
A
100
AcDbEntity
  8
本体
  6
Continuous
 62
    84
100
AcDbCircle
 10
-102.7485510000013
 20
403.2657594576342
 30
0.0
 40
3.0
  0
MTEXT
  5
69E2
330
A
100
AcDbEntity
  8
本体
  6
Continuous
 62
    84
100
AcDbMText
 10
-48.24855099999989
 20
529.3655855374314
 30
0.0
 40
2.0
 41
0.0
 71
     1
 72
     1
  1
\T0.895;\W1.053;\A1;MADE IN JAPAN
 11
-1.0
 21
0.0000000000000002
 31
0.0
 73
     1
 44
1.0
  0
CIRCLE
  5
69E3
330
A
100
AcDbEntity
  8
本体
  6
Continuous
 62
    84
100
AcDbCircle
 10
-108.7485509999998
 20
502.5655855374314
 30
0.0
 40
6.75
  0
CIRCLE
  5
69E4
330
A
100
AcDbEntity
  8
本体
  6
Continuous
 62
    84
100
AcDbCircle
 10
-108.7485509999998
 20
502.5655855374314
 30
0.0
 40
6.5
  0
CIRCLE
  5
69E5
330
A
100
AcDbEntity
  8
本体
  6
Continuous
 62
    84
100
AcDbCircle
 10
-108.7485509999998
 20
502.5655855374314
 30
0.0
 40
6.75
  0
CIRCLE
  5
69E6
330
A
100
AcDbEntity
  8
本体
  6
Continuous
 62
    84
100
AcDbCircle
 10
-126.7485509999995
 20
502.5655855374314
 30
0.0
 40
6.75
  0
CIRCLE
  5
69E7
330
A
100
AcDbEntity
  8
本体
  6
Continuous
 62
    84
100
AcDbCircle
 10
-126.7485509999995
 20
502.5655855374314
 30
0.0
 40
6.5
  0
CIRCLE
  5
69E8
330
A
100
AcDbEntity
  8
本体
  6
Continuous
 62
    84
100
AcDbCircle
 10
-126.7485509999995
 20
502.5655855374314
 30
0.0
 40
6.75
  0
LINE
  5
69E9
330
A
100
AcDbEntity
  8
本体
  6
Continuous
 62
    84
100
AcDbLine
 10
-119.2485509999999
 20
528.5655855374313
 30
0.0
 11
-119.2485509999999
 21
495.5655855374315
 31
0.0
  0
LINE
  5
69EA
330
A
100
AcDbEntity
  8
本体
  6
Continuous
 62
    84
100
AcDbLine
 10
-116.7485509999999
 20
508.6223075374313
 30
0.0
 11
-116.7485509999999
 21
495.5655855374315
 31
0.0
  0
LINE
  5
69EB
330
A
100
AcDbEntity
  8
本体
  6
Continuous
 62
    84
100
AcDbLine
 10
-100.2485509999999
 20
528.5655855374313
 30
0.0
 11
-100.2485509999999
 21
495.5655855374315
 31
0.0
  0
MTEXT
  5
69EC
330
A
100
AcDbEntity
  8
本体
  6
Continuous
 62
    84
100
AcDbMText
 10
-133.2985509999998
 20
495.5655855374315
 30
0.0
 40
2.0
 41
0.0
 71
     1
 72
     1
  1
\T1.043;\W1.226;\A1;1
 11
-1.0
 21
0.0000000000000002
 31
0.0
 73
     1
 44
1.0
  0
LINE
  5
69ED
330
A
100
AcDbEntity
  8
本体
  6
Continuous
 62
    84
100
AcDbLine
 10
-135.7485509999999
 20
509.3423315374315
 30
0.0
 11
-135.7485509999999
 21
495.5655855374315
 31
0.0
  0
CIRCLE
  5
69EE
330
A
100
AcDbEntity
  8
本体
  6
Continuous
 62
    84
100
AcDbCircle
 10
-108.7485509999998
 20
519.5655855374313
 30
0.0
 40
6.75
  0
CIRCLE
  5
69EF
330
A
100
AcDbEntity
  8
本体
  6
Continuous
 62
    84
100
AcDbCircle
 10
-108.7485509999998
 20
502.5655855374314
 30
0.0
 40
4.75
  0
CIRCLE
  5
69F0
330
A
100
AcDbEntity
  8
本体
  6
Continuous
 62
    84
100
AcDbCircle
 10
-108.7485509999998
 20
502.5655855374314
 30
0.0
 40
4.549999999999998
  0
CIRCLE
  5
69F1
330
A
100
AcDbEntity
  8
本体
  6
Continuous
 62
    84
100
AcDbCircle
 10
-108.7485509999998
 20
502.5655855374314
 30
0.0
 40
2.5
  0
CIRCLE
  5
69F2
330
A
100
AcDbEntity
  8
本体
  6
Continuous
 62
    84
100
AcDbCircle
 10
-108.7485509999998
 20
519.5655855374313
 30
0.0
 40
6.5
  0
CIRCLE
  5
69F3
330
A
100
AcDbEntity
  8
本体
  6
Continuous
 62
    84
100
AcDbCircle
 10
-108.7485509999998
 20
519.5655855374313
 30
0.0
 40
4.549999999999998
  0
CIRCLE
  5
69F4
330
A
100
AcDbEntity
  8
本体
  6
Continuous
 62
    84
100
AcDbCircle
 10
-108.7485509999998
 20
519.5655855374313
 30
0.0
 40
4.75
  0
CIRCLE
  5
69F5
330
A
100
AcDbEntity
  8
本体
  6
Continuous
 62
    84
100
AcDbCircle
 10
-108.7485509999998
 20
519.5655855374313
 30
0.0
 40
2.5
  0
CIRCLE
  5
69F6
330
A
100
AcDbEntity
  8
本体
  6
Continuous
 62
    84
100
AcDbCircle
 10
-108.7485509999998
 20
519.5655855374313
 30
0.0
 40
6.75
  0
LINE
  5
69F7
330
A
100
AcDbEntity
  8
本体
  6
Continuous
 62
    84
100
AcDbLine
 10
-115.7485509999996
 20
529.5655855374315
 30
0.0
 11
-101.2485509999996
 21
529.5655855374315
 31
0.0
  0
MTEXT
  5
69F8
330
A
100
AcDbEntity
  8
本体
  6
Continuous
 62
    84
100
AcDbMText
 10
-132.9985509999999
 20
526.0655855374315
 30
0.0
 40
2.0
 41
0.0
 71
     1
 72
     1
  1
\T0.851;\A1;2
 11
-1.0
 21
0.0000000000000002
 31
0.0
 73
     1
 44
1.0
  0
LINE
  5
69F9
330
A
100
AcDbEntity
  8
本体
  6
Continuous
 62
    84
100
AcDbLine
 10
-135.7485509999999
 20
528.5655855374313
 30
0.0
 11
-135.7485509999999
 21
512.7888375374315
 31
0.0
  0
LINE
  5
69FA
330
A
100
AcDbEntity
  8
本体
  6
Continuous
 62
    84
100
AcDbLine
 10
-116.7485509999999
 20
528.5655855374313
 30
0.0
 11
-116.7485509999999
 21
513.5088615374313
 31
0.0
  0
ARC
  5
69FB
330
A
100
AcDbEntity
  8
本体
  6
Continuous
 62
    84
100
AcDbCircle
 10
-134.7485509999998
 20
528.5655855374313
 30
0.0
 40
1.0
100
AcDbArc
 50
89.99999999999998
 51
180.0
  0
LINE
  5
69FC
330
A
100
AcDbEntity
  8
本体
  6
Continuous
 62
    84
100
AcDbLine
 10
-134.7485509999999
 20
529.5655855374315
 30
0.0
 11
-119.7485509999999
 21
529.5655855374315
 31
0.0
  0
ARC
  5
69FD
330
A
100
AcDbEntity
  8
本体
  6
Continuous
 62
    84
100
AcDbCircle
 10
-115.7485509999995
 20
528.5655855374313
 30
0.0
 40
1.0
100
AcDbArc
 50
89.99999999999998
 51
180.0
  0
ARC
  5
69FE
330
A
100
AcDbEntity
  8
本体
  6
Continuous
 62
    84
100
AcDbCircle
 10
-120.2485509999998
 20
528.5655855374313
 30
0.0
 40
1.0
100
AcDbArc
 50
0.0
 51
89.99999999999998
  0
LINE
  5
69FF
330
A
100
AcDbEntity
  8
本体
  6
Continuous
 62
    84
100
AcDbLine
 10
-135.7485509999999
 20
502.5655855374314
 30
0.0
 11
-139.7485509999997
 21
502.5655855374314
 31
0.0
  0
CIRCLE
  5
6A00
330
A
100
AcDbEntity
  8
本体
  6
Continuous
 62
    84
100
AcDbCircle
 10
-133.7485509999998
 20
511.0655855374313
 30
0.0
 40
2.64
  0
CIRCLE
  5
6A01
330
A
100
AcDbEntity
  8
本体
  6
Continuous
 62
    84
100
AcDbCircle
 10
-158.2485509999997
 20
519.7655855374313
 30
0.0
 40
1.6
  0
LINE
  5
6A02
330
A
100
AcDbEntity
  8
本体
  6
Continuous
 62
    84
100
AcDbLine
 10
-160.7485509999999
 20
521.2125855374314
 30
0.0
 11
-160.7485509999999
 21
518.3255855374315
 31
0.0
  0
LINE
  5
6A03
330
A
100
AcDbEntity
  8
本体
  6
Continuous
 62
    84
100
AcDbLine
 10
-155.7485509999999
 20
521.2095855374315
 30
0.0
 11
-155.7485509999999
 21
518.3225855374313
 31
0.0
  0
CIRCLE
  5
6A04
330
A
100
AcDbEntity
  8
本体
  6
Continuous
 62
    84
100
AcDbCircle
 10
-158.2485509999997
 20
519.7655855374313
 30
0.0
 40
1.6
  0
LINE
  5
6A05
330
A
100
AcDbEntity
  8
本体
  6
Continuous
 62
    84
100
AcDbLine
 10
-160.4485509999999
 20
521.3855055374314
 30
0.0
 11
-160.4485509999999
 21
525.7655855374313
 31
0.0
  0
LINE
  5
6A06
330
A
100
AcDbEntity
  8
本体
  6
Continuous
 62
    84
100
AcDbLine
 10
-158.2485509999998
 20
522.6535855374314
 30
0.0
 11
-160.7485509999999
 21
521.2125855374314
 31
0.0
  0
LINE
  5
6A07
330
A
100
AcDbEntity
  8
本体
  6
Continuous
 62
    84
100
AcDbLine
 10
-155.7485509999999
 20
521.2095855374315
 30
0.0
 11
-158.2485509999998
 21
522.6555855374312
 31
0.0
  0
LINE
  5
6A08
330
A
100
AcDbEntity
  8
本体
  6
Continuous
 62
    84
100
AcDbLine
 10
-160.4485509999999
 20
525.7655855374313
 30
0.0
 11
-156.6814549999999
 21
521.7491755374314
 31
0.0
  0
LINE
  5
6A09
330
A
100
AcDbEntity
  8
本体
  6
Continuous
 62
    84
100
AcDbLine
 10
-155.7485509999999
 20
518.3225855374313
 30
0.0
 11
-158.2485509999998
 21
516.8825855374315
 31
0.0
  0
LINE
  5
6A0A
330
A
100
AcDbEntity
  8
本体
  6
Continuous
 62
    84
100
AcDbLine
 10
-158.2485509999998
 20
516.8795855374313
 30
0.0
 11
-160.7485509999999
 21
518.3255855374315
 31
0.0
  0
LINE
  5
6A0B
330
A
100
AcDbEntity
  8
本体
  6
Continuous
 62
    84
100
AcDbLine
 10
-160.4485509999999
 20
513.7655855374313
 30
0.0
 11
-156.6748469999998
 21
517.7890375374314
 31
0.0
  0
LINE
  5
6A0C
330
A
100
AcDbEntity
  8
本体
  6
Continuous
 62
    84
100
AcDbLine
 10
-160.4485509999999
 20
513.7655855374313
 30
0.0
 11
-160.4485509999999
 21
518.1520655374314
 31
0.0
  0
MTEXT
  5
6A0D
330
A
100
AcDbEntity
  8
本体
  6
Continuous
 62
    84
100
AcDbMText
 10
-143.7485509999999
 20
504.3557775374314
 30
0.0
 40
3.5
 41
0.0
 71
     5
 72
     1
  1
\T0.750;\W0.889;\A1;出力
 11
-1.0
 21
0.0000000000000002
 31
0.0
 73
     1
 44
1.0
  0
MTEXT
  5
6A0E
330
A
100
AcDbEntity
  8
本体
  6
Continuous
 62
    84
100
AcDbMText
 10
-143.7485509999999
 20
499.9807775374314
 30
0.0
 40
3.5
 41
0.0
 71
     5
 72
     1
  1
\T0.750;\W0.889;\A1;モニタ
 11
-1.0
 21
0.0000000000000002
 31
0.0
 73
     1
 44
1.0
  0
LINE
  5
6A0F
330
A
100
AcDbEntity
  8
本体
  6
Continuous
 62
    84
100
AcDbLine
 10
-134.5445509999997
 20
512.3915855374312
 30
0.0
 11
-135.0745509999997
 21
511.8615855374313
 31
0.0
  0
LINE
  5
6A10
330
A
100
AcDbEntity
  8
本体
  6
Continuous
 62
    84
100
AcDbLine
 10
-132.9525509999998
 20
512.3915855374312
 30
0.0
 11
-132.4225509999996
 21
511.8615855374313
 31
0.0
  0
ARC
  5
6A11
330
A
100
AcDbEntity
  8
本体
  6
Continuous
 62
    84
100
AcDbCircle
 10
-133.7485509999998
 20
512.4435855374314
 30
0.0
 40
0.6
100
AcDbArc
 50
224.9323500000012
 51
315.0676450000016
  0
LINE
  5
6A12
330
A
100
AcDbEntity
  8
本体
  6
Continuous
 62
    84
100
AcDbLine
 10
-114.9525509999997
 20
512.3915855374312
 30
0.0
 11
-114.4225509999996
 21
511.8615855374313
 31
0.0
  0
ARC
  5
6A13
330
A
100
AcDbEntity
  8
本体
  6
Continuous
 62
    84
100
AcDbCircle
 10
-115.7485509999995
 20
512.4435855374314
 30
0.0
 40
0.6
100
AcDbArc
 50
224.9323500000012
 51
315.0676450000016
  0
CIRCLE
  5
6A14
330
A
100
AcDbEntity
  8
本体
  6
Continuous
 62
    84
100
AcDbCircle
 10
-115.7485509999995
 20
511.0655855374313
 30
0.0
 40
2.64
  0
LINE
  5
6A15
330
A
100
AcDbEntity
  8
本体
  6
Continuous
 62
    84
100
AcDbLine
 10
-116.5445509999996
 20
512.3915855374312
 30
0.0
 11
-117.0745509999999
 21
511.8615855374313
 31
0.0
  0
CIRCLE
  5
6A16
330
A
100
AcDbEntity
  8
本体
  6
Continuous
 62
    84
100
AcDbCircle
 10
-126.7485509999995
 20
519.5655855374313
 30
0.0
 40
6.75
  0
CIRCLE
  5
6A17
330
A
100
AcDbEntity
  8
本体
  6
Continuous
 62
    84
100
AcDbCircle
 10
-126.7485509999995
 20
519.5655855374313
 30
0.0
 40
6.5
  0
CIRCLE
  5
6A18
330
A
100
AcDbEntity
  8
本体
  6
Continuous
 62
    84
100
AcDbCircle
 10
-126.7485509999995
 20
519.5655855374313
 30
0.0
 40
4.75
  0
CIRCLE
  5
6A19
330
A
100
AcDbEntity
  8
本体
  6
Continuous
 62
    84
100
AcDbCircle
 10
-126.7485509999995
 20
519.5655855374313
 30
0.0
 40
6.75
  0
CIRCLE
  5
6A1A
330
A
100
AcDbEntity
  8
本体
  6
Continuous
 62
    84
100
AcDbCircle
 10
-126.7485509999995
 20
519.5655855374313
 30
0.0
 40
4.549999999999998
  0
LINE
  5
6A1B
330
A
100
AcDbEntity
  8
本体
  6
Continuous
 62
    84
100
AcDbLine
 10
-132.2985509999998
 20
520.5555855374313
 30
0.0
 11
-132.2985509999998
 21
518.5755855374313
 31
0.0
  0
CIRCLE
  5
6A1C
330
A
100
AcDbEntity
  8
本体
  6
Continuous
 62
    84
100
AcDbCircle
 10
-126.7485509999995
 20
519.5655855374313
 30
0.0
 40
2.5
  0
LINE
  5
6A1D
330
A
100
AcDbEntity
  8
本体
  6
Continuous
 62
    84
100
AcDbLine
 10
-132.2985509999998
 20
520.5555855374313
 30
0.0
 11
-131.3945509999997
 21
520.5555855374313
 31
0.0
  0
LINE
  5
6A1E
330
A
100
AcDbEntity
  8
本体
  6
Continuous
 62
    84
100
AcDbLine
 10
-134.5445509999997
 20
512.3915855374312
 30
0.0
 11
-134.1725509999998
 21
512.0205855374314
 31
0.0
  0
LINE
  5
6A1F
330
A
100
AcDbEntity
  8
本体
  6
Continuous
 62
    84
100
AcDbLine
 10
-132.9525509999998
 20
512.3915855374312
 30
0.0
 11
-133.3245509999999
 21
512.0205855374314
 31
0.0
  0
LINE
  5
6A20
330
A
100
AcDbEntity
  8
本体
  6
Continuous
 62
    84
100
AcDbLine
 10
-132.2985509999998
 20
518.5755855374313
 30
0.0
 11
-131.3945509999997
 21
518.5755855374313
 31
0.0
  0
LINE
  5
6A21
330
A
100
AcDbEntity
  8
本体
  6
Continuous
 62
    84
100
AcDbLine
 10
-114.2985509999997
 20
520.5555855374313
 30
0.0
 11
-114.2985509999997
 21
518.5755855374313
 31
0.0
  0
LINE
  5
6A22
330
A
100
AcDbEntity
  8
本体
  6
Continuous
 62
    84
100
AcDbLine
 10
-121.1985509999996
 20
520.5545855374313
 30
0.0
 11
-121.1985509999996
 21
518.5755855374313
 31
0.0
  0
LINE
  5
6A23
330
A
100
AcDbEntity
  8
本体
  6
Continuous
 62
    84
100
AcDbLine
 10
-114.2985509999997
 20
520.5555855374313
 30
0.0
 11
-113.3945509999996
 21
520.5555855374313
 31
0.0
  0
LINE
  5
6A24
330
A
100
AcDbEntity
  8
本体
  6
Continuous
 62
    84
100
AcDbLine
 10
-122.1025509999999
 20
520.5545855374313
 30
0.0
 11
-121.1985509999996
 21
520.5545855374313
 31
0.0
  0
LINE
  5
6A25
330
A
100
AcDbEntity
  8
本体
  6
Continuous
 62
    84
100
AcDbLine
 10
-114.2985509999997
 20
518.5755855374313
 30
0.0
 11
-113.3945509999996
 21
518.5755855374313
 31
0.0
  0
LINE
  5
6A26
330
A
100
AcDbEntity
  8
本体
  6
Continuous
 62
    84
100
AcDbLine
 10
-122.1025509999999
 20
518.5755855374313
 30
0.0
 11
-121.1985509999996
 21
518.5755855374313
 31
0.0
  0
LINE
  5
6A27
330
A
100
AcDbEntity
  8
本体
  6
Continuous
 62
    84
100
AcDbLine
 10
-116.5445509999996
 20
512.3915855374312
 30
0.0
 11
-116.1725509999997
 21
512.0205855374314
 31
0.0
  0
LINE
  5
6A28
330
A
100
AcDbEntity
  8
本体
  6
Continuous
 62
    84
100
AcDbLine
 10
-114.9525509999997
 20
512.3915855374312
 30
0.0
 11
-115.3245509999997
 21
512.0205855374314
 31
0.0
  0
CIRCLE
  5
6A29
330
A
100
AcDbEntity
  8
本体
  6
Continuous
 62
    84
100
AcDbCircle
 10
-126.7485509999995
 20
502.5655855374314
 30
0.0
 40
4.549999999999998
  0
CIRCLE
  5
6A2A
330
A
100
AcDbEntity
  8
本体
  6
Continuous
 62
    84
100
AcDbCircle
 10
-126.7485509999995
 20
502.5655855374314
 30
0.0
 40
4.75
  0
CIRCLE
  5
6A2B
330
A
100
AcDbEntity
  8
本体
  6
Continuous
 62
    84
100
AcDbCircle
 10
-126.7485509999995
 20
502.5655855374314
 30
0.0
 40
2.5
  0
LINE
  5
6A2C
330
A
100
AcDbEntity
  8
本体
  6
Continuous
 62
    84
100
AcDbLine
 10
-132.4225509999996
 20
510.2695855374314
 30
0.0
 11
-132.9525509999998
 21
509.7395855374315
 31
0.0
  0
LINE
  5
6A2D
330
A
100
AcDbEntity
  8
本体
  6
Continuous
 62
    84
100
AcDbLine
 10
-135.0745509999997
 20
510.2695855374314
 30
0.0
 11
-134.5445509999997
 21
509.7395855374315
 31
0.0
  0
LINE
  5
6A2E
330
A
100
AcDbEntity
  8
本体
  6
Continuous
 62
    84
100
AcDbLine
 10
-132.7935509999996
 20
510.6415855374311
 30
0.0
 11
-132.4225509999996
 21
510.2695855374314
 31
0.0
  0
LINE
  5
6A2F
330
A
100
AcDbEntity
  8
本体
  6
Continuous
 62
    84
100
AcDbLine
 10
-132.4225509999996
 20
511.8615855374313
 30
0.0
 11
-132.7935509999996
 21
511.4895855374315
 31
0.0
  0
LINE
  5
6A30
330
A
100
AcDbEntity
  8
本体
  6
Continuous
 62
    84
100
AcDbLine
 10
-134.1725509999998
 20
510.1105855374313
 30
0.0
 11
-134.5445509999997
 21
509.7395855374315
 31
0.0
  0
LINE
  5
6A31
330
A
100
AcDbEntity
  8
本体
  6
Continuous
 62
    84
100
AcDbLine
 10
-133.3245509999999
 20
510.1105855374313
 30
0.0
 11
-132.9525509999998
 21
509.7395855374315
 31
0.0
  0
LINE
  5
6A32
330
A
100
AcDbEntity
  8
本体
  6
Continuous
 62
    84
100
AcDbLine
 10
-135.0745509999997
 20
511.8615855374313
 30
0.0
 11
-134.7035509999996
 21
511.4895855374315
 31
0.0
  0
LINE
  5
6A33
330
A
100
AcDbEntity
  8
本体
  6
Continuous
 62
    84
100
AcDbLine
 10
-134.7035509999996
 20
510.6415855374311
 30
0.0
 11
-135.0745509999997
 21
510.2695855374314
 31
0.0
  0
CIRCLE
  5
6A34
330
A
100
AcDbEntity
  8
本体
  6
Continuous
 62
    84
100
AcDbCircle
 10
-132.3695509999998
 20
511.0645855374313
 30
0.0
 40
0.3
  0
ARC
  5
6A35
330
A
100
AcDbEntity
  8
本体
  6
Continuous
 62
    84
100
AcDbCircle
 10
-132.3705509999997
 20
511.0655855374313
 30
0.0
 40
0.6
100
AcDbArc
 50
134.9323499999989
 51
225.0676399999998
  0
ARC
  5
6A36
330
A
100
AcDbEntity
  8
本体
  6
Continuous
 62
    84
100
AcDbCircle
 10
-133.7485509999998
 20
509.6875855374313
 30
0.0
 40
0.6
100
AcDbArc
 50
44.93235000000124
 51
135.0676399999975
  0
ARC
  5
6A37
330
A
100
AcDbEntity
  8
本体
  6
Continuous
 62
    84
100
AcDbCircle
 10
-135.1265509999997
 20
511.0655855374313
 30
0.0
 40
0.6
100
AcDbArc
 50
314.9323540000008
 51
45.06763999999987
  0
LINE
  5
6A38
330
A
100
AcDbEntity
  8
本体
  6
Continuous
 62
    84
100
AcDbLine
 10
-132.2985509999998
 20
503.5555855374314
 30
0.0
 11
-131.3945509999997
 21
503.5555855374314
 31
0.0
  0
LINE
  5
6A39
330
A
100
AcDbEntity
  8
本体
  6
Continuous
 62
    84
100
AcDbLine
 10
-132.2985509999998
 20
501.5755855374314
 30
0.0
 11
-131.3945509999997
 21
501.5755855374314
 31
0.0
  0
LINE
  5
6A3A
330
A
100
AcDbEntity
  8
本体
  6
Continuous
 62
    84
100
AcDbLine
 10
-132.2985509999998
 20
503.5555855374314
 30
0.0
 11
-132.2985509999998
 21
501.5765855374314
 31
0.0
  0
LINE
  5
6A3B
330
A
100
AcDbEntity
  8
本体
  6
Continuous
 62
    84
100
AcDbLine
 10
-114.4225509999996
 20
510.2695855374314
 30
0.0
 11
-114.9525509999997
 21
509.7395855374315
 31
0.0
  0
LINE
  5
6A3C
330
A
100
AcDbEntity
  8
本体
  6
Continuous
 62
    84
100
AcDbLine
 10
-114.7935509999997
 20
510.6415855374311
 30
0.0
 11
-114.4225509999996
 21
510.2695855374314
 31
0.0
  0
LINE
  5
6A3D
330
A
100
AcDbEntity
  8
本体
  6
Continuous
 62
    84
100
AcDbLine
 10
-114.4225509999996
 20
511.8615855374313
 30
0.0
 11
-114.7935509999997
 21
511.4895855374315
 31
0.0
  0
LINE
  5
6A3E
330
A
100
AcDbEntity
  8
本体
  6
Continuous
 62
    84
100
AcDbLine
 10
-116.1725509999997
 20
510.1105855374313
 30
0.0
 11
-116.5445509999996
 21
509.7395855374315
 31
0.0
  0
LINE
  5
6A3F
330
A
100
AcDbEntity
  8
本体
  6
Continuous
 62
    84
100
AcDbLine
 10
-115.3245509999997
 20
510.1105855374313
 30
0.0
 11
-114.9525509999997
 21
509.7395855374315
 31
0.0
  0
CIRCLE
  5
6A40
330
A
100
AcDbEntity
  8
本体
  6
Continuous
 62
    84
100
AcDbCircle
 10
-114.3695509999996
 20
511.0645855374313
 30
0.0
 40
0.3
  0
ARC
  5
6A41
330
A
100
AcDbEntity
  8
本体
  6
Continuous
 62
    84
100
AcDbCircle
 10
-115.7485509999995
 20
509.6875855374313
 30
0.0
 40
0.6
100
AcDbArc
 50
44.93235000000124
 51
135.0676399999975
  0
ARC
  5
6A42
330
A
100
AcDbEntity
  8
本体
  6
Continuous
 62
    84
100
AcDbCircle
 10
-114.3705509999996
 20
511.0655855374313
 30
0.0
 40
0.6
100
AcDbArc
 50
134.9323499999989
 51
225.0676399999998
  0
ARC
  5
6A43
330
A
100
AcDbEntity
  8
本体
  6
Continuous
 62
    84
100
AcDbCircle
 10
-117.1265509999996
 20
511.0655855374313
 30
0.0
 40
0.6
100
AcDbArc
 50
314.9323540000008
 51
45.06763999999987
  0
LINE
  5
6A44
330
A
100
AcDbEntity
  8
本体
  6
Continuous
 62
    84
100
AcDbLine
 10
-116.7035509999996
 20
510.6415855374311
 30
0.0
 11
-117.0745509999999
 21
510.2695855374314
 31
0.0
  0
LINE
  5
6A45
330
A
100
AcDbEntity
  8
本体
  6
Continuous
 62
    84
100
AcDbLine
 10
-117.0745509999999
 20
511.8615855374313
 30
0.0
 11
-116.7035509999996
 21
511.4895855374315
 31
0.0
  0
LINE
  5
6A46
330
A
100
AcDbEntity
  8
本体
  6
Continuous
 62
    84
100
AcDbLine
 10
-117.0745509999999
 20
510.2695855374314
 30
0.0
 11
-116.5445509999996
 21
509.7395855374315
 31
0.0
  0
LINE
  5
6A47
330
A
100
AcDbEntity
  8
本体
  6
Continuous
 62
    84
100
AcDbLine
 10
-114.2985509999997
 20
503.5555855374314
 30
0.0
 11
-113.3945509999996
 21
503.5555855374314
 31
0.0
  0
LINE
  5
6A48
330
A
100
AcDbEntity
  8
本体
  6
Continuous
 62
    84
100
AcDbLine
 10
-114.2985509999997
 20
501.5755855374314
 30
0.0
 11
-113.3945509999996
 21
501.5755855374314
 31
0.0
  0
LINE
  5
6A49
330
A
100
AcDbEntity
  8
本体
  6
Continuous
 62
    84
100
AcDbLine
 10
-114.2985509999997
 20
503.5555855374314
 30
0.0
 11
-114.2985509999997
 21
501.5755855374314
 31
0.0
  0
LINE
  5
6A4A
330
A
100
AcDbEntity
  8
本体
  6
Continuous
 62
    84
100
AcDbLine
 10
-122.1025509999999
 20
503.5545855374313
 30
0.0
 11
-121.1985509999996
 21
503.5545855374313
 31
0.0
  0
LINE
  5
6A4B
330
A
100
AcDbEntity
  8
本体
  6
Continuous
 62
    84
100
AcDbLine
 10
-121.1985509999996
 20
503.5545855374313
 30
0.0
 11
-121.1985509999996
 21
501.5755855374314
 31
0.0
  0
LINE
  5
6A4C
330
A
100
AcDbEntity
  8
本体
  6
Continuous
 62
    84
100
AcDbLine
 10
-122.1025509999999
 20
501.5755855374314
 30
0.0
 11
-121.1985509999996
 21
501.5755855374314
 31
0.0
  0
ARC
  5
6A4D
330
A
100
AcDbEntity
  8
本体
  6
Continuous
 62
    84
100
AcDbCircle
 10
-101.2485509999995
 20
528.5655855374313
 30
0.0
 40
1.0
100
AcDbArc
 50
0.0
 51
89.99999999999998
  0
MTEXT
  5
6A4E
330
A
100
AcDbEntity
  8
本体
  6
Continuous
 62
    84
100
AcDbMText
 10
-90.74855099999991
 20
502.5655855374314
 30
0.0
 40
3.5
 41
0.0
 71
     5
 72
     1
  1
\T0.815;\W0.954;\A1;映像入力
 11
-1.0
 21
0.0000000000000002
 31
0.0
 73
     1
 44
1.0
  0
MTEXT
  5
6A4F
330
A
100
AcDbEntity
  8
本体
  6
Continuous
 62
    84
100
AcDbMText
 10
-90.74855099999991
 20
519.5655855374313
 30
0.0
 40
3.5
 41
0.0
 71
     5
 72
     1
  1
\T0.815;\W0.954;\A1;映像出力
 11
-1.0
 21
0.0000000000000002
 31
0.0
 73
     1
 44
1.0
  0
LINE
  5
6A50
330
A
100
AcDbEntity
  8
本体
  6
Continuous
 62
    84
100
AcDbLine
 10
-100.2485509999999
 20
519.5655855374313
 30
0.0
 11
-97.24855099999992
 21
519.5655855374313
 31
0.0
  0
LINE
  5
6A51
330
A
100
AcDbEntity
  8
本体
  6
Continuous
 62
    84
100
AcDbLine
 10
-103.1985509999997
 20
520.5545855374313
 30
0.0
 11
-103.1985509999997
 21
518.5755855374313
 31
0.0
  0
LINE
  5
6A52
330
A
100
AcDbEntity
  8
本体
  6
Continuous
 62
    84
100
AcDbLine
 10
-104.1025509999997
 20
520.5545855374313
 30
0.0
 11
-103.1985509999997
 21
520.5545855374313
 31
0.0
  0
LINE
  5
6A53
330
A
100
AcDbEntity
  8
本体
  6
Continuous
 62
    84
100
AcDbLine
 10
-104.1025509999997
 20
518.5755855374313
 30
0.0
 11
-103.1985509999997
 21
518.5755855374313
 31
0.0
  0
LINE
  5
6A54
330
A
100
AcDbEntity
  8
本体
  6
Continuous
 62
    84
100
AcDbLine
 10
-100.2485509999999
 20
502.5655855374314
 30
0.0
 11
-97.24855099999992
 21
502.5655855374314
 31
0.0
  0
LINE
  5
6A55
330
A
100
AcDbEntity
  8
本体
  6
Continuous
 62
    84
100
AcDbLine
 10
-104.1025509999997
 20
501.5755855374314
 30
0.0
 11
-103.1985509999997
 21
501.5755855374314
 31
0.0
  0
LINE
  5
6A56
330
A
100
AcDbEntity
  8
本体
  6
Continuous
 62
    84
100
AcDbLine
 10
-103.1985509999997
 20
503.5545855374313
 30
0.0
 11
-103.1985509999997
 21
501.5755855374314
 31
0.0
  0
LINE
  5
6A57
330
A
100
AcDbEntity
  8
本体
  6
Continuous
 62
    84
100
AcDbLine
 10
-104.1025509999997
 20
503.5545855374313
 30
0.0
 11
-103.1985509999997
 21
503.5545855374313
 31
0.0
  0
LINE
  5
6A58
330
A
100
AcDbEntity
  8
本体
  6
Continuous
 62
    84
100
AcDbLine
 10
-102.2485510000014
 20
409.7657594576341
 30
0.0
 11
-115.2485510000015
 21
409.7657594576341
 31
0.0
  0
LINE
  5
6A59
330
A
100
AcDbEntity
  8
本体
  6
Continuous
 62
    84
100
AcDbLine
 10
-103.9985510000015
 20
420.7657594576342
 30
0.0
 11
-113.4985510000015
 21
420.7657594576342
 31
0.0
  0
LINE
  5
6A5A
330
A
100
AcDbEntity
  8
本体
  6
Continuous
 62
    84
100
AcDbLine
 10
-115.7485509999996
 20
494.5655855374313
 30
0.0
 11
-101.2485509999996
 21
494.5655855374313
 31
0.0
  0
ARC
  5
6A5B
330
A
100
AcDbEntity
  8
本体
  6
Continuous
 62
    84
100
AcDbCircle
 10
-134.7485509999998
 20
495.5655855374315
 30
0.0
 40
1.0
100
AcDbArc
 50
180.0
 51
270.0
  0
LINE
  5
6A5C
330
A
100
AcDbEntity
  8
本体
  6
Continuous
 62
    84
100
AcDbLine
 10
-134.7485509999999
 20
494.5655855374313
 30
0.0
 11
-119.7485509999999
 21
494.5655855374313
 31
0.0
  0
ARC
  5
6A5D
330
A
100
AcDbEntity
  8
本体
  6
Continuous
 62
    84
100
AcDbCircle
 10
-120.2485509999998
 20
495.5655855374315
 30
0.0
 40
1.0
100
AcDbArc
 50
270.0
 51
0.0
  0
ARC
  5
6A5E
330
A
100
AcDbEntity
  8
本体
  6
Continuous
 62
    84
100
AcDbCircle
 10
-115.7485509999995
 20
495.5655855374315
 30
0.0
 40
1.0
100
AcDbArc
 50
180.0
 51
270.0
  0
LINE
  5
6A5F
330
A
100
AcDbEntity
  8
本体
  6
Continuous
 62
    84
100
AcDbLine
 10
-155.7485510000015
 20
409.2657594576341
 30
0.0
 11
-155.7485510000015
 21
414.2657594576341
 31
0.0
  0
LINE
  5
6A60
330
A
100
AcDbEntity
  8
本体
  6
Continuous
 62
    84
100
AcDbLine
 10
-160.7485510000014
 20
409.2657594576341
 30
0.0
 11
-160.7485510000014
 21
414.2657594576341
 31
0.0
  0
LINE
  5
6A61
330
A
100
AcDbEntity
  8
本体
  6
Continuous
 62
    84
100
AcDbLine
 10
-158.2485510000014
 20
409.2657594576341
 30
0.0
 11
-158.2485510000014
 21
414.2657594576341
 31
0.0
  0
LINE
  5
6A62
330
A
100
AcDbEntity
  8
本体
  6
Continuous
 62
    84
100
AcDbLine
 10
-160.7485510000014
 20
414.2657594576341
 30
0.0
 11
-155.7485510000015
 21
414.2657594576341
 31
0.0
  0
LINE
  5
6A63
330
A
100
AcDbEntity
  8
本体
  6
Continuous
 62
    84
100
AcDbLine
 10
-114.2985510000014
 20
417.5257594576342
 30
0.0
 11
-114.2985510000014
 21
415.5257594576341
 31
0.0
  0
LINE
  5
6A64
330
A
100
AcDbEntity
  8
本体
  6
Continuous
 62
    84
100
AcDbLine
 10
-113.4985510000015
 20
420.7657594576342
 30
0.0
 11
-113.4985510000015
 21
409.7657594576341
 31
0.0
  0
LINE
  5
6A65
330
A
100
AcDbEntity
  8
本体
  6
Continuous
 62
    84
100
AcDbLine
 10
-121.9985510000014
 20
420.7657594576342
 30
0.0
 11
-121.9985510000014
 21
409.7657594576341
 31
0.0
  0
LINE
  5
6A66
330
A
100
AcDbEntity
  8
本体
  6
Continuous
 62
    84
100
AcDbLine
 10
-131.4985510000014
 20
420.7657594576342
 30
0.0
 11
-131.4985510000014
 21
409.7657594576341
 31
0.0
  0
LINE
  5
6A67
330
A
100
AcDbEntity
  8
本体
  6
Continuous
 62
    84
100
AcDbLine
 10
-121.1985510000014
 20
417.5257594576342
 30
0.0
 11
-121.1985510000014
 21
415.5257594576341
 31
0.0
  0
LINE
  5
6A68
330
A
100
AcDbEntity
  8
本体
  6
Continuous
 62
    84
100
AcDbLine
 10
-132.2985510000014
 20
417.5257594576342
 30
0.0
 11
-132.2985510000014
 21
415.5257594576341
 31
0.0
  0
LINE
  5
6A69
330
A
100
AcDbEntity
  8
本体
  6
Continuous
 62
    84
100
AcDbLine
 10
-121.9985510000014
 20
420.7657594576342
 30
0.0
 11
-131.4985510000014
 21
420.7657594576342
 31
0.0
  0
LINE
  5
6A6A
330
A
100
AcDbEntity
  8
本体
  6
Continuous
 62
    84
100
AcDbLine
 10
-131.4985510000014
 20
417.5257594576342
 30
0.0
 11
-132.2985510000014
 21
417.5257594576342
 31
0.0
  0
LINE
  5
6A6B
330
A
100
AcDbEntity
  8
本体
  6
Continuous
 62
    84
100
AcDbLine
 10
-113.4985510000015
 20
417.5257594576342
 30
0.0
 11
-114.2985510000014
 21
417.5257594576342
 31
0.0
  0
LINE
  5
6A6C
330
A
100
AcDbEntity
  8
本体
  6
Continuous
 62
    84
100
AcDbLine
 10
-121.1985510000014
 20
417.5257594576342
 30
0.0
 11
-121.9985510000014
 21
417.5257594576342
 31
0.0
  0
LINE
  5
6A6D
330
A
100
AcDbEntity
  8
本体
  6
Continuous
 62
    84
100
AcDbLine
 10
-120.2485510000014
 20
409.7657594576341
 30
0.0
 11
-133.2485510000015
 21
409.7657594576341
 31
0.0
  0
LINE
  5
6A6E
330
A
100
AcDbEntity
  8
本体
  6
Continuous
 62
    84
100
AcDbLine
 10
-133.2485510000015
 20
409.7657594576341
 30
0.0
 11
-133.2485510000015
 21
409.2657594576341
 31
0.0
  0
LINE
  5
6A6F
330
A
100
AcDbEntity
  8
本体
  6
Continuous
 62
    84
100
AcDbLine
 10
-131.4985510000014
 20
415.5257594576341
 30
0.0
 11
-132.2985510000014
 21
415.5257594576341
 31
0.0
  0
LINE
  5
6A70
330
A
100
AcDbEntity
  8
本体
  6
Continuous
 62
    84
100
AcDbLine
 10
-115.2485510000015
 20
409.7657594576341
 30
0.0
 11
-115.2485510000015
 21
409.2657594576341
 31
0.0
  0
LINE
  5
6A71
330
A
100
AcDbEntity
  8
本体
  6
Continuous
 62
    84
100
AcDbLine
 10
-120.2485510000014
 20
409.7657594576341
 30
0.0
 11
-120.2485510000014
 21
409.2657594576341
 31
0.0
  0
LINE
  5
6A72
330
A
100
AcDbEntity
  8
本体
  6
Continuous
 62
    84
100
AcDbLine
 10
-113.4985510000015
 20
415.5257594576341
 30
0.0
 11
-114.2985510000014
 21
415.5257594576341
 31
0.0
  0
LINE
  5
6A73
330
A
100
AcDbEntity
  8
本体
  6
Continuous
 62
    84
100
AcDbLine
 10
-121.1985510000014
 20
415.5257594576341
 30
0.0
 11
-121.9985510000014
 21
415.5257594576341
 31
0.0
  0
ARC
  5
6A74
330
A
100
AcDbEntity
  8
本体
  6
Continuous
 62
    84
100
AcDbCircle
 10
-101.2485509999995
 20
495.5655855374315
 30
0.0
 40
1.0
100
AcDbArc
 50
270.0
 51
0.0
  0
LINE
  5
6A75
330
A
100
AcDbEntity
  8
本体
  6
Continuous
 62
    84
100
AcDbLine
 10
-103.1985510000014
 20
417.5257594576342
 30
0.0
 11
-103.1985510000014
 21
415.5257594576341
 31
0.0
  0
LINE
  5
6A76
330
A
100
AcDbEntity
  8
本体
  6
Continuous
 62
    84
100
AcDbLine
 10
-103.9985510000015
 20
420.7657594576342
 30
0.0
 11
-103.9985510000015
 21
409.7657594576341
 31
0.0
  0
LINE
  5
6A77
330
A
100
AcDbEntity
  8
本体
  6
Continuous
 62
    84
100
AcDbLine
 10
-103.1985510000014
 20
417.5257594576342
 30
0.0
 11
-103.9985510000015
 21
417.5257594576342
 31
0.0
  0
LINE
  5
6A78
330
A
100
AcDbEntity
  8
本体
  6
Continuous
 62
    84
100
AcDbLine
 10
-102.2485510000014
 20
409.7657594576341
 30
0.0
 11
-102.2485510000014
 21
409.2657594576341
 31
0.0
  0
LINE
  5
6A79
330
A
100
AcDbEntity
  8
本体
  6
Continuous
 62
    84
100
AcDbLine
 10
-103.1985510000014
 20
415.5257594576341
 30
0.0
 11
-103.9985510000015
 21
415.5257594576341
 31
0.0
  0
ARC
  5
6A7A
330
A
100
AcDbEntity
  8
本体
  6
Continuous
 62
    84
100
AcDbCircle
 10
-102.7485510000013
 20
401.8868994576341
 30
0.0
 40
0.6
100
AcDbArc
 50
44.99999999999999
 51
135.0
  0
ARC
  5
6A7B
330
A
100
AcDbEntity
  8
本体
  6
Continuous
 62
    84
100
AcDbCircle
 10
-104.1274090000014
 20
403.2657594576342
 30
0.0
 40
0.6
100
AcDbArc
 50
315.0
 51
44.99999999999999
  0
ARC
  5
6A7C
330
A
100
AcDbEntity
  8
本体
  6
Continuous
 62
    84
100
AcDbCircle
 10
-102.7485510000013
 20
404.6446174576342
 30
0.0
 40
0.6
100
AcDbArc
 50
225.0
 51
315.0
  0
ARC
  5
6A7D
330
A
100
AcDbEntity
  8
本体
  6
Continuous
 62
    84
100
AcDbCircle
 10
-101.3696930000012
 20
403.2657594576342
 30
0.0
 40
0.6
100
AcDbArc
 50
135.0
 51
225.0
  0
CIRCLE
  5
6A7E
330
A
100
AcDbEntity
  8
本体
  6
Continuous
 62
    84
100
AcDbCircle
 10
-102.7490810000014
 20
404.645147457634
 30
0.0
 40
0.3
  0
LINE
  5
6A7F
330
A
100
AcDbEntity
  8
本体
  6
Continuous
 62
    84
100
AcDbLine
 10
-103.5440470000014
 20
401.9399334576341
 30
0.0
 11
-103.1728150000014
 21
402.3111654576339
 31
0.0
  0
LINE
  5
6A80
330
A
100
AcDbEntity
  8
本体
  6
Continuous
 62
    84
100
AcDbLine
 10
-101.7939570000014
 20
403.6900234576341
 30
0.0
 11
-101.4227270000014
 21
404.0612534576339
 31
0.0
  0
LINE
  5
6A81
330
A
100
AcDbEntity
  8
本体
  6
Continuous
 62
    84
100
AcDbLine
 10
-102.3242870000015
 20
402.3111654576339
 30
0.0
 11
-101.9530570000015
 21
401.9399334576341
 31
0.0
  0
LINE
  5
6A82
330
A
100
AcDbEntity
  8
本体
  6
Continuous
 62
    84
100
AcDbLine
 10
-104.0743770000015
 20
404.0612534576339
 30
0.0
 11
-103.7031450000015
 21
403.6900234576341
 31
0.0
  0
LINE
  5
6A83
330
A
100
AcDbEntity
  8
本体
  6
Continuous
 62
    84
100
AcDbLine
 10
-104.0743770000015
 20
402.4702634576342
 30
0.0
 11
-103.7031450000015
 21
402.8414954576342
 31
0.0
  0
LINE
  5
6A84
330
A
100
AcDbEntity
  8
本体
  6
Continuous
 62
    84
100
AcDbLine
 10
-102.3242870000015
 20
404.2203534576342
 30
0.0
 11
-101.9530570000015
 21
404.5915834576342
 31
0.0
  0
LINE
  5
6A85
330
A
100
AcDbEntity
  8
本体
  6
Continuous
 62
    84
100
AcDbLine
 10
-101.7939570000014
 20
402.8414954576342
 30
0.0
 11
-101.4227270000014
 21
402.4702634576342
 31
0.0
  0
LINE
  5
6A86
330
A
100
AcDbEntity
  8
本体
  6
Continuous
 62
    84
100
AcDbLine
 10
-103.5440470000014
 20
404.5915834576342
 30
0.0
 11
-103.1728150000014
 21
404.2203534576342
 31
0.0
  0
LINE
  5
6A87
330
A
100
AcDbEntity
  8
本体
  6
Continuous
 62
    84
100
AcDbLine
 10
-101.9530570000015
 20
404.5915834576342
 30
0.0
 11
-101.4227270000014
 21
404.0612534576339
 31
0.0
  0
LINE
  5
6A88
330
A
100
AcDbEntity
  8
本体
  6
Continuous
 62
    84
100
AcDbLine
 10
-104.0743770000015
 20
402.4702634576342
 30
0.0
 11
-103.5440470000014
 21
401.9399334576341
 31
0.0
  0
LINE
  5
6A89
330
A
100
AcDbEntity
  8
本体
  6
Continuous
 62
    84
100
AcDbLine
 10
-104.0743770000015
 20
404.0612534576339
 30
0.0
 11
-103.5440470000014
 21
404.5915834576342
 31
0.0
  0
LINE
  5
6A8A
330
A
100
AcDbEntity
  8
本体
  6
Continuous
 62
    84
100
AcDbLine
 10
-101.9530570000015
 20
401.9399334576341
 30
0.0
 11
-101.4227270000014
 21
402.4702634576342
 31
0.0
  0
LINE
  5
6A8B
330
A
100
AcDbEntity
  8
本体
  6
Continuous
 62
    84
100
AcDbLine
 10
-0.4485509999998385
 20
495.5655855374315
 30
0.0
 11
-0.4485509999998385
 21
530.1655855374312
 31
0.0
  0
LINE
  5
6A8C
330
A
100
AcDbEntity
  8
本体
  6
Continuous
 62
    84
100
AcDbLine
 10
2.251449000000093
 20
491.8655855374313
 30
0.0
 11
2.251449000000093
 21
534.8655855374314
 31
0.0
  0
LINE
  5
6A8D
330
A
100
AcDbEntity
  8
本体
  6
Continuous
 62
    84
100
AcDbLine
 10
1.051449000000159
 20
492.0655855374315
 30
0.0
 11
1.051449000000159
 21
534.8655855374314
 31
0.0
  0
LINE
  5
6A8E
330
A
100
AcDbEntity
  8
本体
  6
Continuous
 62
    84
100
AcDbLine
 10
1.051449000000159
 20
493.0655855374315
 30
0.0
 11
1.051449000000159
 21
532.6655855374314
 31
0.0
  0
MTEXT
  5
6A8F
330
A
100
AcDbEntity
  8
本体
  6
Continuous
 62
    84
100
AcDbMText
 10
-17.01722299999983
 20
507.4905855374313
 30
0.0
 40
2.25
 41
0.0
 71
     8
 72
     1
  1
\T0.750;\W1.241;\A1;AC100-120V\P～50/60Hz
 11
-1.0
 21
0.0000000000000002
 31
0.0
 73
     1
 44
1.0
  0
CIRCLE
  5
6A9D
330
A
100
AcDbEntity
  8
本体
  6
Continuous
 62
    84
100
AcDbCircle
 10
-40.74855099999979
 20
514.665585537431
 30
0.0
 40
3.6
  0
CIRCLE
  5
6A9E
330
A
100
AcDbEntity
  8
本体
  6
Continuous
 62
    84
100
AcDbCircle
 10
-40.74855099999979
 20
514.665585537431
 30
0.0
 40
4.0
  0
CIRCLE
  5
6A9F
330
A
100
AcDbEntity
  8
本体
  6
Continuous
 62
    84
100
AcDbCircle
 10
-40.74855099999979
 20
514.665585537431
 30
0.0
 40
4.5
  0
LINE
  5
6AA0
330
A
100
AcDbEntity
  8
本体
  6
Continuous
 62
    84
100
AcDbLine
 10
-40.74855099999989
 20
523.6655855374314
 30
0.0
 11
-40.74855099999989
 21
519.1655855374314
 31
0.0
  0
LINE
  5
6AA1
330
A
100
AcDbEntity
  8
本体
  6
Continuous
 62
    84
100
AcDbLine
 10
-42.74855099999991
 20
523.6655855374314
 30
0.0
 11
-38.7485509999999
 21
523.6655855374314
 31
0.0
  0
LINE
  5
6AA2
330
A
100
AcDbEntity
  8
本体
  6
Continuous
 62
    84
100
AcDbLine
 10
-38.07855099999983
 20
526.1655855374312
 30
0.0
 11
-38.7485509999999
 21
523.6655855374314
 31
0.0
  0
LINE
  5
6AA3
330
A
100
AcDbEntity
  8
本体
  6
Continuous
 62
    84
100
AcDbLine
 10
-40.07855099999981
 20
526.1655855374312
 30
0.0
 11
-40.74855099999989
 21
523.6655855374314
 31
0.0
  0
LINE
  5
6AA4
330
A
100
AcDbEntity
  8
本体
  6
Continuous
 62
    84
100
AcDbLine
 10
-42.07855099999981
 20
526.1655855374312
 30
0.0
 11
-42.74855099999991
 21
523.6655855374314
 31
0.0
  0
LINE
  5
6AA5
330
A
100
AcDbEntity
  8
本体
  6
Continuous
 62
    84
100
AcDbLine
 10
-38.98055099999988
 20
513.6055855374315
 30
0.0
 11
-39.68855099999984
 21
512.8975855374314
 31
0.0
  0
LINE
  5
6AA6
330
A
100
AcDbEntity
  8
本体
  6
Continuous
 62
    84
100
AcDbLine
 10
-39.68855099999984
 20
512.8975855374314
 30
0.0
 11
-40.18255099999985
 21
513.3935855374313
 31
0.0
  0
CIRCLE
  5
6AA7
330
A
100
AcDbEntity
  8
本体
  6
Continuous
 62
    84
100
AcDbCircle
 10
-38.91055099999983
 20
514.6675855374311
 30
0.0
 40
0.4
  0
ARC
  5
6AA8
330
A
100
AcDbEntity
  8
本体
  6
Continuous
 62
    84
100
AcDbCircle
 10
-38.91055099999983
 20
514.665585537431
 30
0.0
 40
0.8
100
AcDbArc
 50
135.0
 51
225.0
  0
LINE
  5
6AA9
330
A
100
AcDbEntity
  8
本体
  6
Continuous
 62
    84
100
AcDbLine
 10
-38.98055099999988
 20
513.6055855374315
 30
0.0
 11
-39.47655099999986
 21
514.0995855374313
 31
0.0
  0
ARC
  5
6AAA
330
A
100
AcDbEntity
  8
本体
  6
Continuous
 62
    84
100
AcDbCircle
 10
-40.74855099999979
 20
512.8275855374313
 30
0.0
 40
0.8
100
AcDbArc
 50
44.99999999999999
 51
135.0
  0
ARC
  5
6AAB
330
A
100
AcDbEntity
  8
本体
  6
Continuous
 62
    84
100
AcDbCircle
 10
-42.58655099999976
 20
514.665585537431
 30
0.0
 40
0.8
100
AcDbArc
 50
314.8985899999985
 51
45.10140000000077
  0
LINE
  5
6AAC
330
A
100
AcDbEntity
  8
本体
  6
Continuous
 62
    84
100
AcDbLine
 10
-42.0225509999999
 20
514.0995855374313
 30
0.0
 11
-42.51655099999992
 21
513.6055855374315
 31
0.0
  0
LINE
  5
6AAD
330
A
100
AcDbEntity
  8
本体
  6
Continuous
 62
    84
100
AcDbLine
 10
-41.31455099999993
 20
513.3935855374313
 30
0.0
 11
-41.81055099999979
 21
512.8975855374314
 31
0.0
  0
LINE
  5
6AAE
330
A
100
AcDbEntity
  8
本体
  6
Continuous
 62
    84
100
AcDbLine
 10
-41.81055099999979
 20
512.8975855374314
 30
0.0
 11
-42.51655099999992
 21
513.6055855374315
 31
0.0
  0
LINE
  5
6AAF
330
A
100
AcDbEntity
  8
本体
  6
Continuous
 62
    84
100
AcDbLine
 10
-38.98055099999988
 20
515.7275855374312
 30
0.0
 11
-39.47655099999986
 21
515.2315855374314
 31
0.0
  0
ARC
  5
6AB0
330
A
100
AcDbEntity
  8
本体
  6
Continuous
 62
    84
100
AcDbCircle
 10
-40.74855099999979
 20
516.5035855374311
 30
0.0
 40
0.8
100
AcDbArc
 50
224.8985910000016
 51
315.1013999999983
  0
LINE
  5
6AB1
330
A
100
AcDbEntity
  8
本体
  6
Continuous
 62
    84
100
AcDbLine
 10
-39.68855099999984
 20
516.4335855374314
 30
0.0
 11
-40.18255099999985
 21
515.939585537431
 31
0.0
  0
LINE
  5
6AB2
330
A
100
AcDbEntity
  8
本体
  6
Continuous
 62
    84
100
AcDbLine
 10
-38.98055099999988
 20
515.7275855374312
 30
0.0
 11
-39.68855099999984
 21
516.4335855374314
 31
0.0
  0
LINE
  5
6AB3
330
A
100
AcDbEntity
  8
本体
  6
Continuous
 62
    84
100
AcDbLine
 10
-42.0225509999999
 20
515.2315855374314
 30
0.0
 11
-42.51655099999992
 21
515.7275855374312
 31
0.0
  0
LINE
  5
6AB4
330
A
100
AcDbEntity
  8
本体
  6
Continuous
 62
    84
100
AcDbLine
 10
-41.31455099999993
 20
515.939585537431
 30
0.0
 11
-41.81055099999979
 21
516.4335855374314
 31
0.0
  0
LINE
  5
6AB5
330
A
100
AcDbEntity
  8
本体
  6
Continuous
 62
    84
100
AcDbLine
 10
-41.81055099999979
 20
516.4335855374314
 30
0.0
 11
-42.51655099999992
 21
515.7275855374312
 31
0.0
  0
MTEXT
  5
6AB6
330
A
100
AcDbEntity
  8
本体
  6
Continuous
 62
    84
100
AcDbMText
 10
-41.18502899999986
 20
503.7886375374313
 30
0.0
 40
2.25
 41
0.0
 71
     5
 72
     1
  1
\T0.750;\W1.043;\A1;シグナル\Pグランド
 11
-1.0
 21
0.0000000000000002
 31
0.0
 73
     1
 44
1.0
  0
LINE
  5
6AB7
330
A
100
AcDbEntity
  8
本体
  6
Continuous
 62
    84
100
AcDbLine
 10
-20.49855099999989
 20
514.8929515374313
 30
0.0
 11
-20.49855099999989
 21
520.4382195374313
 31
0.0
  0
LINE
  5
6AB8
330
A
100
AcDbEntity
  8
本体
  6
Continuous
 62
    84
100
AcDbLine
 10
-10.9985509999999
 20
514.8929515374313
 30
0.0
 11
-10.9985509999999
 21
520.4382195374313
 31
0.0
  0
ARC
  5
6ABD
330
A
100
AcDbEntity
  8
本体
  6
Continuous
 62
    84
100
AcDbCircle
 10
-15.74855099999979
 20
517.6655855374312
 30
0.0
 40
5.5
100
AcDbArc
 50
210.2726410000016
 51
329.727358999998
  0
ARC
  5
6ABE
330
A
100
AcDbEntity
  8
本体
  6
Continuous
 62
    84
100
AcDbCircle
 10
-2.448550999999838
 20
530.1655855374312
 30
0.0
 40
2.0
100
AcDbArc
 50
0.0
 51
89.99999999999998
  0
ARC
  5
6ABF
330
A
100
AcDbEntity
  8
本体
  6
Continuous
 62
    84
100
AcDbCircle
 10
0.0514490000001615
 20
532.6655855374313
 30
0.0
 40
1.0
100
AcDbArc
 50
0.0
 51
89.99999999999998
  0
ARC
  5
6AC3
330
A
100
AcDbEntity
  8
本体
  6
Continuous
 62
    84
100
AcDbCircle
 10
-11.24355100000125
 20
411.0657594576339
 30
0.0
 40
2.0
100
AcDbArc
 50
0.0
 51
89.99999999999998
  0
LINE
  5
6AC4
330
A
100
AcDbEntity
  8
本体
  6
Continuous
 62
    84
100
AcDbLine
 10
-19.24855100000148
 20
434.3410014576341
 30
0.0
 11
-19.24855100000148
 21
413.0657594576341
 31
0.0
  0
LINE
  5
6AC5
330
A
100
AcDbEntity
  8
本体
  6
Continuous
 62
    84
100
AcDbLine
 10
-15.74855100000148
 20
435.7296894576339
 30
0.0
 11
-15.74855100000148
 21
413.0657594576341
 31
0.0
  0
LINE
  5
6AC6
330
A
100
AcDbEntity
  8
本体
  6
Continuous
 62
    84
100
AcDbLine
 10
-12.24855100000149
 20
435.8502614576341
 30
0.0
 11
-12.24855100000149
 21
413.0657594576341
 31
0.0
  0
SPLINE
  5
6AC7
330
A
100
AcDbEntity
  8
本体
  6
Continuous
 62
    84
100
AcDbSpline
210
0.0
220
0.0
230
1.0
 70
     8
 71
     3
 72
    13
 73
     9
 74
     7
 42
0.0000000001
 43
0.0000000001
 44
0.000001
 12
0.7930986738278533
 22
-0.6090931731455381
 32
0.0
 13
0.5819426908718711
 23
-0.813229798114165
 33
0.0
 40
0.0
 40
0.0
 40
0.0
 40
0.0
 40
1.975341128390512
 40
3.802034394030736
 40
6.007531397646157
 40
8.112862450055246
 40
10.29817921766014
 40
12.82269205303836
 40
12.82269205303836
 40
12.82269205303836
 40
12.82269205303836
 10
-21.39539982816689
 20
437.5440710760247
 30
0.0
 10
-20.87318635173884
 20
437.1430154773793
 30
0.0
 10
-19.84178452804331
 20
436.4237861575994
 30
0.0
 10
-17.68173958769898
 20
435.9708005376044
 30
0.0
 10
-16.09768728758278
 20
437.4296645551639
 30
0.0
 10
-14.32364075708034
 20
439.0332131503924
 30
0.0
 10
-11.95572328309473
 20
437.8435962663348
 30
0.0
 10
-10.9854045109002
 20
436.6633219316334
 30
0.0
 10
-10.49569724671334
 20
435.9789855771496
 30
0.0
 11
-21.39539982816689
 21
437.5440710760247
 31
0.0
 11
-19.71085948662744
 21
436.5124225535921
 31
0.0
 11
-17.90190541103434
 21
436.2584651305199
 31
0.0
 11
-16.05491079863735
 21
437.4637994468741
 31
0.0
 11
-14.26867121721635
 21
438.5781454234957
 31
0.0
 11
-12.2169802841488
 21
437.8256997923272
 31
0.0
 11
-10.49569724671334
 21
435.9789855771496
 31
0.0
  0
SPLINE
  5
6AC8
330
A
100
AcDbEntity
  8
本体
  6
Continuous
 62
    84
100
AcDbSpline
210
0.0
220
0.0
230
1.0
 70
     8
 71
     3
 72
    13
 73
     9
 74
     7
 42
0.0000000001
 43
0.0000000001
 44
0.000001
 12
0.7930986738278533
 22
-0.6090931731455381
 32
0.0
 13
0.5819426908718711
 23
-0.813229798114165
 33
0.0
 40
0.0
 40
0.0
 40
0.0
 40
0.0
 40
1.975341128390482
 40
3.80203439403073
 40
6.007531397646244
 40
8.112862450055363
 40
10.29817921766032
 40
12.82269205303845
 40
12.82269205303845
 40
12.82269205303845
 40
12.82269205303845
 10
-21.39539982816689
 20
435.5440710760246
 30
0.0
 10
-20.87318635173885
 20
435.1430154773792
 30
0.0
 10
-19.84178452804329
 20
434.4237861575995
 30
0.0
 10
-17.68173958769895
 20
433.9708005376042
 30
0.0
 10
-16.09768728758282
 20
435.429664555164
 30
0.0
 10
-14.32364075708031
 20
437.0332131503926
 30
0.0
 10
-11.95572328309482
 20
435.8435962663347
 30
0.0
 10
-10.98540451090018
 20
434.6633219316333
 30
0.0
 10
-10.49569724671334
 20
433.9789855771496
 30
0.0
 11
-21.39539982816689
 21
435.5440710760246
 31
0.0
 11
-19.71085948662744
 21
434.5124225535921
 31
0.0
 11
-17.90190541103434
 21
434.2584651305196
 31
0.0
 11
-16.05491079863735
 21
435.4637994468741
 31
0.0
 11
-14.26867121721635
 21
436.5781454234959
 31
0.0
 11
-12.2169802841488
 21
435.8256997923271
 31
0.0
 11
-10.49569724671334
 21
433.9789855771496
 31
0.0
  0
ARC
  5
6AC9
330
A
100
AcDbEntity
  8
本体
  6
Continuous
 62
    84
100
AcDbCircle
 10
-40.33899900000131
 20
411.073781457634
 30
0.0
 40
2.25835
100
AcDbArc
 50
309.2131040000018
 51
337.017488000001
  0
LINE
  5
6ACA
330
A
100
AcDbEntity
  8
本体
  6
Continuous
 62
    84
100
AcDbLine
 10
-41.56137100000147
 20
409.6987714576341
 30
0.0
 11
-41.31137100000148
 21
409.2657594576341
 31
0.0
  0
LINE
  5
6ACB
330
A
100
AcDbEntity
  8
本体
  6
Continuous
 62
    84
100
AcDbLine
 10
-39.92573100000139
 20
410.0657594576341
 30
0.0
 11
-41.31137100000148
 21
409.2657594576341
 31
0.0
  0
LINE
  5
6ACC
330
A
100
AcDbEntity
  8
本体
  6
Continuous
 62
    84
100
AcDbLine
 10
-40.17573100000141
 20
410.4987714576341
 30
0.0
 11
-39.92573100000139
 21
410.0657594576341
 31
0.0
  0
LINE
  5
6ACD
330
A
100
AcDbEntity
  8
本体
  6
Continuous
 62
    84
100
AcDbLine
 10
-40.17573100000141
 20
410.4987714576341
 30
0.0
 11
-41.56137100000147
 21
409.6987714576341
 31
0.0
  0
ARC
  5
6ACE
330
A
100
AcDbEntity
  8
本体
  6
Continuous
 62
    84
100
AcDbCircle
 10
-42.98755100000142
 20
411.9297714576338
 30
0.0
 40
1.761999999999999
100
AcDbArc
 50
148.1049200000014
 51
211.8950900000013
  0
ARC
  5
6ACF
330
A
100
AcDbEntity
  8
本体
  6
Continuous
 62
    84
100
AcDbCircle
 10
-38.49955100000136
 20
411.9297714576338
 30
0.0
 40
1.761999999999999
100
AcDbArc
 50
328.1049139999988
 51
31.89509000000128
  0
LINE
  5
6AD0
330
A
100
AcDbEntity
  8
本体
  6
Continuous
 62
    84
100
AcDbLine
 10
-44.4835510000014
 20
410.9987714576341
 30
0.0
 11
-37.00355100000149
 21
410.9987714576341
 31
0.0
  0
LINE
  5
6AD1
330
A
100
AcDbEntity
  8
本体
  6
Continuous
 62
    84
100
AcDbLine
 10
-44.64355100000148
 20
410.9987714576341
 30
0.0
 11
-44.64355100000148
 21
410.4987714576341
 31
0.0
  0
LINE
  5
6AD2
330
A
100
AcDbEntity
  8
本体
  6
Continuous
 62
    84
100
AcDbLine
 10
-36.84355100000152
 20
410.9987714576341
 30
0.0
 11
-36.84355100000152
 21
410.4987714576341
 31
0.0
  0
LINE
  5
6AD3
330
A
100
AcDbEntity
  8
本体
  6
Continuous
 62
    84
100
AcDbLine
 10
-44.64355100000148
 20
410.4987714576341
 30
0.0
 11
-36.84355100000152
 21
410.4987714576341
 31
0.0
  0
LINE
  5
6AD4
330
A
100
AcDbEntity
  8
本体
  6
Continuous
 62
    84
100
AcDbLine
 10
-44.64355100000148
 20
410.9987714576341
 30
0.0
 11
-36.84355100000152
 21
410.9987714576341
 31
0.0
  0
ARC
  5
6AD5
330
A
100
AcDbEntity
  8
本体
  6
Continuous
 62
    84
100
AcDbCircle
 10
-41.00509100000147
 20
408.4422394576338
 30
0.0
 40
2.25835
100
AcDbArc
 50
129.213104000002
 51
157.017489000002
  0
LINE
  5
6AD6
330
A
100
AcDbEntity
  8
本体
  6
Continuous
 62
    84
100
AcDbLine
 10
-38.91125500000146
 20
409.3240114576341
 30
0.0
 11
-39.04703500000139
 21
409.5599554576339
 31
0.0
  0
LINE
  5
6AD7
330
A
100
AcDbEntity
  8
本体
  6
Continuous
 62
    84
100
AcDbLine
 10
-38.91125500000146
 20
409.3240114576341
 30
0.0
 11
-40.7435510000015
 21
409.5935894576341
 31
0.0
  0
LINE
  5
6AD8
330
A
100
AcDbEntity
  8
本体
  6
Continuous
 62
    84
100
AcDbLine
 10
-43.08418300000154
 20
409.3240114576341
 30
0.0
 11
-41.43637100000147
 21
409.4822654576342
 31
0.0
  0
LINE
  5
6AD9
330
A
100
AcDbEntity
  8
本体
  6
Continuous
 62
    84
100
AcDbLine
 10
-43.22926500000153
 20
409.5761194576341
 30
0.0
 11
-43.08418300000154
 21
409.3240114576341
 31
0.0
  0
LINE
  5
6ADA
330
A
100
AcDbEntity
  8
本体
  6
Continuous
 62
    84
100
AcDbLine
 10
-44.94355100000142
 20
409.382265457634
 30
0.0
 11
-43.17817900000147
 21
409.4873474576338
 31
0.0
  0
ARC
  5
6ADB
330
A
100
AcDbEntity
  8
本体
  6
Continuous
 62
    84
100
AcDbCircle
 10
-43.08897300000136
 20
409.7788894576342
 30
0.0
 40
1.896516
100
AcDbArc
 50
167.9284050000008
 51
192.0715949999991
  0
ARC
  5
6ADC
330
A
100
AcDbEntity
  8
本体
  6
Continuous
 62
    84
100
AcDbCircle
 10
-43.26896300000146
 20
409.8822654576339
 30
0.0
 40
1.74764
100
AcDbArc
 50
163.3753879999986
 51
196.6246120000013
  0
LINE
  5
6ADD
330
A
100
AcDbEntity
  8
本体
  6
Continuous
 62
    84
100
AcDbLine
 10
-36.54355100000145
 20
409.382265457634
 30
0.0
 11
-38.70857500000147
 21
409.511135457634
 31
0.0
  0
ARC
  5
6ADE
330
A
100
AcDbEntity
  8
本体
  6
Continuous
 62
    84
100
AcDbCircle
 10
-38.21814100000131
 20
409.8822654576339
 30
0.0
 40
1.74764
100
AcDbArc
 50
343.3753879999986
 51
16.62461200000131
  0
LINE
  5
6ADF
330
A
100
AcDbEntity
  8
本体
  6
Continuous
 62
    84
100
AcDbLine
 10
-36.54355100000145
 20
409.382265457634
 30
0.0
 11
-36.54355100000145
 21
409.589013457634
 31
0.0
  0
LINE
  5
6AE0
330
A
100
AcDbEntity
  8
本体
  6
Continuous
 62
    84
100
AcDbLine
 10
-44.94355100000142
 20
410.3822654576338
 30
0.0
 11
-42.77852700000153
 21
410.253393457634
 31
0.0
  0
LINE
  5
6AE1
330
A
100
AcDbEntity
  8
本体
  6
Continuous
 62
    84
100
AcDbLine
 10
-42.57584700000143
 20
410.4405174576339
 30
0.0
 11
-42.44006700000148
 21
410.2045754576338
 31
0.0
  0
LINE
  5
6AE2
330
A
100
AcDbEntity
  8
本体
  6
Continuous
 62
    84
100
AcDbLine
 10
-44.94355100000142
 20
410.1755154576342
 30
0.0
 11
-42.94656500000143
 21
410.0566474576342
 31
0.0
  0
LINE
  5
6AE3
330
A
100
AcDbEntity
  8
本体
  6
Continuous
 62
    84
100
AcDbLine
 10
-42.57584700000143
 20
410.4405174576339
 30
0.0
 11
-40.7435510000015
 21
410.1709394576339
 31
0.0
  0
LINE
  5
6AE4
330
A
100
AcDbEntity
  8
本体
  6
Continuous
 62
    84
100
AcDbLine
 10
-42.44006700000148
 20
410.2045754576338
 30
0.0
 11
-40.99635900000146
 21
410.0249814576341
 31
0.0
  0
LINE
  5
6AE5
330
A
100
AcDbEntity
  8
本体
  6
Continuous
 62
    84
100
AcDbLine
 10
-44.94355100000142
 20
410.3822654576338
 30
0.0
 11
-44.94355100000142
 21
410.1755154576342
 31
0.0
  0
LINE
  5
6AE6
330
A
100
AcDbEntity
  8
本体
  6
Continuous
 62
    84
100
AcDbLine
 10
-36.54355100000145
 20
409.589013457634
 30
0.0
 11
-38.54053700000145
 21
409.7078814576341
 31
0.0
  0
ARC
  5
6AE7
330
A
100
AcDbEntity
  8
本体
  6
Continuous
 62
    84
100
AcDbCircle
 10
-38.3981290000014
 20
409.9856394576339
 30
0.0
 40
1.896516
100
AcDbArc
 50
347.9284050000009
 51
12.07159499999908
  0
LINE
  5
6AE8
330
A
100
AcDbEntity
  8
本体
  6
Continuous
 62
    84
100
AcDbLine
 10
-38.25990700000147
 20
410.1920074576342
 30
0.0
 11
-38.40291900000146
 21
410.4405174576339
 31
0.0
  0
LINE
  5
6AE9
330
A
100
AcDbEntity
  8
本体
  6
Continuous
 62
    84
100
AcDbLine
 10
-38.40291900000146
 20
410.4405174576339
 30
0.0
 11
-40.0507310000014
 21
410.2822654576341
 31
0.0
  0
LINE
  5
6AEA
330
A
100
AcDbEntity
  8
本体
  6
Continuous
 62
    84
100
AcDbLine
 10
-36.54355100000145
 20
410.3822654576338
 30
0.0
 11
-38.30892500000141
 21
410.2771834576341
 31
0.0
  0
LINE
  5
6AEB
330
A
100
AcDbEntity
  8
本体
  6
Continuous
 62
    84
100
AcDbLine
 10
-39.04703500000139
 20
409.5599554576339
 30
0.0
 11
-40.49074300000143
 21
409.7395494576342
 31
0.0
  0
ARC
  5
6AEC
330
A
100
AcDbEntity
  8
本体
  6
Continuous
 62
    84
100
AcDbCircle
 10
-41.14810300000145
 20
408.6907494576341
 30
0.0
 40
2.25835
100
AcDbArc
 50
129.213104000002
 51
157.017489000002
  0
ARC
  5
6AED
330
A
100
AcDbEntity
  8
本体
  6
Continuous
 62
    84
100
AcDbCircle
 10
-40.4820110000013
 20
411.3222914576342
 30
0.0
 40
2.25835
100
AcDbArc
 50
309.2131040000018
 51
337.0174890000021
  0
ARC
  5
6AEE
330
A
100
AcDbEntity
  8
本体
  6
Continuous
 62
    84
100
AcDbCircle
 10
-40.7435510000015
 20
404.4957714576341
 30
0.0
 40
9.163
100
AcDbArc
 50
65.91054000000028
 51
114.0894699999989
  0
LINE
  5
6AEF
330
A
100
AcDbEntity
  8
本体
  6
Continuous
 62
    84
100
AcDbLine
 10
-22.2435510000015
 20
409.2657594576341
 30
0.0
 11
-22.2435510000015
 21
411.0657594576339
 31
0.0
  0
ARC
  5
6AF0
330
A
100
AcDbEntity
  8
本体
  6
Continuous
 62
    84
100
AcDbCircle
 10
-20.24355100000148
 20
411.0657594576339
 30
0.0
 40
2.0
100
AcDbArc
 50
89.99999999999998
 51
180.0
  0
LINE
  5
6AF1
330
A
100
AcDbEntity
  8
本体
  6
Continuous
 62
    84
100
AcDbLine
 10
-20.24355100000148
 20
413.0657594576341
 30
0.0
 11
-11.24355100000139
 21
413.0657594576341
 31
0.0
  0
ARC
  5
6AF2
330
A
100
AcDbEntity
  8
本体
  6
Continuous
 62
    84
100
AcDbCircle
 10
1.251449000000206
 20
491.8655855374313
 30
0.0
 40
1.0
100
AcDbArc
 50
270.0
 51
0.0
  0
ARC
  5
6AF3
330
A
100
AcDbEntity
  8
本体
  6
Continuous
 62
    84
100
AcDbCircle
 10
-2.448550999999838
 20
495.5655855374313
 30
0.0
 40
2.0
100
AcDbArc
 50
270.0
 51
0.0
  0
LINE
  5
6AF4
330
A
100
AcDbEntity
  8
本体
  6
Continuous
 62
    84
100
AcDbLine
 10
0.0514490000001615
 20
492.0655855374315
 30
0.0
 11
1.051449000000159
 21
493.0655855374315
 31
0.0
  0
LINE
  5
6AF5
330
A
100
AcDbEntity
  8
本体
  6
Continuous
 62
    84
100
AcDbLine
 10
-9.243551000001382
 20
409.2657594576341
 30
0.0
 11
-9.243551000001382
 21
411.0657594576339
 31
0.0
  0
LINE
  5
6AFC
330
A
100
AcDbEntity
  8
本体
  6
Continuous
 62
    84
100
AcDbLine
 10
305.9299213345951
 20
408.2657594576343
 30
0.0
 11
305.9299213345951
 21
295.4657594576342
 31
0.0
  0
LINE
  5
6AFD
330
A
100
AcDbEntity
  8
本体
  6
Continuous
 62
    84
100
AcDbLine
 10
304.9299213345951
 20
409.2657594576341
 30
0.0
 11
264.329921334595
 21
409.2657594576341
 31
0.0
  0
LINE
  5
6AFE
330
A
100
AcDbEntity
  8
本体
  6
Continuous
 62
    84
100
AcDbLine
 10
263.129921334595
 20
409.2657594576341
 30
0.0
 11
304.9299213345951
 21
409.2657594576341
 31
0.0
  0
ARC
  5
6AFF
330
A
100
AcDbEntity
  8
本体
  6
Continuous
 62
    84
100
AcDbCircle
 10
304.9299213345951
 20
408.2657594576343
 30
0.0
 40
1.0
100
AcDbArc
 50
0.0
 51
89.99999999999998
  0
LINE
  5
6B00
330
A
100
AcDbEntity
  8
本体
  6
Continuous
 62
    84
100
AcDbLine
 10
304.9299213345951
 20
409.2657594576341
 30
0.0
 11
305.9299213345951
 21
408.2657594576343
 31
0.0
  0
LINE
  5
6B01
330
A
100
AcDbEntity
  8
本体
  6
Continuous
 62
    84
100
AcDbLine
 10
283.804095334595
 20
393.4702634576343
 30
0.0
 11
284.175327334595
 21
393.8414954576344
 31
0.0
  0
LINE
  5
6B02
330
A
100
AcDbEntity
  8
本体
  6
Continuous
 62
    84
100
AcDbLine
 10
286.084515334595
 20
393.8414954576344
 30
0.0
 11
286.4557453345951
 21
393.4702634576343
 31
0.0
  0
CIRCLE
  5
6B03
330
A
100
AcDbEntity
  8
本体
  6
Continuous
 62
    84
100
AcDbCircle
 10
285.1299213345951
 20
394.2657594576342
 30
0.0
 40
2.7
  0
CIRCLE
  5
6B04
330
A
100
AcDbEntity
  8
本体
  6
Continuous
 62
    84
100
AcDbCircle
 10
285.1299213345951
 20
394.2657594576342
 30
0.0
 40
3.0
  0
ARC
  5
6B05
330
A
100
AcDbEntity
  8
本体
  6
Continuous
 62
    84
100
AcDbCircle
 10
283.7510633345952
 20
394.2657594576342
 30
0.0
 40
0.6
100
AcDbArc
 50
315.0
 51
44.99999999999999
  0
ARC
  5
6B06
330
A
100
AcDbEntity
  8
本体
  6
Continuous
 62
    84
100
AcDbCircle
 10
285.1299213345951
 20
395.6446174576342
 30
0.0
 40
0.6
100
AcDbArc
 50
225.0
 51
315.0
  0
ARC
  5
6B07
330
A
100
AcDbEntity
  8
本体
  6
Continuous
 62
    84
100
AcDbCircle
 10
286.5087793345951
 20
394.2657594576342
 30
0.0
 40
0.6
100
AcDbArc
 50
135.0
 51
225.0
  0
CIRCLE
  5
6B08
330
A
100
AcDbEntity
  8
本体
  6
Continuous
 62
    84
100
AcDbCircle
 10
285.1293913345949
 20
395.6451474576341
 30
0.0
 40
0.3
  0
LINE
  5
6B09
330
A
100
AcDbEntity
  8
本体
  6
Continuous
 62
    84
100
AcDbLine
 10
286.084515334595
 20
394.6900234576342
 30
0.0
 11
286.4557453345951
 21
395.0612534576342
 31
0.0
  0
LINE
  5
6B0A
330
A
100
AcDbEntity
  8
本体
  6
Continuous
 62
    84
100
AcDbLine
 10
283.804095334595
 20
395.0612534576342
 30
0.0
 11
284.175327334595
 21
394.6900234576342
 31
0.0
  0
LINE
  5
6B0B
330
A
100
AcDbEntity
  8
本体
  6
Continuous
 62
    84
100
AcDbLine
 10
285.554185334595
 20
395.2203534576343
 30
0.0
 11
285.925415334595
 21
395.5915834576342
 31
0.0
  0
LINE
  5
6B0C
330
A
100
AcDbEntity
  8
本体
  6
Continuous
 62
    84
100
AcDbLine
 10
284.334425334595
 20
395.5915834576342
 30
0.0
 11
284.7056573345951
 21
395.2203534576343
 31
0.0
  0
LINE
  5
6B0D
330
A
100
AcDbEntity
  8
本体
  6
Continuous
 62
    84
100
AcDbLine
 10
285.925415334595
 20
395.5915834576342
 30
0.0
 11
286.4557453345951
 21
395.0612534576342
 31
0.0
  0
LINE
  5
6B0E
330
A
100
AcDbEntity
  8
本体
  6
Continuous
 62
    84
100
AcDbLine
 10
283.804095334595
 20
395.0612534576342
 30
0.0
 11
284.334425334595
 21
395.5915834576342
 31
0.0
  0
ARC
  5
6B0F
330
A
100
AcDbEntity
  8
本体
  6
Continuous
 62
    84
100
AcDbCircle
 10
285.1299213345951
 20
392.8868994576342
 30
0.0
 40
0.6
100
AcDbArc
 50
44.99999999999999
 51
135.0
  0
LINE
  5
6B10
330
A
100
AcDbEntity
  8
本体
  6
Continuous
 62
    84
100
AcDbLine
 10
284.334425334595
 20
392.9399334576342
 30
0.0
 11
284.7056573345951
 21
393.3111654576342
 31
0.0
  0
LINE
  5
6B11
330
A
100
AcDbEntity
  8
本体
  6
Continuous
 62
    84
100
AcDbLine
 10
285.554185334595
 20
393.3111654576342
 30
0.0
 11
285.925415334595
 21
392.9399334576342
 31
0.0
  0
LINE
  5
6B12
330
A
100
AcDbEntity
  8
本体
  6
Continuous
 62
    84
100
AcDbLine
 10
283.804095334595
 20
393.4702634576343
 30
0.0
 11
284.334425334595
 21
392.9399334576342
 31
0.0
  0
LINE
  5
6B13
330
A
100
AcDbEntity
  8
本体
  6
Continuous
 62
    84
100
AcDbLine
 10
285.925415334595
 20
392.9399334576342
 30
0.0
 11
286.4557453345951
 21
393.4702634576343
 31
0.0
  0
CIRCLE
  5
6B1F
330
A
100
AcDbEntity
  8
本体
  6
Continuous
 62
    84
100
AcDbCircle
 10
271.1299213345951
 20
286.2657594576343
 30
0.0
 40
4.0
  0
MTEXT
  5
6B49
102
{ACAD_REACTORS
330
6C4D
102
}
330
A
100
AcDbEntity
  8
本体
  6
Continuous
 62
    84
100
AcDbMText
 10
-118.688115
 20
224.038639448301
 30
0.0
 40
2.5
 41
0.0
 71
     1
 72
     1
  1
\T0.779;\W1.160;\A1;VIDEO SIGNAL CORRECTOR
 73
     1
 44
1.0
  0
LINE
  5
6B4A
102
{ACAD_REACTORS
330
6C4D
102
}
330
A
100
AcDbEntity
  8
本体
  6
Continuous
 62
    84
100
AcDbLine
 10
-99.74855100000013
 20
209.0632674483009
 30
0.0
 11
-153.7485510000001
 21
209.0632674483009
 31
0.0
  0
LINE
  5
6B4B
102
{ACAD_REACTORS
330
6C4D
102
}
330
A
100
AcDbEntity
  8
本体
  6
Continuous
 62
    84
100
AcDbLine
 10
-99.74855100000013
 20
192.0632674483009
 30
0.0
 11
-153.7485510000001
 21
192.0632674483009
 31
0.0
  0
LINE
  5
6B4C
102
{ACAD_REACTORS
330
6C4D
102
}
330
A
100
AcDbEntity
  8
本体
  6
Continuous
 62
    84
100
AcDbLine
 10
-110.6046070000002
 20
203.0632674483009
 30
0.0
 11
-117.2462970000001
 21
203.0632674483009
 31
0.0
  0
LINE
  5
6B4D
102
{ACAD_REACTORS
330
6C4D
102
}
330
A
100
AcDbEntity
  8
本体
  6
Continuous
 62
    84
100
AcDbLine
 10
-155.7485510000001
 20
207.0632674483009
 30
0.0
 11
-155.7485510000001
 21
194.0632674483009
 31
0.0
  0
ARC
  5
6B4E
102
{ACAD_REACTORS
330
6C4D
102
}
330
A
100
AcDbEntity
  8
本体
  6
Continuous
 62
    84
100
AcDbCircle
 10
-153.7485510000001
 20
207.0632674483009
 30
0.0
 40
2.0
100
AcDbArc
 50
89.99999999999998
 51
180.0
  0
MTEXT
  5
6B4F
102
{ACAD_REACTORS
330
6C4D
102
}
330
A
100
AcDbEntity
  8
本体
  6
Continuous
 62
    84
100
AcDbMText
 10
-152.801677
 20
204.8132674483009
 30
0.0
 40
3.5
 41
0.0
 71
     1
 72
     1
  1
\T0.794;\W1.181;\A1;設 定
 73
     1
 44
1.0
  0
CIRCLE
  5
6B50
102
{ACAD_REACTORS
330
6C4D
102
}
330
A
100
AcDbEntity
  8
本体
  6
Continuous
 62
    84
100
AcDbCircle
 10
-147.7485510000001
 20
197.0632674483009
 30
0.0
 40
1.5
  0
CIRCLE
  5
6B51
102
{ACAD_REACTORS
330
6C4D
102
}
330
A
100
AcDbEntity
  8
本体
  6
Continuous
 62
    84
100
AcDbCircle
 10
-147.7485510000001
 20
197.0632674483009
 30
0.0
 40
1.5
  0
CIRCLE
  5
6B52
102
{ACAD_REACTORS
330
6C4D
102
}
330
A
100
AcDbEntity
  8
本体
  6
Continuous
 62
    84
100
AcDbCircle
 10
-147.7485510000001
 20
197.0632674483009
 30
0.0
 40
2.0
  0
ARC
  5
6B53
102
{ACAD_REACTORS
330
6C4D
102
}
330
A
100
AcDbEntity
  8
本体
  6
Continuous
 62
    84
100
AcDbCircle
 10
-153.7485510000001
 20
194.0632674483009
 30
0.0
 40
2.0
100
AcDbArc
 50
180.0
 51
270.0
  0
LINE
  5
6B54
102
{ACAD_REACTORS
330
6C4D
102
}
330
A
100
AcDbEntity
  8
本体
  6
Continuous
 62
    84
100
AcDbLine
 10
-136.2462969999999
 20
203.0632674483009
 30
0.0
 11
-142.116997
 21
203.0632674483009
 31
0.0
  0
LINE
  5
6B55
102
{ACAD_REACTORS
330
6C4D
102
}
330
A
100
AcDbEntity
  8
本体
  6
Continuous
 62
    84
100
AcDbLine
 10
-120.4962970000001
 20
206.0632674483009
 30
0.0
 11
-120.4962970000001
 21
203.0632674483009
 31
0.0
  0
LINE
  5
6B56
102
{ACAD_REACTORS
330
6C4D
102
}
330
A
100
AcDbEntity
  8
本体
  6
Continuous
 62
    84
100
AcDbLine
 10
-118.996297
 20
206.0632674483009
 30
0.0
 11
-118.996297
 21
203.0632674483009
 31
0.0
  0
LINE
  5
6B57
102
{ACAD_REACTORS
330
6C4D
102
}
330
A
100
AcDbEntity
  8
本体
  6
Continuous
 62
    84
100
AcDbLine
 10
-133.746297
 20
206.0632674483009
 30
0.0
 11
-135.2462969999999
 21
204.5632674483008
 31
0.0
  0
LINE
  5
6B58
102
{ACAD_REACTORS
330
6C4D
102
}
330
A
100
AcDbEntity
  8
本体
  6
Continuous
 62
    84
100
AcDbLine
 10
-133.746297
 20
206.0632674483009
 30
0.0
 11
-132.2462969999999
 21
204.5632674483008
 31
0.0
  0
LINE
  5
6B59
102
{ACAD_REACTORS
330
6C4D
102
}
330
A
100
AcDbEntity
  8
本体
  6
Continuous
 62
    84
100
AcDbLine
 10
-120.4962970000001
 20
206.0632674483009
 30
0.0
 11
-118.996297
 21
206.0632674483009
 31
0.0
  0
LINE
  5
6B5A
102
{ACAD_REACTORS
330
6C4D
102
}
330
A
100
AcDbEntity
  8
本体
  6
Continuous
 62
    84
100
AcDbLine
 10
-131.246297
 20
203.0632674483009
 30
0.0
 11
-122.246297
 21
203.0632674483009
 31
0.0
  0
CIRCLE
  5
6B5B
102
{ACAD_REACTORS
330
6C4D
102
}
330
A
100
AcDbEntity
  8
本体
  6
Continuous
 62
    84
100
AcDbCircle
 10
-133.7485510000001
 20
197.0632674483009
 30
0.0
 40
1.5
  0
CIRCLE
  5
6B5C
102
{ACAD_REACTORS
330
6C4D
102
}
330
A
100
AcDbEntity
  8
本体
  6
Continuous
 62
    84
100
AcDbCircle
 10
-133.7485510000001
 20
197.0632674483009
 30
0.0
 40
1.5
  0
CIRCLE
  5
6B5D
102
{ACAD_REACTORS
330
6C4D
102
}
330
A
100
AcDbEntity
  8
本体
  6
Continuous
 62
    84
100
AcDbCircle
 10
-133.7485510000001
 20
197.0632674483009
 30
0.0
 40
2.0
  0
LINE
  5
6B5E
102
{ACAD_REACTORS
330
6C4D
102
}
330
A
100
AcDbEntity
  8
本体
  6
Continuous
 62
    84
100
AcDbLine
 10
-132.9962969999999
 20
201.5632674483009
 30
0.0
 11
-132.9962969999999
 21
204.5632674483008
 31
0.0
  0
LINE
  5
6B5F
102
{ACAD_REACTORS
330
6C4D
102
}
330
A
100
AcDbEntity
  8
本体
  6
Continuous
 62
    84
100
AcDbLine
 10
-134.496297
 20
201.5632674483009
 30
0.0
 11
-134.496297
 21
204.5632674483008
 31
0.0
  0
LINE
  5
6B60
102
{ACAD_REACTORS
330
6C4D
102
}
330
A
100
AcDbEntity
  8
本体
  6
Continuous
 62
    84
100
AcDbLine
 10
-132.9962969999999
 20
201.5632674483009
 30
0.0
 11
-134.496297
 21
201.5632674483009
 31
0.0
  0
LINE
  5
6B61
102
{ACAD_REACTORS
330
6C4D
102
}
330
A
100
AcDbEntity
  8
本体
  6
Continuous
 62
    84
100
AcDbLine
 10
-132.9962969999999
 20
204.5632674483008
 30
0.0
 11
-132.2462969999999
 21
204.5632674483008
 31
0.0
  0
LINE
  5
6B62
102
{ACAD_REACTORS
330
6C4D
102
}
330
A
100
AcDbEntity
  8
本体
  6
Continuous
 62
    84
100
AcDbLine
 10
-135.2462969999999
 20
204.5632674483008
 30
0.0
 11
-134.496297
 21
204.5632674483008
 31
0.0
  0
CIRCLE
  5
6B63
102
{ACAD_REACTORS
330
6C4D
102
}
330
A
100
AcDbEntity
  8
本体
  6
Continuous
 62
    84
100
AcDbCircle
 10
-119.7485510000001
 20
197.0632674483009
 30
0.0
 40
1.5
  0
CIRCLE
  5
6B64
102
{ACAD_REACTORS
330
6C4D
102
}
330
A
100
AcDbEntity
  8
本体
  6
Continuous
 62
    84
100
AcDbCircle
 10
-119.7485510000001
 20
197.0632674483009
 30
0.0
 40
1.5
  0
CIRCLE
  5
6B65
102
{ACAD_REACTORS
330
6C4D
102
}
330
A
100
AcDbEntity
  8
本体
  6
Continuous
 62
    84
100
AcDbCircle
 10
-119.7485510000001
 20
197.0632674483009
 30
0.0
 40
2.0
  0
LINE
  5
6B66
102
{ACAD_REACTORS
330
6C4D
102
}
330
A
100
AcDbEntity
  8
本体
  6
Continuous
 62
    84
100
AcDbLine
 10
-119.7462970000001
 20
201.5632674483009
 30
0.0
 11
-118.2462970000001
 21
203.0632674483009
 31
0.0
  0
LINE
  5
6B67
102
{ACAD_REACTORS
330
6C4D
102
}
330
A
100
AcDbEntity
  8
本体
  6
Continuous
 62
    84
100
AcDbLine
 10
-119.7462970000001
 20
201.5632674483009
 30
0.0
 11
-121.246297
 21
203.0632674483009
 31
0.0
  0
LINE
  5
6B68
102
{ACAD_REACTORS
330
6C4D
102
}
330
A
100
AcDbEntity
  8
本体
  6
Continuous
 62
    84
100
AcDbLine
 10
-121.246297
 20
203.0632674483009
 30
0.0
 11
-120.4962970000001
 21
203.0632674483009
 31
0.0
  0
LINE
  5
6B69
102
{ACAD_REACTORS
330
6C4D
102
}
330
A
100
AcDbEntity
  8
本体
  6
Continuous
 62
    84
100
AcDbLine
 10
-118.996297
 20
203.0632674483009
 30
0.0
 11
-118.2462970000001
 21
203.0632674483009
 31
0.0
  0
LINE
  5
6B6A
102
{ACAD_REACTORS
330
6C4D
102
}
330
A
100
AcDbEntity
  8
本体
  6
Continuous
 62
    84
100
AcDbLine
 10
-97.74855100000014
 20
207.0632674483009
 30
0.0
 11
-97.74855100000014
 21
194.0632674483009
 31
0.0
  0
ARC
  5
6B6B
102
{ACAD_REACTORS
330
6C4D
102
}
330
A
100
AcDbEntity
  8
本体
  6
Continuous
 62
    84
100
AcDbCircle
 10
-99.74855100000013
 20
207.0632674483009
 30
0.0
 40
2.0
100
AcDbArc
 50
0.0
 51
89.99999999999998
  0
ARC
  5
6B6C
102
{ACAD_REACTORS
330
6C4D
102
}
330
A
100
AcDbEntity
  8
本体
  6
Continuous
 62
    84
100
AcDbCircle
 10
-99.74855100000013
 20
194.0632674483009
 30
0.0
 40
2.0
100
AcDbArc
 50
270.0
 51
0.0
  0
CIRCLE
  5
6B6D
102
{ACAD_REACTORS
330
6C4D
102
}
330
A
100
AcDbEntity
  8
本体
  6
Continuous
 62
    84
100
AcDbCircle
 10
-105.748551
 20
197.0632674483009
 30
0.0
 40
1.5
  0
CIRCLE
  5
6B6E
102
{ACAD_REACTORS
330
6C4D
102
}
330
A
100
AcDbEntity
  8
本体
  6
Continuous
 62
    84
100
AcDbCircle
 10
-105.748551
 20
197.0632674483009
 30
0.0
 40
1.5
  0
CIRCLE
  5
6B6F
102
{ACAD_REACTORS
330
6C4D
102
}
330
A
100
AcDbEntity
  8
本体
  6
Continuous
 62
    84
100
AcDbCircle
 10
-105.748551
 20
197.0632674483009
 30
0.0
 40
2.0
  0
MTEXT
  5
6B70
102
{ACAD_REACTORS
330
6C4D
102
}
330
A
100
AcDbEntity
  8
本体
  6
Continuous
 62
    84
100
AcDbMText
 10
-109.7910510000001
 20
204.8132674483009
 30
0.0
 40
3.5
 41
0.0
 71
     1
 72
     1
  1
\T0.794;\W0.945;\A1;決 定
 73
     1
 44
1.0
  0
LINE
  5
6B71
102
{ACAD_REACTORS
330
6C4D
102
}
330
A
100
AcDbEntity
  8
本体
  6
Continuous
 62
    84
100
AcDbLine
 10
0.751448999999866
 20
187.763267448301
 30
0.0
 11
0.751448999999866
 21
224.763267448301
 31
0.0
  0
LINE
  5
6B72
102
{ACAD_REACTORS
330
6C4D
102
}
330
A
100
AcDbEntity
  8
本体
  6
Continuous
 62
    84
100
AcDbLine
 10
2.251448999999865
 20
184.263267448301
 30
0.0
 11
2.251448999999865
 21
227.263267448301
 31
0.0
  0
LINE
  5
6B74
330
A
100
AcDbEntity
  8
本体
  6
Continuous
 62
    84
100
AcDbLine
 10
-45.25055100000145
 20
263.7657594576342
 30
0.0
 11
-35.25055100000145
 21
263.7657594576342
 31
0.0
  0
LINE
  5
6B75
330
A
100
AcDbEntity
  8
本体
  6
Continuous
 62
    84
100
AcDbLine
 10
-39.25055100000145
 20
267.2657594576341
 30
0.0
 11
-16.25055100000145
 21
267.2657594576341
 31
0.0
  0
LINE
  5
6B76
330
A
100
AcDbEntity
  8
本体
  6
Continuous
 62
    84
100
AcDbLine
 10
-45.25055100000145
 20
269.2657594576342
 30
0.0
 11
-45.25055100000145
 21
263.7657594576342
 31
0.0
  0
LINE
  5
6B77
330
A
100
AcDbEntity
  8
本体
  6
Continuous
 62
    84
100
AcDbLine
 10
-39.25055100000145
 20
269.2657594576342
 30
0.0
 11
-39.25055100000145
 21
264.7657594576342
 31
0.0
  0
LINE
  5
6B78
330
A
100
AcDbEntity
  8
本体
  6
Continuous
 62
    84
100
AcDbLine
 10
-45.25055100000145
 20
264.7657594576342
 30
0.0
 11
-39.25055100000145
 21
264.7657594576342
 31
0.0
  0
LINE
  5
6B79
330
A
100
AcDbEntity
  8
本体
  6
Continuous
 62
    84
100
AcDbLine
 10
-32.65055100000154
 20
263.965759457634
 30
0.0
 11
-22.85055100000156
 21
263.965759457634
 31
0.0
  0
LINE
  5
6B7A
330
A
100
AcDbEntity
  8
本体
  6
Continuous
 62
    84
100
AcDbLine
 10
-35.25055100000145
 20
267.2657594576341
 30
0.0
 11
-35.25055100000145
 21
263.7657594576342
 31
0.0
  0
LINE
  5
6B7B
330
A
100
AcDbEntity
  8
本体
  6
Continuous
 62
    84
100
AcDbLine
 10
-32.65055100000154
 20
267.2657594576341
 30
0.0
 11
-32.65055100000154
 21
263.965759457634
 31
0.0
  0
LINE
  5
6B7C
330
A
100
AcDbEntity
  8
本体
  6
Continuous
 62
    84
100
AcDbLine
 10
-16.25055100000145
 20
269.2657594576342
 30
0.0
 11
-16.25055100000145
 21
263.7657594576342
 31
0.0
  0
LINE
  5
6B7D
330
A
100
AcDbEntity
  8
本体
  6
Continuous
 62
    84
100
AcDbLine
 10
-20.25055100000145
 20
267.2657594576341
 30
0.0
 11
-20.25055100000145
 21
263.7657594576342
 31
0.0
  0
LINE
  5
6B7E
330
A
100
AcDbEntity
  8
本体
  6
Continuous
 62
    84
100
AcDbLine
 10
-22.85055100000156
 20
267.2657594576341
 30
0.0
 11
-22.85055100000156
 21
263.965759457634
 31
0.0
  0
LINE
  5
6B7F
330
A
100
AcDbEntity
  8
本体
  6
Continuous
 62
    84
100
AcDbLine
 10
-20.25055100000145
 20
263.7657594576342
 30
0.0
 11
-16.25055100000145
 21
263.7657594576342
 31
0.0
  0
ARC
  5
6B80
330
A
100
AcDbEntity
  8
本体
  6
Continuous
 62
    84
100
AcDbCircle
 10
1.251448999998501
 20
270.265759457634
 30
0.0
 40
1.0
100
AcDbArc
 50
270.0
 51
0.0
  0
ARC
  5
6B81
102
{ACAD_REACTORS
330
6C4D
102
}
330
A
100
AcDbEntity
  8
本体
  6
Continuous
 62
    84
100
AcDbCircle
 10
1.251448999999865
 20
227.2632674483009
 30
0.0
 40
1.0
100
AcDbArc
 50
0.0
 51
89.99999999999998
  0
ARC
  5
6B83
102
{ACAD_REACTORS
330
6C4D
102
}
330
A
100
AcDbEntity
  8
本体
  6
Continuous
 62
    84
100
AcDbCircle
 10
-1.248551000000132
 20
224.7632674483007
 30
0.0
 40
2.0
100
AcDbArc
 50
0.0
 51
89.99999999999998
  0
LINE
  5
6B84
102
{ACAD_REACTORS
330
6C4D
102
}
330
A
100
AcDbEntity
  8
本体
  6
Continuous
 62
    84
100
AcDbLine
 10
-39.74855100000013
 20
214.763267448301
 30
0.0
 11
-15.74855100000013
 21
214.763267448301
 31
0.0
  0
LINE
  5
6B85
102
{ACAD_REACTORS
330
6C4D
102
}
330
A
100
AcDbEntity
  8
本体
  6
Continuous
 62
    84
100
AcDbLine
 10
-39.74855100000013
 20
189.763267448301
 30
0.0
 11
-15.74855100000013
 21
189.763267448301
 31
0.0
  0
LINE
  5
6B86
102
{ACAD_REACTORS
330
6C4D
102
}
330
A
100
AcDbEntity
  8
本体
  6
Continuous
 62
    84
100
AcDbLine
 10
-39.74855100000013
 20
214.763267448301
 30
0.0
 11
-15.74855100000013
 21
214.763267448301
 31
0.0
  0
LINE
  5
6B87
102
{ACAD_REACTORS
330
6C4D
102
}
330
A
100
AcDbEntity
  8
本体
  6
Continuous
 62
    84
100
AcDbLine
 10
-39.74855100000013
 20
189.763267448301
 30
0.0
 11
-15.74855100000013
 21
189.763267448301
 31
0.0
  0
LINE
  5
6B88
102
{ACAD_REACTORS
330
6C4D
102
}
330
A
100
AcDbEntity
  8
本体
  6
Continuous
 62
    84
100
AcDbLine
 10
-45.23855100000014
 20
199.263267448301
 30
0.0
 11
-35.23855100000013
 21
199.263267448301
 31
0.0
  0
LINE
  5
6B89
102
{ACAD_REACTORS
330
6C4D
102
}
330
A
100
AcDbEntity
  8
本体
  6
Continuous
 62
    84
100
AcDbLine
 10
-45.23855100000014
 20
205.2632674483009
 30
0.0
 11
-35.23855100000013
 21
205.2632674483009
 31
0.0
  0
LINE
  5
6B8A
102
{ACAD_REACTORS
330
6C4D
102
}
330
A
100
AcDbEntity
  8
本体
  6
Continuous
 62
    84
100
AcDbLine
 10
-39.23855100000013
 20
214.263267448301
 30
0.0
 11
-16.23855100000014
 21
214.263267448301
 31
0.0
  0
LINE
  5
6B8B
102
{ACAD_REACTORS
330
6C4D
102
}
330
A
100
AcDbEntity
  8
本体
  6
Continuous
 62
    84
100
AcDbLine
 10
-39.23855100000013
 20
190.263267448301
 30
0.0
 11
-16.23855100000014
 21
190.263267448301
 31
0.0
  0
ARC
  5
6B8C
102
{ACAD_REACTORS
330
6C4D
102
}
330
A
100
AcDbEntity
  8
本体
  6
Continuous
 62
    84
100
AcDbCircle
 10
-34.23855100000013
 20
211.7632674483008
 30
0.0
 40
1.0
100
AcDbArc
 50
89.99999999999998
 51
180.0
  0
ARC
  5
6B8D
102
{ACAD_REACTORS
330
6C4D
102
}
330
A
100
AcDbEntity
  8
本体
  6
Continuous
 62
    84
100
AcDbCircle
 10
-34.23855100000013
 20
192.7632674483009
 30
0.0
 40
1.0
100
AcDbArc
 50
180.0
 51
270.0
  0
LINE
  5
6B8E
102
{ACAD_REACTORS
330
6C4D
102
}
330
A
100
AcDbEntity
  8
本体
  6
Continuous
 62
    84
100
AcDbLine
 10
-45.74855100000013
 20
208.763267448301
 30
0.0
 11
-45.74855100000013
 21
195.763267448301
 31
0.0
  0
LINE
  5
6B8F
102
{ACAD_REACTORS
330
6C4D
102
}
330
A
100
AcDbEntity
  8
本体
  6
Continuous
 62
    84
100
AcDbLine
 10
-45.74855100000013
 20
208.763267448301
 30
0.0
 11
-45.74855100000013
 21
195.763267448301
 31
0.0
  0
LINE
  5
6B90
102
{ACAD_REACTORS
330
6C4D
102
}
330
A
100
AcDbEntity
  8
本体
  6
Continuous
 62
    84
100
AcDbLine
 10
-45.23855100000014
 20
208.263267448301
 30
0.0
 11
-45.23855100000014
 21
196.263267448301
 31
0.0
  0
LINE
  5
6B91
102
{ACAD_REACTORS
330
6C4D
102
}
330
A
100
AcDbEntity
  8
本体
  6
Continuous
 62
    84
100
AcDbLine
 10
-39.74855100000013
 20
214.763267448301
 30
0.0
 11
-39.74855100000013
 21
208.763267448301
 31
0.0
  0
LINE
  5
6B92
102
{ACAD_REACTORS
330
6C4D
102
}
330
A
100
AcDbEntity
  8
本体
  6
Continuous
 62
    84
100
AcDbLine
 10
-39.74855100000013
 20
214.763267448301
 30
0.0
 11
-39.74855100000013
 21
208.763267448301
 31
0.0
  0
LINE
  5
6B93
102
{ACAD_REACTORS
330
6C4D
102
}
330
A
100
AcDbEntity
  8
本体
  6
Continuous
 62
    84
100
AcDbLine
 10
-39.23855100000013
 20
214.263267448301
 30
0.0
 11
-39.23855100000013
 21
208.263267448301
 31
0.0
  0
LINE
  5
6B94
102
{ACAD_REACTORS
330
6C4D
102
}
330
A
100
AcDbEntity
  8
本体
  6
Continuous
 62
    84
100
AcDbLine
 10
-45.74855100000013
 20
208.763267448301
 30
0.0
 11
-39.74855100000013
 21
208.763267448301
 31
0.0
  0
LINE
  5
6B95
102
{ACAD_REACTORS
330
6C4D
102
}
330
A
100
AcDbEntity
  8
本体
  6
Continuous
 62
    84
100
AcDbLine
 10
-45.74855100000013
 20
208.763267448301
 30
0.0
 11
-39.74855100000013
 21
208.763267448301
 31
0.0
  0
LINE
  5
6B96
102
{ACAD_REACTORS
330
6C4D
102
}
330
A
100
AcDbEntity
  8
本体
  6
Continuous
 62
    84
100
AcDbLine
 10
-45.23855100000014
 20
208.263267448301
 30
0.0
 11
-39.23855100000013
 21
208.263267448301
 31
0.0
  0
MTEXT
  5
6B97
102
{ACAD_REACTORS
330
6C4D
102
}
330
A
100
AcDbEntity
  8
本体
  6
Continuous
 62
    84
100
AcDbMText
 10
-45.36855100000024
 20
212.763267448301
 30
0.0
 40
3.0
 41
0.0
 71
     1
 72
     1
  1
\T0.750;\W1.042;\A1;入
 73
     1
 44
1.0
  0
LINE
  5
6B98
102
{ACAD_REACTORS
330
6C4D
102
}
330
A
100
AcDbEntity
  8
本体
  6
Continuous
 62
    84
100
AcDbLine
 10
-42.73855100000013
 20
199.763267448301
 30
0.0
 11
-37.73855100000013
 21
199.763267448301
 31
0.0
  0
LINE
  5
6B99
102
{ACAD_REACTORS
330
6C4D
102
}
330
A
100
AcDbEntity
  8
本体
  6
Continuous
 62
    84
100
AcDbLine
 10
-42.73855100000013
 20
204.763267448301
 30
0.0
 11
-37.73855100000013
 21
204.763267448301
 31
0.0
  0
LINE
  5
6B9A
102
{ACAD_REACTORS
330
6C4D
102
}
330
A
100
AcDbEntity
  8
本体
  6
Continuous
 62
    84
100
AcDbLine
 10
-37.73855100000013
 20
204.763267448301
 30
0.0
 11
-37.73855100000013
 21
199.763267448301
 31
0.0
  0
LINE
  5
6B9B
102
{ACAD_REACTORS
330
6C4D
102
}
330
A
100
AcDbEntity
  8
本体
  6
Continuous
 62
    84
100
AcDbLine
 10
-42.73855100000013
 20
204.763267448301
 30
0.0
 11
-42.73855100000013
 21
199.763267448301
 31
0.0
  0
LINE
  5
6B9C
102
{ACAD_REACTORS
330
6C4D
102
}
330
A
100
AcDbEntity
  8
本体
  6
Continuous
 62
    84
100
AcDbLine
 10
-39.74855100000013
 20
195.763267448301
 30
0.0
 11
-39.74855100000013
 21
189.763267448301
 31
0.0
  0
LINE
  5
6B9D
102
{ACAD_REACTORS
330
6C4D
102
}
330
A
100
AcDbEntity
  8
本体
  6
Continuous
 62
    84
100
AcDbLine
 10
-45.74855100000013
 20
195.763267448301
 30
0.0
 11
-39.74855100000013
 21
195.763267448301
 31
0.0
  0
LINE
  5
6B9E
102
{ACAD_REACTORS
330
6C4D
102
}
330
A
100
AcDbEntity
  8
本体
  6
Continuous
 62
    84
100
AcDbLine
 10
-45.74855100000013
 20
195.763267448301
 30
0.0
 11
-39.74855100000013
 21
195.763267448301
 31
0.0
  0
LINE
  5
6B9F
102
{ACAD_REACTORS
330
6C4D
102
}
330
A
100
AcDbEntity
  8
本体
  6
Continuous
 62
    84
100
AcDbLine
 10
-39.74855100000013
 20
195.763267448301
 30
0.0
 11
-39.74855100000013
 21
189.763267448301
 31
0.0
  0
LINE
  5
6BA0
102
{ACAD_REACTORS
330
6C4D
102
}
330
A
100
AcDbEntity
  8
本体
  6
Continuous
 62
    84
100
AcDbLine
 10
-39.23855100000013
 20
196.263267448301
 30
0.0
 11
-39.23855100000013
 21
190.263267448301
 31
0.0
  0
LINE
  5
6BA1
102
{ACAD_REACTORS
330
6C4D
102
}
330
A
100
AcDbEntity
  8
本体
  6
Continuous
 62
    84
100
AcDbLine
 10
-45.23855100000014
 20
196.263267448301
 30
0.0
 11
-39.23855100000013
 21
196.263267448301
 31
0.0
  0
MTEXT
  5
6BA2
102
{ACAD_REACTORS
330
6C4D
102
}
330
A
100
AcDbEntity
  8
本体
  6
Continuous
 62
    84
100
AcDbMText
 10
-45.36855100000024
 20
194.763267448301
 30
0.0
 40
3.0
 41
0.0
 71
     1
 72
     1
  1
\T0.750;\W1.042;\A1;切
 73
     1
 44
1.0
  0
LINE
  5
6BA3
102
{ACAD_REACTORS
330
6C4D
102
}
330
A
100
AcDbEntity
  8
本体
  6
Continuous
 62
    84
100
AcDbLine
 10
-15.74855100000013
 20
214.763267448301
 30
0.0
 11
-15.74855100000013
 21
189.763267448301
 31
0.0
  0
LINE
  5
6BA4
102
{ACAD_REACTORS
330
6C4D
102
}
330
A
100
AcDbEntity
  8
本体
  6
Continuous
 62
    84
100
AcDbLine
 10
-15.74855100000013
 20
214.763267448301
 30
0.0
 11
-15.74855100000013
 21
189.763267448301
 31
0.0
  0
LINE
  5
6BA5
102
{ACAD_REACTORS
330
6C4D
102
}
330
A
100
AcDbEntity
  8
本体
  6
Continuous
 62
    84
100
AcDbLine
 10
-22.73855100000014
 20
209.763267448301
 30
0.0
 11
-22.73855100000014
 21
194.763267448301
 31
0.0
  0
LINE
  5
6BA6
102
{ACAD_REACTORS
330
6C4D
102
}
330
A
100
AcDbEntity
  8
本体
  6
Continuous
 62
    84
100
AcDbLine
 10
-32.73855100000012
 20
209.763267448301
 30
0.0
 11
-32.73855100000012
 21
194.763267448301
 31
0.0
  0
LINE
  5
6BA7
102
{ACAD_REACTORS
330
6C4D
102
}
330
A
100
AcDbEntity
  8
本体
  6
Continuous
 62
    84
100
AcDbLine
 10
-35.23855100000013
 20
214.263267448301
 30
0.0
 11
-35.23855100000013
 21
190.263267448301
 31
0.0
  0
LINE
  5
6BA8
102
{ACAD_REACTORS
330
6C4D
102
}
330
A
100
AcDbEntity
  8
本体
  6
Continuous
 62
    84
100
AcDbLine
 10
-20.23855100000014
 20
214.263267448301
 30
0.0
 11
-20.23855100000014
 21
190.263267448301
 31
0.0
  0
LINE
  5
6BA9
102
{ACAD_REACTORS
330
6C4D
102
}
330
A
100
AcDbEntity
  8
本体
  6
Continuous
 62
    84
100
AcDbLine
 10
-16.23855100000014
 20
214.263267448301
 30
0.0
 11
-16.23855100000014
 21
190.263267448301
 31
0.0
  0
LINE
  5
6BAA
102
{ACAD_REACTORS
330
6C4D
102
}
330
A
100
AcDbEntity
  8
本体
  6
Continuous
 62
    84
100
AcDbLine
 10
-20.23855100000014
 20
192.763267448301
 30
0.0
 11
-20.23855100000014
 21
211.763267448301
 31
0.0
  0
LINE
  5
6BAB
102
{ACAD_REACTORS
330
6C4D
102
}
330
A
100
AcDbEntity
  8
本体
  6
Continuous
 62
    84
100
AcDbLine
 10
-35.23855100000013
 20
192.763267448301
 30
0.0
 11
-35.23855100000013
 21
211.763267448301
 31
0.0
  0
LINE
  5
6BAC
102
{ACAD_REACTORS
330
6C4D
102
}
330
A
100
AcDbEntity
  8
本体
  6
Continuous
 62
    84
100
AcDbLine
 10
-27.53855100000009
 20
205.513267448301
 30
0.0
 11
-27.53855100000009
 21
202.7632674483009
 31
0.0
  0
LINE
  5
6BAD
102
{ACAD_REACTORS
330
6C4D
102
}
330
A
100
AcDbEntity
  8
本体
  6
Continuous
 62
    84
100
AcDbLine
 10
-27.93855100000019
 20
205.513267448301
 30
0.0
 11
-27.93855100000019
 21
202.7632674483009
 31
0.0
  0
SOLID
  5
6BAE
102
{ACAD_REACTORS
330
6C4D
102
}
330
A
100
AcDbEntity
  8
本体
  6
Continuous
 62
    84
100
AcDbTrace
 10
-27.53855100000009
 20
202.7632674483009
 30
0.0
 11
-27.53855100000009
 21
205.5132674483008
 31
0.0
 12
-27.93855100000019
 22
202.7632674483009
 32
0.0
 13
-27.93855100000019
 23
205.5132674483008
 33
0.0
  0
LINE
  5
6BAF
102
{ACAD_REACTORS
330
6C4D
102
}
330
A
100
AcDbEntity
  8
本体
  6
Continuous
 62
    84
100
AcDbLine
 10
-32.73855100000012
 20
209.763267448301
 30
0.0
 11
-22.73855100000014
 21
209.763267448301
 31
0.0
  0
LINE
  5
6BB0
102
{ACAD_REACTORS
330
6C4D
102
}
330
A
100
AcDbEntity
  8
本体
  6
Continuous
 62
    84
100
AcDbLine
 10
-35.23855100000013
 20
212.763267448301
 30
0.0
 11
-20.23855100000014
 21
212.763267448301
 31
0.0
  0
LINE
  5
6BB1
102
{ACAD_REACTORS
330
6C4D
102
}
330
A
100
AcDbEntity
  8
本体
  6
Continuous
 62
    84
100
AcDbLine
 10
-21.23855100000012
 20
212.763267448301
 30
0.0
 11
-34.23855100000013
 21
212.763267448301
 31
0.0
  0
LINE
  5
6BB2
102
{ACAD_REACTORS
330
6C4D
102
}
330
A
100
AcDbEntity
  8
本体
  6
Continuous
 62
    84
100
AcDbLine
 10
-22.73855100000014
 20
206.513267448301
 30
0.0
 11
-32.73855100000012
 21
206.513267448301
 31
0.0
  0
MTEXT
  5
6BB3
102
{ACAD_REACTORS
330
6C4D
102
}
330
A
100
AcDbEntity
  8
本体
  6
Continuous
 62
    84
100
AcDbMText
 10
-31.72542700000008
 20
218.3632674483008
 30
0.0
 40
3.0
 41
0.0
 71
     1
 72
     1
  1
\T0.794;\W1.142;\A1;電 源
 73
     1
 44
1.0
  0
LINE
  5
6BB4
102
{ACAD_REACTORS
330
6C4D
102
}
330
A
100
AcDbEntity
  8
本体
  6
Continuous
 62
    84
100
AcDbLine
 10
-27.53855100000009
 20
205.513267448301
 30
0.0
 11
-27.93855100000019
 21
205.513267448301
 31
0.0
  0
LINE
  5
6BB5
102
{ACAD_REACTORS
330
6C4D
102
}
330
A
100
AcDbEntity
  8
本体
  6
Continuous
 62
    84
100
AcDbLine
 10
-20.23855100000014
 20
205.2632674483009
 30
0.0
 11
-16.23855100000014
 21
205.2632674483009
 31
0.0
  0
ARC
  5
6BB6
102
{ACAD_REACTORS
330
6C4D
102
}
330
A
100
AcDbEntity
  8
本体
  6
Continuous
 62
    84
100
AcDbCircle
 10
-21.23855100000012
 20
211.7632674483008
 30
0.0
 40
1.0
100
AcDbArc
 50
0.0
 51
89.99999999999998
  0
LINE
  5
6BB7
102
{ACAD_REACTORS
330
6C4D
102
}
330
A
100
AcDbEntity
  8
本体
  6
Continuous
 62
    84
100
AcDbLine
 10
-32.73855100000012
 20
194.763267448301
 30
0.0
 11
-22.73855100000014
 21
194.763267448301
 31
0.0
  0
LINE
  5
6BB8
102
{ACAD_REACTORS
330
6C4D
102
}
330
A
100
AcDbEntity
  8
本体
  6
Continuous
 62
    84
100
AcDbLine
 10
-35.23855100000013
 20
191.763267448301
 30
0.0
 11
-20.23855100000014
 21
191.763267448301
 31
0.0
  0
LINE
  5
6BB9
102
{ACAD_REACTORS
330
6C4D
102
}
330
A
100
AcDbEntity
  8
本体
  6
Continuous
 62
    84
100
AcDbLine
 10
-21.23855100000012
 20
191.763267448301
 30
0.0
 11
-34.23855100000013
 21
191.763267448301
 31
0.0
  0
CIRCLE
  5
6BBA
102
{ACAD_REACTORS
330
6C4D
102
}
330
A
100
AcDbEntity
  8
本体
  6
Continuous
 62
    84
100
AcDbCircle
 10
-27.73855100000014
 20
196.7632674483009
 30
0.0
 40
1.0
  0
LINE
  5
6BBB
102
{ACAD_REACTORS
330
6C4D
102
}
330
A
100
AcDbEntity
  8
本体
  6
Continuous
 62
    84
100
AcDbLine
 10
-27.53855100000009
 20
202.7632674483009
 30
0.0
 11
-27.93855100000019
 21
202.7632674483009
 31
0.0
  0
LINE
  5
6BBC
102
{ACAD_REACTORS
330
6C4D
102
}
330
A
100
AcDbEntity
  8
本体
  6
Continuous
 62
    84
100
AcDbLine
 10
-20.23855100000014
 20
199.263267448301
 30
0.0
 11
-16.23855100000014
 21
199.263267448301
 31
0.0
  0
ARC
  5
6BBD
102
{ACAD_REACTORS
330
6C4D
102
}
330
A
100
AcDbEntity
  8
本体
  6
Continuous
 62
    84
100
AcDbCircle
 10
-21.23855100000012
 20
192.7632674483009
 30
0.0
 40
1.0
100
AcDbArc
 50
270.0
 51
0.0
  0
ARC
  5
6BC8
102
{ACAD_REACTORS
330
6C4D
102
}
330
A
100
AcDbEntity
  8
本体
  6
Continuous
 62
    84
100
AcDbCircle
 10
-1.248551000000132
 20
187.7632674483009
 30
0.0
 40
2.0
100
AcDbArc
 50
270.0
 51
0.0
  0
LINE
  5
6BCA
330
A
100
AcDbEntity
  8
本体
  6
Continuous
 62
    84
100
AcDbLine
 10
301.1299213345951
 20
268.2657594576344
 30
0.0
 11
292.129921334595
 21
264.7657594576343
 31
0.0
  0
LINE
  5
6BCC
330
A
100
AcDbEntity
  8
本体
  6
Continuous
 62
    84
100
AcDbLine
 10
286.1299213345951
 20
264.7657594576343
 30
0.0
 11
292.129921334595
 21
264.7657594576343
 31
0.0
  0
LINE
  5
6BCD
330
A
100
AcDbEntity
  8
本体
  6
Continuous
 62
    84
100
AcDbLine
 10
277.1299213345951
 20
268.2657594576344
 30
0.0
 11
286.1299213345951
 21
264.7657594576343
 31
0.0
  0
LINE
  5
6BCE
330
A
100
AcDbEntity
  8
本体
  6
Continuous
 62
    84
100
AcDbLine
 10
277.1299213345951
 20
269.2657594576343
 30
0.0
 11
277.1299213345951
 21
268.2657594576344
 31
0.0
  0
LINE
  5
6BCF
330
A
100
AcDbEntity
  8
本体
  6
Continuous
 62
    84
100
AcDbLine
 10
301.1299213345951
 20
269.2657594576343
 30
0.0
 11
301.1299213345951
 21
268.2657594576344
 31
0.0
  0
ARC
  5
6C4A
330
A
100
AcDbEntity
  8
本体
  6
Continuous
 62
    84
100
AcDbCircle
 10
-15.74855099999979
 20
517.6655855374315
 30
0.0
 40
5.5
100
AcDbArc
 50
30.27264100000171
 51
149.7273589999981
  0
LINE
  5
6F91
102
{ACAD_REACTORS
330
6FF1
102
}
330
A
100
AcDbEntity
  8
ear
  6
Continuous
100
AcDbLine
 10
243.2514489999999
 20
532.8655855374314
 30
0.0
 11
243.2514489999999
 21
492.8655855374315
 31
0.0
  0
LINE
  5
6F92
102
{ACAD_REACTORS
330
6FF1
102
}
330
A
100
AcDbEntity
  8
ear
  6
Continuous
100
AcDbLine
 10
2.251449000000093
 20
490.8655855374314
 30
0.0
 11
241.2514489999999
 21
490.8655855374314
 31
0.0
  0
LINE
  5
6F93
102
{ACAD_REACTORS
330
6FF1
102
}
330
A
100
AcDbEntity
  8
ear
  6
Continuous
100
AcDbLine
 10
2.251449000000093
 20
534.8655855374314
 30
0.0
 11
241.2514489999999
 21
534.8655855374314
 31
0.0
  0
LINE
  5
6F94
102
{ACAD_REACTORS
330
6FF1
102
}
330
A
100
AcDbEntity
  8
ear
  6
Continuous
100
AcDbLine
 10
4.251449000000093
 20
496.2475515374315
 30
0.0
 11
4.251449000000093
 21
503.4836195374309
 31
0.0
  0
LINE
  5
6F95
102
{ACAD_REACTORS
330
6FF1
102
}
330
A
100
AcDbEntity
  8
ear
  6
Continuous
100
AcDbLine
 10
2.251449000000093
 20
534.8655855374314
 30
0.0
 11
2.251449000000093
 21
490.8655855374314
 31
0.0
  0
LINE
  5
6F96
102
{ACAD_REACTORS
330
6FF1
102
}
330
A
100
AcDbEntity
  8
ear
  6
Continuous
100
AcDbLine
 10
4.251449000000093
 20
490.8655855374314
 30
0.0
 11
4.251449000000093
 21
534.8655855374314
 31
0.0
  0
ARC
  5
6F97
102
{ACAD_REACTORS
330
6FF1
102
}
330
A
100
AcDbEntity
  8
ear
  6
Continuous
100
AcDbCircle
 10
-1.248551000000019
 20
499.8655855374313
 30
0.0
 40
8.0
100
AcDbArc
 50
330.6269609999989
 51
29.37303900000097
  0
LINE
  5
6F98
102
{ACAD_REACTORS
330
6FF1
102
}
330
A
100
AcDbEntity
  8
ear
  6
Continuous
100
AcDbLine
 10
4.251449000000093
 20
492.8655855374315
 30
0.0
 11
2.251449000000093
 21
492.8655855374315
 31
0.0
  0
ARC
  5
6F99
102
{ACAD_REACTORS
330
6FF1
102
}
330
A
100
AcDbEntity
  8
ear
  6
Continuous
100
AcDbCircle
 10
5.251449000000093
 20
497.3655855374314
 30
0.0
 40
1.5
100
AcDbArc
 50
228.1896850000005
 51
288.3228949999987
  0
ARC
  5
6F9A
102
{ACAD_REACTORS
330
6FF1
102
}
330
A
100
AcDbEntity
  8
ear
  6
Continuous
100
AcDbCircle
 10
5.251449000000093
 20
502.3655855374314
 30
0.0
 40
1.5
100
AcDbArc
 50
71.67710500000123
 51
131.8103149999994
  0
ARC
  5
6F9B
102
{ACAD_REACTORS
330
6FF1
102
}
330
A
100
AcDbEntity
  8
ear
  6
Continuous
100
AcDbCircle
 10
5.251162274129113
 20
528.2898594837353
 30
0.0
 40
1.5
100
AcDbArc
 50
71.67710500000123
 51
131.8103149999994
  0
ARC
  5
6F9C
102
{ACAD_REACTORS
330
6FF1
102
}
330
A
100
AcDbEntity
  8
ear
  6
Continuous
100
AcDbCircle
 10
5.251162274129113
 20
523.2898594837353
 30
0.0
 40
1.5
100
AcDbArc
 50
228.1896850000005
 51
288.3228949999987
  0
ARC
  5
6F9D
102
{ACAD_REACTORS
330
6FF1
102
}
330
A
100
AcDbEntity
  8
ear
  6
Continuous
100
AcDbCircle
 10
-1.248837725870884
 20
525.7898594837355
 30
0.0
 40
8.0
100
AcDbArc
 50
330.6269609999989
 51
29.37303900000097
  0
LINE
  5
6F9E
102
{ACAD_REACTORS
330
6FF1
102
}
330
A
100
AcDbEntity
  8
ear
  6
Continuous
100
AcDbLine
 10
4.251162274129001
 20
522.1718254837354
 30
0.0
 11
4.251162274129001
 21
529.4078934837356
 31
0.0
  0
LINE
  5
6F9F
102
{ACAD_REACTORS
330
6FF1
102
}
330
A
100
AcDbEntity
  8
ear
  6
Continuous
100
AcDbLine
 10
4.251449000000093
 20
532.8655855374314
 30
0.0
 11
2.251449000000093
 21
532.8655855374314
 31
0.0
  0
ARC
  5
6FA0
102
{ACAD_REACTORS
330
6FF1
102
}
330
A
100
AcDbEntity
  8
ear
  6
Continuous
100
AcDbCircle
 10
233.2514489999999
 20
496.9905855374314
 30
0.0
 40
3.5
100
AcDbArc
 50
90.0
 51
270.0
  0
ARC
  5
6FA1
102
{ACAD_REACTORS
330
6FF1
102
}
330
A
100
AcDbEntity
  8
ear
  6
Continuous
100
AcDbCircle
 10
237.2514489999999
 20
496.9905855374314
 30
0.0
 40
3.5
100
AcDbArc
 50
270.0
 51
90.0
  0
LINE
  5
6FA2
102
{ACAD_REACTORS
330
6FF1
102
}
330
A
100
AcDbEntity
  8
ear
  6
CENTER
 48
0.5
100
AcDbLine
 10
235.2514489999999
 20
533.2405855374314
 30
0.0
 11
235.2514489999999
 21
492.4905855374314
 31
0.0
  0
LINE
  5
6FA3
102
{ACAD_REACTORS
330
6FF1
102
}
330
A
100
AcDbEntity
  8
ear
  6
CENTER
 48
0.2
100
AcDbLine
 10
241.7514489999999
 20
496.9905855374314
 30
0.0
 11
228.7514489999999
 21
496.9905855374314
 31
0.0
  0
LINE
  5
6FA4
102
{ACAD_REACTORS
330
6FF1
102
}
330
A
100
AcDbEntity
  8
ear
  6
Continuous
100
AcDbLine
 10
233.2514489999999
 20
493.4905855374315
 30
0.0
 11
237.2514489999999
 21
493.4905855374315
 31
0.0
  0
LINE
  5
6FA5
102
{ACAD_REACTORS
330
6FF1
102
}
330
A
100
AcDbEntity
  8
ear
  6
Continuous
100
AcDbLine
 10
243.2514489999999
 20
492.8655855374315
 30
0.0
 11
241.2514489999999
 21
490.8655855374314
 31
0.0
  0
ARC
  5
6FA6
102
{ACAD_REACTORS
330
6FF1
102
}
330
A
100
AcDbEntity
  8
ear
  6
Continuous
100
AcDbCircle
 10
233.2514489999999
 20
528.7405855374315
 30
0.0
 40
3.5
100
AcDbArc
 50
90.0
 51
270.0
  0
ARC
  5
6FA7
102
{ACAD_REACTORS
330
6FF1
102
}
330
A
100
AcDbEntity
  8
ear
  6
Continuous
100
AcDbCircle
 10
237.2514489999999
 20
528.7405855374315
 30
0.0
 40
3.5
100
AcDbArc
 50
270.0
 51
90.0
  0
LINE
  5
6FA8
102
{ACAD_REACTORS
330
6FF1
102
}
330
A
100
AcDbEntity
  8
ear
  6
Continuous
100
AcDbLine
 10
233.2514489999999
 20
525.2405855374314
 30
0.0
 11
237.2514489999999
 21
525.2405855374314
 31
0.0
  0
LINE
  5
6FA9
102
{ACAD_REACTORS
330
6FF1
102
}
330
A
100
AcDbEntity
  8
ear
  6
Continuous
100
AcDbLine
 10
233.2514489999999
 20
500.4905855374314
 30
0.0
 11
237.2514489999999
 21
500.4905855374314
 31
0.0
  0
LINE
  5
6FAA
102
{ACAD_REACTORS
330
6FF1
102
}
330
A
100
AcDbEntity
  8
ear
  6
CENTER
 48
0.2
100
AcDbLine
 10
241.7514489999999
 20
528.7405855374315
 30
0.0
 11
228.7514489999999
 21
528.7405855374315
 31
0.0
  0
LINE
  5
6FAB
102
{ACAD_REACTORS
330
6FF1
102
}
330
A
100
AcDbEntity
  8
ear
  6
Continuous
100
AcDbLine
 10
233.2514489999999
 20
532.2405855374314
 30
0.0
 11
237.2514489999999
 21
532.2405855374314
 31
0.0
  0
LINE
  5
6FAC
102
{ACAD_REACTORS
330
6FF1
102
}
330
A
100
AcDbEntity
  8
ear
  6
Continuous
100
AcDbLine
 10
241.2514489999999
 20
534.8655855374314
 30
0.0
 11
243.2514489999999
 21
532.8655855374314
 31
0.0
  0
LINE
  5
6FAD
102
{ACAD_REACTORS
330
6FF2
102
}
330
A
100
AcDbEntity
  8
ear
  6
Continuous
100
AcDbLine
 10
4.251448999999865
 20
269.2657594576347
 30
0.0
 11
243.2514489999998
 21
269.2657594576347
 31
0.0
  0
LINE
  5
6FAE
102
{ACAD_REACTORS
330
6FF2
102
}
330
A
100
AcDbEntity
  8
ear
  6
Continuous
100
AcDbLine
 10
2.251448999999865
 20
296.2657594576347
 30
0.0
 11
2.251448999999865
 21
271.2657594576347
 31
0.0
  0
LINE
  5
6FAF
102
{ACAD_REACTORS
330
6FF2
102
}
330
A
100
AcDbEntity
  8
ear
  6
Continuous
100
AcDbLine
 10
4.251448999999865
 20
296.2657594576347
 30
0.0
 11
4.251448999999865
 21
271.2657594576347
 31
0.0
  0
LINE
  5
6FB0
102
{ACAD_REACTORS
330
6FF2
102
}
330
A
100
AcDbEntity
  8
ear
  6
Continuous
100
AcDbLine
 10
4.251448999999865
 20
271.2657594576347
 30
0.0
 11
243.2514489999998
 21
271.2657594576347
 31
0.0
  0
ARC
  5
6FB1
102
{ACAD_REACTORS
330
6FF2
102
}
330
A
100
AcDbEntity
  8
ear
  6
Continuous
100
AcDbCircle
 10
4.251448999999865
 20
271.2657594576347
 30
0.0
 40
2.0
100
AcDbArc
 50
180.0
 51
270.0
  0
LINE
  5
6FB2
102
{ACAD_REACTORS
330
6FF2
102
}
330
A
100
AcDbEntity
  8
ear
  6
Continuous
100
AcDbLine
 10
243.2514489999998
 20
271.2657594576347
 30
0.0
 11
243.2514489999998
 21
269.2657594576347
 31
0.0
  0
LINE
  5
6FB3
102
{ACAD_REACTORS
330
6FF2
102
}
330
A
100
AcDbEntity
  8
ear
  6
Continuous
100
AcDbLine
 10
241.2514489999998
 20
271.2657594576347
 30
0.0
 11
241.2514489999998
 21
269.2657594576347
 31
0.0
  0
LINE
  5
6FB4
102
{ACAD_REACTORS
330
6FF2
102
}
330
A
100
AcDbEntity
  8
ear
  6
Continuous
100
AcDbLine
 10
4.252101331764492
 20
289.8837933988264
 30
0.0
 11
4.250796668235125
 21
282.6477255164423
 31
0.0
  0
ARC
  5
6FB5
102
{ACAD_REACTORS
330
6FF2
102
}
330
A
100
AcDbEntity
  8
ear
  6
Continuous
100
AcDbCircle
 10
5.250998233583572
 20
283.7655791982044
 30
0.0
 40
1.5
100
AcDbArc
 50
228.1793545671841
 51
288.3125645671806
  0
ARC
  5
6FB6
102
{ACAD_REACTORS
330
6FF2
102
}
330
A
100
AcDbEntity
  8
ear
  6
Continuous
100
AcDbCircle
 10
5.251899733907862
 20
288.7655791169347
 30
0.0
 40
1.5
100
AcDbArc
 50
71.66677456718097
 51
131.799984567183
  0
ARC
  5
6FB7
102
{ACAD_REACTORS
330
6FF2
102
}
330
A
100
AcDbEntity
  8
ear
  6
Continuous
100
AcDbCircle
 10
-1.24855091060283
 20
286.2667511079913
 30
0.0
 40
8.0
100
AcDbArc
 50
330.6166305671823
 51
29.36270856718326
  0
LINE
  5
6FB8
102
{ACAD_REACTORS
330
6FF2
102
}
330
A
100
AcDbEntity
  8
ear
  6
Continuous
100
AcDbLine
 10
2.251448999999865
 20
296.2657594576347
 30
0.0
 11
4.251448999999865
 21
296.2657594576347
 31
0.0
  0
LINE
  5
6FB9
102
{ACAD_REACTORS
330
6FF2
102
}
330
A
100
AcDbEntity
  8
ear
  6
Continuous
100
AcDbLine
 10
2.251448999999865
 20
294.2657594576347
 30
0.0
 11
4.251448999999865
 21
294.2657594576347
 31
0.0
  0
LINE
  5
6FBA
102
{ACAD_REACTORS
330
6FF3
102
}
330
A
100
AcDbEntity
  8
ear
  6
Continuous
100
AcDbLine
 10
2.251448999999865
 20
228.2632674483008
 30
0.0
 11
241.2514489999998
 21
228.2632674483008
 31
0.0
  0
LINE
  5
6FBB
102
{ACAD_REACTORS
330
6FF3
102
}
330
A
100
AcDbEntity
  8
ear
  6
Continuous
100
AcDbLine
 10
2.251448999999865
 20
184.263267448301
 30
0.0
 11
241.2514489999998
 21
184.263267448301
 31
0.0
  0
LINE
  5
6FBC
102
{ACAD_REACTORS
330
6FF3
102
}
330
A
100
AcDbEntity
  8
ear
  6
Continuous
100
AcDbLine
 10
2.251448999999865
 20
228.2632674483008
 30
0.0
 11
2.251448999999865
 21
184.263267448301
 31
0.0
  0
DIMENSION
  5
6FBD
102
{ACAD_REACTORS
330
6FF3
102
}
330
A
100
AcDbEntity
  8
寸法
  6
Continuous
100
AcDbDimension
  2
*D48
 10
234.6569087191467
 20
192.7373865876873
 30
0.0
 11
286.5808841052601
 21
165.676809505189
 31
0.0
 70
   163
  1
4-10×<>(長丸)
 71
     5
 42
7.000000000000142
  3
ARTICS
100
AcDbDiametricDimension
 15
239.8459892808528
 25
188.0391483089144
 35
0.0
 40
0.0
1001
ACAD
1000
DSTYLE
1002
{
1070
   141
1040
0.0
1070
   172
1070
     0
1002
}
  0
LINE
  5
6FBE
102
{ACAD_REACTORS
330
6FF3
102
}
330
A
100
AcDbEntity
  8
ear
  6
Continuous
100
AcDbLine
 10
243.2514489999998
 20
226.2632674483008
 30
0.0
 11
243.2514489999998
 21
186.2632674483009
 31
0.0
  0
LINE
  5
6FBF
102
{ACAD_REACTORS
330
6FF3
102
}
330
A
100
AcDbEntity
  8
ear
  6
CENTER
 48
0.5
100
AcDbLine
 10
235.2514489999998
 20
226.638267448301
 30
0.0
 11
235.2514489999998
 21
185.8882674483009
 31
0.0
  0
LINE
  5
6FC0
102
{ACAD_REACTORS
330
6FF3
102
}
330
A
100
AcDbEntity
  8
ear
  6
Continuous
100
AcDbLine
 10
233.2514489999998
 20
193.8882674483009
 30
0.0
 11
237.2514489999998
 21
193.8882674483009
 31
0.0
  0
LINE
  5
6FC1
102
{ACAD_REACTORS
330
6FF3
102
}
330
A
100
AcDbEntity
  8
ear
  6
Continuous
100
AcDbLine
 10
233.2514489999998
 20
186.8882674483008
 30
0.0
 11
237.2514489999998
 21
186.8882674483008
 31
0.0
  0
LINE
  5
6FC2
102
{ACAD_REACTORS
330
6FF3
102
}
330
A
100
AcDbEntity
  8
ear
  6
CENTER
 48
0.2
100
AcDbLine
 10
241.7514489999998
 20
190.3882674483009
 30
0.0
 11
228.7514489999998
 21
190.3882674483009
 31
0.0
  0
ARC
  5
6FC3
102
{ACAD_REACTORS
330
6FF3
102
}
330
A
100
AcDbEntity
  8
ear
  6
Continuous
100
AcDbCircle
 10
233.2514489999998
 20
190.3882674483009
 30
0.0
 40
3.5
100
AcDbArc
 50
90.0
 51
270.0
  0
ARC
  5
6FC4
102
{ACAD_REACTORS
330
6FF3
102
}
330
A
100
AcDbEntity
  8
ear
  6
Continuous
100
AcDbCircle
 10
237.2514489999998
 20
190.3882674483009
 30
0.0
 40
3.5
100
AcDbArc
 50
270.0
 51
90.0
  0
LINE
  5
6FC5
102
{ACAD_REACTORS
330
6FF3
102
}
330
A
100
AcDbEntity
  8
ear
  6
Continuous
100
AcDbLine
 10
243.2514489999998
 20
186.2632674483009
 30
0.0
 11
241.2514489999998
 21
184.263267448301
 31
0.0
  0
LINE
  5
6FC6
102
{ACAD_REACTORS
330
6FF3
102
}
330
A
100
AcDbEntity
  8
ear
  6
Continuous
100
AcDbLine
 10
233.2514489999998
 20
225.6382674483007
 30
0.0
 11
237.2514489999998
 21
225.6382674483007
 31
0.0
  0
LINE
  5
6FC7
102
{ACAD_REACTORS
330
6FF3
102
}
330
A
100
AcDbEntity
  8
ear
  6
Continuous
100
AcDbLine
 10
233.2514489999998
 20
218.6382674483009
 30
0.0
 11
237.2514489999998
 21
218.6382674483009
 31
0.0
  0
LINE
  5
6FC8
102
{ACAD_REACTORS
330
6FF3
102
}
330
A
100
AcDbEntity
  8
ear
  6
CENTER
 48
0.2
100
AcDbLine
 10
241.7514489999998
 20
222.138267448301
 30
0.0
 11
228.7514489999998
 21
222.138267448301
 31
0.0
  0
ARC
  5
6FC9
102
{ACAD_REACTORS
330
6FF3
102
}
330
A
100
AcDbEntity
  8
ear
  6
Continuous
100
AcDbCircle
 10
233.2514489999998
 20
222.138267448301
 30
0.0
 40
3.5
100
AcDbArc
 50
90.0
 51
270.0
  0
LINE
  5
6FCA
102
{ACAD_REACTORS
330
6FF3
102
}
330
A
100
AcDbEntity
  8
ear
  6
Continuous
100
AcDbLine
 10
241.2514489999998
 20
228.2632674483008
 30
0.0
 11
243.2514489999998
 21
226.2632674483008
 31
0.0
  0
ARC
  5
6FCB
102
{ACAD_REACTORS
330
6FF3
102
}
330
A
100
AcDbEntity
  8
ear
  6
Continuous
100
AcDbCircle
 10
237.2514489999998
 20
222.138267448301
 30
0.0
 40
3.5
100
AcDbArc
 50
270.0
 51
90.0
  0
DIMENSION
  5
6FCC
330
A
100
AcDbEntity
  8
寸法
  6
Continuous
100
AcDbDimension
  2
*D49
 10
243.2514489999998
 20
164.78951673991
 30
0.0
 11
122.7514489999999
 21
170.3599289710076
 31
0.0
 70
   160
  1
<>
 71
     5
 42
241.0
  3
ARTICS
100
AcDbAlignedDimension
 13
2.251448999999865
 23
184.263267448301
 33
0.0
 14
243.2514489999998
 24
184.9558157186691
 34
0.0
100
AcDbRotatedDimension
1001
ACAD
1000
DSTYLE
1002
{
1070
   140
1040
8.0
1070
   279
1070
     2
1070
   340
1005
3E4
1002
}
  0
ARC
  5
700C
330
A
100
AcDbEntity
  8
本体
  6
Continuous
 62
    84
100
AcDbCircle
 10
-3.553550999998662
 20
394.2657594576342
 30
0.0
 40
7.799999999999998
100
AcDbArc
 50
337.3801300000002
 51
22.61985999999959
  0
ARC
  5
700D
330
A
100
AcDbEntity
  8
本体
  6
Continuous
 62
    84
100
AcDbCircle
 10
2.946449000001337
 20
392.3907594576342
 30
0.0
 40
1.324999999999999
100
AcDbArc
 50
238.1092079999992
 51
301.8907899999978
  0
ARC
  5
700E
330
A
100
AcDbEntity
  8
本体
  6
Continuous
 62
    84
100
AcDbCircle
 10
2.946449000001337
 20
396.1407594576342
 30
0.0
 40
1.324999999999999
100
AcDbArc
 50
58.10919999999881
 51
121.8907899999978
  0
ARC
  5
700F
330
A
100
AcDbEntity
  8
本体
  6
Continuous
 62
    84
100
AcDbCircle
 10
-3.548551000000031
 20
512.8655855374314
 30
0.0
 40
7.799999999999998
100
AcDbArc
 50
337.3801300000002
 51
22.61985999999959
  0
ARC
  5
7010
330
A
100
AcDbEntity
  8
本体
  6
Continuous
 62
    84
100
AcDbCircle
 10
2.951448999999968
 20
510.9905855374313
 30
0.0
 40
1.324999999999999
100
AcDbArc
 50
238.1092079999992
 51
301.8907899999978
  0
ARC
  5
7011
330
A
100
AcDbEntity
  8
本体
  6
Continuous
 62
    84
100
AcDbCircle
 10
2.951448999999968
 20
514.7405855374314
 30
0.0
 40
1.324999999999999
100
AcDbArc
 50
58.10919999999881
 51
121.8907899999978
  0
VIEWPORT
  5
EDA
330
ED3
100
AcDbEntity
 67
     1
  8
0
  6
Continuous
100
AcDbViewport
 10
367.2261698744609
 20
96.1888533564695
 30
0.0
 40
661.1210501793493
 41
329.464744343521
 68
     1
 69
     1
 12
367.2261698744609
 22
96.1888533564695
 13
0.0
 23
0.0
 14
10.0
 24
10.0
 15
10.0
 25
10.0
 16
0.0
 26
0.0
 36
1.0
 17
0.0
 27
0.0
 37
0.0
 42
50.0
 43
0.0
 44
0.0
 45
329.464744343521
 50
0.0
 51
0.0
 72
   100
 90
    32800
  1

281
     0
 71
     1
 74
     0
110
0.0
120
0.0
130
0.0
111
1.0
121
0.0
131
0.0
112
0.0
122
1.0
132
0.0
 79
     0
146
0.0
  0
VIEWPORT
  5
EDC
330
ED3
100
AcDbEntity
 67
     1
  8
DEFPOINTS
  6
Continuous
100
AcDbViewport
 10
204.3821684669572
 20
309.1239178220781
 30
0.0
 40
408.319122392205
 41
525.3404735971537
 68
     2
 69
     2
 12
12.91478162994477
 22
519.0708476282551
 13
0.0
 23
0.0
 14
1.0
 24
1.0
 15
0.0
 25
0.0
 16
0.0
 26
0.0
 36
1.0
 17
0.0
 27
0.0
 37
0.0
 42
50.0
 43
0.0
 44
0.0
 45
1050.680947654407
 50
0.0
 51
0.0
 72
   100
 90
    32800
  1

281
     0
 71
     1
 74
     0
110
0.0
120
0.0
130
0.0
111
1.0
121
0.0
131
0.0
112
0.0
122
1.0
132
0.0
 79
     0
146
0.0
  0
INSERT
  5
F88
330
ED3
100
AcDbEntity
 67
     1
  8
0
  6
Continuous
100
AcDbBlockReference
  2
A2zuwaku_tate_ban
 10
5.30156102616138
 20
9.885471471594199
 30
0.0
  0
MTEXT
  5
F94
330
ED3
100
AcDbEntity
 67
     1
  8
0
  6
Continuous
 62
     4
100
AcDbMText
 10
318.2810274694511
 20
29.62801559024148
 30
0.0
 40
3.0
 41
88.3942
 71
     1
 72
     5
  1
ＶＳＣ－１１０　１台ラック取付外観図（ＥＩＡ）
 73
     1
 44
1.0
  0
MTEXT
  5
F95
330
ED3
100
AcDbEntity
 67
     1
  8
0
  6
Continuous
 62
     4
100
AcDbMText
 10
236.1768066833501
 20
28.97142084054678
 30
0.0
 40
2.5
 41
19.7255
 71
     1
 72
     5
  1
2011.02.09
 73
     1
 44
1.0
  0
MTEXT
  5
F97
330
ED3
100
AcDbEntity
 67
     1
  8
0
  6
Continuous
 62
     4
100
AcDbMText
 10
298.8347240240845
 20
34.10356774183002
 30
0.0
 40
4.1656
 41
13.0798
 71
     1
 72
     5
  1
１／２
 73
     1
 44
1.0
  0
ENDSEC
  0
SECTION
  2
OBJECTS
  0
DICTIONARY
  5
19
330
0
100
AcDbDictionary
281
     1
  3
ACAD_GROUP
350
1A
  3
ACAD_LAYOUT
350
3E7
  3
ACAD_MLINESTYLE
350
1B
  3
ACAD_PLOTSETTINGS
350
3E8
  3
ACAD_PLOTSTYLENAME
350
3E5
  3
AcadDim
350
CFA
  0
DICTIONARY
  5
1A
102
{ACAD_REACTORS
330
19
102
}
330
19
100
AcDbDictionary
281
     1
  3
*A1
350
243D
  3
*A2
350
244B
  3
*A3
350
2720
  3
*A4
350
28E8
  3
*A5
350
297E
  3
*A6
350
297F
  3
*A7
350
2980
  3
*A8
350
29D4
  3
*A9
350
662E
  3
*A10
350
662F
  3
*A11
350
6630
  3
*A14
350
6C4D
  3
*A15
350
6CC3
  3
*A16
350
6FF1
  3
*A17
350
6FF2
  3
*A18
350
6FF3
  0
DICTIONARY
  5
3E7
102
{ACAD_REACTORS
330
19
102
}
330
19
100
AcDbDictionary
281
     1
  3
Model
350
3E9
  3
ラック取付外観図
350
ED4
  0
DICTIONARY
  5
1B
102
{ACAD_REACTORS
330
19
102
}
330
19
100
AcDbDictionary
281
     1
  3
STANDARD
350
1C
  0
DICTIONARY
  5
3E8
102
{ACAD_REACTORS
330
19
102
}
330
19
100
AcDbDictionary
281
     1
  0
ACDBDICTIONARYWDFLT
  5
3E5
102
{ACAD_REACTORS
330
19
102
}
330
19
100
AcDbDictionary
281
     1
  3
Normal
350
3E6
100
AcDbDictionaryWithDefault
340
3E6
  0
XRECORD
  5
CFA
102
{ACAD_REACTORS
330
19
102
}
330
19
100
AcDbXrecord
280
     1
 90
   990106
  3

 60
     0
 61
     0
 62
     1
 63
     3
 64
     1
 65
     0
 66
     0
 67
     3
 68
     1
 69
     0
 70
     0
 71
     0
 72
     0
 40
0.0
170
     2
340
1927
  0
GROUP
  5
243D
102
{ACAD_REACTORS
330
1A
102
}
330
1A
100
AcDbGroup
300

 70
     1
 71
     1
  0
GROUP
  5
244B
102
{ACAD_REACTORS
330
1A
102
}
330
1A
100
AcDbGroup
300

 70
     1
 71
     1
340
243E
340
243F
340
2442
340
2443
340
2444
340
2440
340
2441
340
2445
340
2448
340
2446
340
2447
340
2449
340
244A
  0
GROUP
  5
2720
102
{ACAD_REACTORS
330
1A
102
}
330
1A
100
AcDbGroup
300

 70
     1
 71
     1
340
26E0
340
26E2
340
26DE
340
26E1
340
26E3
340
26F5
340
26F4
340
26EE
340
26ED
340
26E8
340
26E7
340
26EC
340
26E5
340
26F3
340
26E9
340
26F2
340
26F1
340
26F0
340
26EF
340
26F9
340
26F8
340
26F7
340
26F6
340
26EB
340
26EA
340
26DF
340
26E4
340
2712
340
2716
340
2711
340
2710
340
2719
340
2718
340
2717
340
2713
340
270F
340
271F
340
271E
340
271D
340
271C
340
271B
340
271A
340
2715
340
2714
340
270E
340
270D
340
26E6
  0
GROUP
  5
28E8
102
{ACAD_REACTORS
330
1A
102
}
330
1A
100
AcDbGroup
300

 70
     1
 71
     1
340
286B
340
286C
340
286D
340
2872
340
2876
340
288B
340
288C
340
287D
340
287E
340
2873
340
2874
340
287C
340
2885
340
288A
340
2871
340
2878
340
2879
340
287A
340
287B
340
2886
340
2887
340
2888
340
2889
340
286F
340
2870
340
288D
340
2897
340
2891
340
2898
340
2892
340
2895
340
2899
340
289A
340
289B
340
2896
340
2893
340
288E
340
288F
340
289F
340
28A0
340
28A1
340
28A2
340
2890
340
289D
340
289E
340
289C
340
28A3
  0
GROUP
  5
297E
102
{ACAD_REACTORS
330
1A
102
}
330
1A
100
AcDbGroup
300

 70
     1
 71
     1
  0
GROUP
  5
297F
102
{ACAD_REACTORS
330
1A
102
}
330
1A
100
AcDbGroup
300

 70
     1
 71
     1
  0
GROUP
  5
2980
102
{ACAD_REACTORS
330
1A
102
}
330
1A
100
AcDbGroup
300

 70
     1
 71
     1
  0
GROUP
  5
29D4
102
{ACAD_REACTORS
330
1A
102
}
330
1A
100
AcDbGroup
300

 70
     1
 71
     1
  0
GROUP
  5
662E
102
{ACAD_REACTORS
330
1A
102
}
330
1A
100
AcDbGroup
300

 70
     1
 71
     1
  0
GROUP
  5
662F
102
{ACAD_REACTORS
330
1A
102
}
330
1A
100
AcDbGroup
300

 70
     1
 71
     1
  0
GROUP
  5
6630
102
{ACAD_REACTORS
330
1A
102
}
330
1A
100
AcDbGroup
300

 70
     1
 71
     1
  0
GROUP
  5
6C4D
102
{ACAD_REACTORS
330
1A
102
}
330
1A
100
AcDbGroup
300

 70
     1
 71
     1
340
6B8B
340
6B87
340
6B85
340
6BBC
340
6BB5
340
6B8A
340
6B86
340
6B84
340
6927
340
6926
340
6925
340
6917
340
6916
340
6915
340
6914
340
6B4C
340
6B49
340
6B4B
340
6B4A
340
69C5
340
69C4
340
69D3
340
69CA
340
69CB
340
69D0
340
69CE
340
6B4D
340
6B4F
340
6B53
340
6B52
340
6B51
340
6B50
340
6B4E
340
6B5F
340
6B5E
340
6B56
340
6B55
340
6B5A
340
6B54
340
6B60
340
6B5D
340
6B5C
340
6B5B
340
6B69
340
6B68
340
6B67
340
6B66
340
6B65
340
6B64
340
6B63
340
6B62
340
6B61
340
6B58
340
6B57
340
6B59
340
6B6A
340
6B70
340
6B6F
340
6B6E
340
6B6D
340
6B6C
340
6B6B
340
6BA1
340
6B9E
340
6B9D
340
6B98
340
6B88
340
6B99
340
6B96
340
6B95
340
6B94
340
6B89
340
6B90
340
6B8F
340
6B8E
340
6B9B
340
6BA2
340
6B97
340
6BAB
340
6BAA
340
6BA8
340
6BA7
340
6BA6
340
6BA5
340
6BAE
340
6BAD
340
6BAC
340
6B9A
340
6BB9
340
6BB8
340
6BB7
340
6BA0
340
6B9F
340
6B9C
340
6B8D
340
6BBB
340
6BBA
340
6BBD
340
6BB2
340
6BB1
340
6BB0
340
6BAF
340
6BB3
340
6B93
340
6B92
340
6B91
340
6B8C
340
6BB4
340
6BB6
340
6B72
340
6B71
340
6BA9
340
6BA4
340
6BA3
340
6BC8
340
6B81
340
6B83
  0
GROUP
  5
6CC3
102
{ACAD_REACTORS
330
1A
102
}
330
1A
100
AcDbGroup
300

 70
     1
 71
     1
  0
GROUP
  5
6FF1
102
{ACAD_REACTORS
330
1A
102
}
330
1A
100
AcDbGroup
300

 70
     1
 71
     1
340
6F93
340
6F92
340
6F9A
340
6F97
340
6F96
340
6F95
340
6F99
340
6F98
340
6F94
340
6F9E
340
6F9D
340
6F9C
340
6F9B
340
6F9F
340
6F91
340
6FA2
340
6FA9
340
6FA4
340
6FA3
340
6FA0
340
6FA1
340
6FA5
340
6FAB
340
6FAA
340
6FA8
340
6FA6
340
6FA7
340
6FAC
  0
GROUP
  5
6FF2
102
{ACAD_REACTORS
330
1A
102
}
330
1A
100
AcDbGroup
300

 70
     1
 71
     1
340
6FB0
340
6FAD
340
6FAF
340
6FAE
340
6FB1
340
6FB7
340
6FB6
340
6FB5
340
6FB4
340
6FB9
340
6FB8
340
6FB3
340
6FB2
  0
GROUP
  5
6FF3
102
{ACAD_REACTORS
330
1A
102
}
330
1A
100
AcDbGroup
300

 70
     1
 71
     1
340
6FC4
340
6FC3
340
6FBF
340
6FBE
340
6FBC
340
6FBB
340
6FC1
340
6FC5
340
6FBA
340
6FC8
340
6FC7
340
6FC6
340
6FC2
340
6FC0
340
6FC9
340
6FCA
340
6FCB
340
6FBD
  0
LAYOUT
  5
3E9
102
{ACAD_REACTORS
330
3E7
102
}
330
3E7
100
AcDbPlotSettings
  1

  2
NEC MULTINA ALPHA3520/2520/1820
  4

  6

 40
0.0
 41
0.0
 42
0.0
 43
0.0
 44
0.0
 45
0.0
 46
0.0
 47
0.0
 48
0.0
 49
0.0
140
0.0
141
0.0
142
1.0
143
1.0
 70
 11952
 72
     0
 73
     1
 74
     0
  7

 75
     0
147
1.0
148
4772.442760125988
149
9398.724200973246
100
AcDbLayout
  1
Model
 70
     1
 71
     0
 10
0.0
 20
0.0
 11
12.0
 21
9.0
 12
0.0
 22
0.0
 32
0.0
 14
0.0
 24
0.0
 34
0.0
 15
0.0
 25
0.0
 35
0.0
146
0.0
 13
0.0
 23
0.0
 33
0.0
 16
1.0
 26
0.0
 36
0.0
 17
0.0
 27
1.0
 37
0.0
 76
     0
330
A
  0
LAYOUT
  5
ED4
102
{ACAD_REACTORS
330
3E7
102
}
330
3E7
100
AcDbPlotSettings
  1

  2
Acrobat Distiller.pc3
  4
User66
  6

 40
3.174999952316281
 41
3.174999952316281
 42
3.17498779296875
 43
3.17498779296875
 44
420.0
 45
594.0
 46
0.0
 47
0.0
 48
0.0
 49
0.0
140
0.0
141
0.0
142
1.0
143
1.0
 70
   688
 72
     1
 73
     0
 74
     5
  7
black.ctb
 75
    16
147
1.0
148
0.0
149
0.0
100
AcDbLayout
  1
ラック取付外観図
 70
     1
 71
     1
 10
-3.174999952316281
 20
-3.174999952316281
 11
416.8250000476836
 21
590.8250000476837
 12
0.0
 22
0.0
 32
0.0
 14
0.2226072708546951
 24
5.709621471594195
 34
0.0
 15
412.7015610261612
 25
571.794154620655
 35
0.0
146
0.0
 13
0.0
 23
0.0
 33
0.0
 16
1.0
 26
0.0
 36
0.0
 17
0.0
 27
1.0
 37
0.0
 76
     0
330
ED3
331
EDA
  0
MLINESTYLE
  5
1C
102
{ACAD_REACTORS
330
1B
102
}
330
1B
100
AcDbMlineStyle
  2
STANDARD
 70
     0
  3

 62
     0
 51
90.0
 52
90.0
 71
     2
 49
0.5
 62
   256
  6
BYLAYER
 49
-0.5
 62
   256
  6
BYLAYER
  0
ACDBPLACEHOLDER
  5
3E6
102
{ACAD_REACTORS
330
3E5
102
}
330
3E5
  0
ENDSEC
  0
EOF
