  0
SECTION
  2
HEADER
  9
$ACADVER
  1
AC1015
  9
$ACADMAINTVER
 70
     6
  9
$DWGCODEPAGE
  3
ANSI_932
  9
$INSBASE
 10
0.0
 20
0.0
 30
0.0
  9
$EXTMIN
 10
-299.8485509999996
 20
117.1006756655794
 30
-0.00000001
  9
$EXTMAX
 10
340.5547542826633
 20
509.9353780755623
 30
0.00000001
  9
$LIMMIN
 10
-202.0
 20
-141.4
  9
$LIMMAX
 10
202.0
 20
141.4
  9
$ORTHOMODE
 70
     1
  9
$REGENMODE
 70
     1
  9
$FILLMODE
 70
     1
  9
$QTEXTMODE
 70
     0
  9
$MIRRTEXT
 70
     1
  9
$LTSCALE
 40
1.0
  9
$ATTMODE
 70
     1
  9
$TEXTSIZE
 40
4.1656
  9
$TRACEWID
 40
0.05
  9
$TEXTSTYLE
  7
MX_NOTE_STANDARD
  9
$CLAYER
  8
ear
  9
$CELTYPE
  6
CONTINUOUS
  9
$CECOLOR
 62
   256
  9
$CELTSCALE
 40
1.0
  9
$DISPSILH
 70
     0
  9
$DIMSCALE
 40
1.0
  9
$DIMASZ
 40
4.0
  9
$DIMEXO
 40
1.0
  9
$DIMDLI
 40
0.0
  9
$DIMRND
 40
0.0
  9
$DIMDLE
 40
0.0
  9
$DIMEXE
 40
1.0
  9
$DIMTP
 40
0.0
  9
$DIMTM
 40
0.0
  9
$DIMTXT
 40
4.1656
  9
$DIMCEN
 40
2.5
  9
$DIMTSZ
 40
0.0
  9
$DIMTOL
 70
     0
  9
$DIMLIM
 70
     0
  9
$DIMTIH
 70
     0
  9
$DIMTOH
 70
     1
  9
$DIMSE1
 70
     0
  9
$DIMSE2
 70
     0
  9
$DIMTAD
 70
     1
  9
$DIMZIN
 70
     8
  9
$DIMBLK
  1
OPEN30
  9
$DIMASO
 70
     1
  9
$DIMSHO
 70
     1
  9
$DIMPOST
  1

  9
$DIMAPOST
  1

  9
$DIMALT
 70
     0
  9
$DIMALTD
 70
     4
  9
$DIMALTF
 40
0.0394
  9
$DIMLFAC
 40
1.0
  9
$DIMTOFL
 70
     1
  9
$DIMTVP
 40
0.0
  9
$DIMTIX
 70
     0
  9
$DIMSOXD
 70
     0
  9
$DIMSAH
 70
     0
  9
$DIMBLK1
  1

  9
$DIMBLK2
  1

  9
$DIMSTYLE
  2
ARTICS
  9
$DIMCLRD
 70
     0
  9
$DIMCLRE
 70
     0
  9
$DIMCLRT
 70
     6
  9
$DIMTFAC
 40
1.0
  9
$DIMGAP
 40
1.0
  9
$DIMJUST
 70
     0
  9
$DIMSD1
 70
     0
  9
$DIMSD2
 70
     0
  9
$DIMTOLJ
 70
     1
  9
$DIMTZIN
 70
     0
  9
$DIMALTZ
 70
     0
  9
$DIMALTTZ
 70
     0
  9
$DIMUPT
 70
     1
  9
$DIMDEC
 70
     1
  9
$DIMTDEC
 70
     1
  9
$DIMALTU
 70
     8
  9
$DIMALTTD
 70
     4
  9
$DIMTXSTY
  7
MX_NOTE_STANDARD
  9
$DIMAUNIT
 70
     0
  9
$DIMADEC
 70
     0
  9
$DIMALTRND
 40
0.0
  9
$DIMAZIN
 70
     0
  9
$DIMDSEP
 70
    46
  9
$DIMATFIT
 70
     3
  9
$DIMFRAC
 70
     0
  9
$DIMLDRBLK
  1
OPEN30
  9
$DIMLUNIT
 70
     2
  9
$DIMLWD
 70
    13
  9
$DIMLWE
 70
    13
  9
$DIMTMOVE
 70
     0
  9
$LUNITS
 70
     2
  9
$LUPREC
 70
     4
  9
$SKETCHINC
 40
0.1
  9
$FILLETRAD
 40
0.0
  9
$AUNITS
 70
     0
  9
$AUPREC
 70
     0
  9
$MENU
  1
acad
  9
$ELEVATION
 40
0.0
  9
$PELEVATION
 40
0.0
  9
$THICKNESS
 40
0.0
  9
$LIMCHECK
 70
     0
  9
$CHAMFERA
 40
0.0
  9
$CHAMFERB
 40
0.0
  9
$CHAMFERC
 40
0.0
  9
$CHAMFERD
 40
0.0
  9
$SKPOLY
 70
     0
  9
$TDCREATE
 40
2453938.465266203
  9
$TDUCREATE
 40
2453938.090266203
  9
$TDUPDATE
 40
2455602.470380856
  9
$TDUUPDATE
 40
2455602.095380856
  9
$TDINDWG
 40
0.1918429977
  9
$TDUSRTIMER
 40
0.1918212847
  9
$USRTIMER
 70
     1
  9
$ANGBASE
 50
0.0
  9
$ANGDIR
 70
     0
  9
$PDMODE
 70
     0
  9
$PDSIZE
 40
0.0
  9
$PLINEWID
 40
0.0
  9
$SPLFRAME
 70
     0
  9
$SPLINETYPE
 70
     6
  9
$SPLINESEGS
 70
     8
  9
$HANDSEED
  5
1D28
  9
$SURFTAB1
 70
     6
  9
$SURFTAB2
 70
     6
  9
$SURFTYPE
 70
     6
  9
$SURFU
 70
     6
  9
$SURFV
 70
     6
  9
$UCSBASE
  2

  9
$UCSNAME
  2

  9
$UCSORG
 10
0.0
 20
0.0
 30
0.0
  9
$UCSXDIR
 10
1.0
 20
0.0
 30
0.0
  9
$UCSYDIR
 10
0.0
 20
1.0
 30
0.0
  9
$UCSORTHOREF
  2

  9
$UCSORTHOVIEW
 70
     0
  9
$UCSORGTOP
 10
0.0
 20
0.0
 30
0.0
  9
$UCSORGBOTTOM
 10
0.0
 20
0.0
 30
0.0
  9
$UCSORGLEFT
 10
0.0
 20
0.0
 30
0.0
  9
$UCSORGRIGHT
 10
0.0
 20
0.0
 30
0.0
  9
$UCSORGFRONT
 10
0.0
 20
0.0
 30
0.0
  9
$UCSORGBACK
 10
0.0
 20
0.0
 30
0.0
  9
$PUCSBASE
  2

  9
$PUCSNAME
  2

  9
$PUCSORG
 10
0.0
 20
0.0
 30
0.0
  9
$PUCSXDIR
 10
1.0
 20
0.0
 30
0.0
  9
$PUCSYDIR
 10
0.0
 20
1.0
 30
0.0
  9
$PUCSORTHOREF
  2

  9
$PUCSORTHOVIEW
 70
     0
  9
$PUCSORGTOP
 10
0.0
 20
0.0
 30
0.0
  9
$PUCSORGBOTTOM
 10
0.0
 20
0.0
 30
0.0
  9
$PUCSORGLEFT
 10
0.0
 20
0.0
 30
0.0
  9
$PUCSORGRIGHT
 10
0.0
 20
0.0
 30
0.0
  9
$PUCSORGFRONT
 10
0.0
 20
0.0
 30
0.0
  9
$PUCSORGBACK
 10
0.0
 20
0.0
 30
0.0
  9
$USERI1
 70
     0
  9
$USERI2
 70
     0
  9
$USERI3
 70
     0
  9
$USERI4
 70
     0
  9
$USERI5
 70
     0
  9
$USERR1
 40
0.0
  9
$USERR2
 40
0.0
  9
$USERR3
 40
0.0
  9
$USERR4
 40
0.0
  9
$USERR5
 40
0.0
  9
$WORLDVIEW
 70
     1
  9
$SHADEDGE
 70
     3
  9
$SHADEDIF
 70
    70
  9
$TILEMODE
 70
     0
  9
$MAXACTVP
 70
    16
  9
$PINSBASE
 10
0.0
 20
0.0
 30
0.0
  9
$PLIMCHECK
 70
     0
  9
$PEXTMIN
 10
0.2226072708546951
 20
5.709621471594195
 30
0.0
  9
$PEXTMAX
 10
412.7015610261612
 20
571.794154620655
 30
0.0
  9
$PLIMMIN
 10
-3.174999952316281
 20
-3.174999952316281
  9
$PLIMMAX
 10
416.8250000476836
 20
590.8250000476837
  9
$UNITMODE
 70
     0
  9
$VISRETAIN
 70
     0
  9
$PLINEGEN
 70
     1
  9
$PSLTSCALE
 70
     1
  9
$TREEDEPTH
 70
  3020
  9
$CMLSTYLE
  2
STANDARD
  9
$CMLJUST
 70
     0
  9
$CMLSCALE
 40
1.0
  9
$PROXYGRAPHICS
 70
     0
  9
$MEASUREMENT
 70
     1
  9
$CELWEIGHT
370
    -1
  9
$ENDCAPS
280
     0
  9
$JOINSTYLE
280
     0
  9
$LWDISPLAY
290
     0
  9
$INSUNITS
 70
     0
  9
$HYPERLINKBASE
  1

  9
$STYLESHEET
  1
BLACK.CTB
  9
$XEDIT
290
     1
  9
$CEPSNTYPE
380
     0
  9
$PSTYLEMODE
290
     1
  9
$FINGERPRINTGUID
  2
{9B98DE78-A00E-4527-9356-E4F62AD05E96}
  9
$VERSIONGUID
  2
{0097F619-9B67-4EB5-877F-B1A5406ACB2A}
  9
$EXTNAMES
290
     1
  9
$PSVPSCALE
 40
0.0
  9
$OLESTARTUP
290
     0
  0
ENDSEC
  0
SECTION
  2
CLASSES
  0
CLASS
  1
LWPOLYLINE
  2
AcDbPolyline
  3
AutoCAD 2000
 90
    32768
280
     0
281
     1
  0
CLASS
  1
IMAGE
  2
AcDbRasterImage
  3
ISM
 90
    32895
280
     0
281
     1
  0
CLASS
  1
OLE2FRAME
  2
AcDbOle2Frame
  3
AutoCAD 2000
 90
    32768
280
     0
281
     1
  0
CLASS
  1
HATCH
  2
AcDbHatch
  3
AutoCAD 2000
 90
    32768
280
     0
281
     1
  0
CLASS
  1
DICTIONARYVAR
  2
AcDbDictionaryVar
  3
AutoCAD 2000
 90
    32768
280
     0
281
     0
  0
CLASS
  1
RASTERVARIABLES
  2
AcDbRasterVariables
  3
ISM
 90
    32768
280
     0
281
     0
  0
CLASS
  1
IMAGEDEF
  2
AcDbRasterImageDef
  3
ISM
 90
    32768
280
     0
281
     0
  0
CLASS
  1
IMAGEDEF_REACTOR
  2
AcDbRasterImageDefReactor
  3
ISM
 90
    32769
280
     0
281
     0
  0
CLASS
  1
IDBUFFER
  2
AcDbIdBuffer
  3
AutoCAD 2000
 90
    32768
280
     0
281
     0
  0
CLASS
  1
SPATIAL_FILTER
  2
AcDbSpatialFilter
  3
AutoCAD 2000
 90
    32768
280
     0
281
     0
  0
CLASS
  1
XRECORD
  2
AcDbXrecord
  3
AutoCAD 2000
 90
    32768
280
     0
281
     0
  0
CLASS
  1
SORTENTSTABLE
  2
AcDbSortentsTable
  3
AutoCAD 2000
 90
    32768
280
     0
281
     0
  0
CLASS
  1
LAYER_INDEX
  2
AcDbLayerIndex
  3
AutoCAD 2000
 90
    32768
280
     0
281
     0
  0
CLASS
  1
SPATIAL_INDEX
  2
AcDbSpatialIndex
  3
AutoCAD 2000
 90
    32768
280
     0
281
     0
  0
CLASS
  1
OBJECT_PTR
  2
CAseDLPNTableRecord
  3
"ASE-LPNTableRecord"
 90
    32769
280
     0
281
     0
  0
CLASS
  1
LAYOUT
  2
AcDbLayout
  3
AutoCAD 2000
 90
        0
280
     0
281
     0
  0
CLASS
  1
PLOTSETTINGS
  2
AcDbPlotSettings
  3
AutoCAD 2000
 90
    32768
280
     0
281
     0
  0
CLASS
  1
ACDBDICTIONARYWDFLT
  2
AcDbDictionaryWithDefault
  3
AutoCAD 2000
 90
        0
280
     0
281
     0
  0
CLASS
  1
ACDBPLACEHOLDER
  2
AcDbPlaceHolder
  3
AutoCAD 2000
 90
        0
280
     0
281
     0
  0
CLASS
  1
VBA_PROJECT
  2
AcDbVbaProject
  3
"acadvba"
 90
    32769
280
     0
281
     0
  0
CLASS
  1
WIPEOUT
  2
AcDbWipeout
  3
WipeOut|AutoCAD Express Tool|expresstools@autodesk.com
 90
    32895
280
     0
281
     1
  0
CLASS
  1
WIPEOUTVARIABLES
  2
AcDbWipeoutVariables
  3
WipeOut|AutoCAD Express Tool|expresstools@autodesk.com
 90
    32768
280
     0
281
     0
  0
CLASS
  1
RTEXT
  2
RText
  3
RText|AutoCAD Express Tool|expresstools@autodesk.com
 90
    32768
280
     0
281
     1
  0
CLASS
  1
ARCALIGNEDTEXT
  2
AcDbArcAlignedText
  3
ATEXT|AutoCAD Express Tool|expresstools@autodesk.com
 90
    32768
280
     0
281
     1
  0
ENDSEC
  0
SECTION
  2
TABLES
  0
TABLE
  2
VPORT
  5
7
330
0
100
AcDbSymbolTable
 70
     2
  0
VPORT
  5
1D27
330
7
100
AcDbSymbolTableRecord
100
AcDbViewportTableRecord
  2
*Active
 70
     0
 10
0.0
 20
0.0
 11
1.0
 21
1.0
 12
-99.37624406096848
 22
428.1340609580892
 13
0.0
 23
0.0
 14
1.0
 24
1.0
 15
0.0
 25
0.0
 16
0.0
 26
0.0
 36
1.0
 17
0.0
 27
0.0
 37
0.0
 40
176.9827525104464
 41
2.006651884700665
 42
50.0
 43
0.0
 44
0.0
 50
0.0
 51
0.0
 71
     0
 72
   100
 73
     1
 74
     1
 75
     0
 76
     0
 77
     0
 78
     0
281
     0
 65
     1
110
0.0
120
0.0
130
0.0
111
1.0
121
0.0
131
0.0
112
0.0
122
1.0
132
0.0
 79
     0
146
0.0
  0
ENDTAB
  0
TABLE
  2
LTYPE
  5
4
330
0
100
AcDbSymbolTable
 70
     3
  0
LTYPE
  5
11
330
4
100
AcDbSymbolTableRecord
100
AcDbLinetypeTableRecord
  2
BYBLOCK
 70
     0
  3

 72
    65
 73
     0
 40
0.0
  0
LTYPE
  5
12
330
4
100
AcDbSymbolTableRecord
100
AcDbLinetypeTableRecord
  2
BYLAYER
 70
     0
  3

 72
    65
 73
     0
 40
0.0
  0
LTYPE
  5
13
330
4
100
AcDbSymbolTableRecord
100
AcDbLinetypeTableRecord
  2
CONTINUOUS
 70
     0
  3
Solid line
 72
    65
 73
     0
 40
0.0
  0
LTYPE
  5
80
330
4
100
AcDbSymbolTableRecord
100
AcDbLinetypeTableRecord
  2
DASHED
 70
     0
  3
Dashed __ __ __ __ __ __ __ __ __ __ __ __ __ _
 72
    65
 73
     2
 40
19.05
 49
12.7
 74
     0
 49
-6.349999999999997
 74
     0
  0
LTYPE
  5
2C1
330
4
100
AcDbSymbolTableRecord
100
AcDbLinetypeTableRecord
  2
CENTER
 70
     0
  3
Center ____ _ ____ _ ____ _ ____ _ ____ _ ____
 72
    65
 73
     4
 40
50.8
 49
31.75
 74
     0
 49
-6.349999999999997
 74
     0
 49
6.349999999999997
 74
     0
 49
-6.349999999999997
 74
     0
  0
ENDTAB
  0
TABLE
  2
LAYER
  5
2
330
0
100
AcDbSymbolTable
 70
     6
  0
LAYER
  5
14
330
2
100
AcDbSymbolTableRecord
100
AcDbLayerTableRecord
  2
0
 70
     0
 62
     7
  6
CONTINUOUS
370
    -3
390
3E6
  0
LAYER
  5
1D
330
2
100
AcDbSymbolTableRecord
100
AcDbLayerTableRecord
  2
本体
 70
     0
 62
     7
  6
CONTINUOUS
370
    -3
390
3E6
  0
LAYER
  5
1E
330
2
100
AcDbSymbolTableRecord
100
AcDbLayerTableRecord
  2
DEFPOINTS
 70
     0
 62
     7
  6
CONTINUOUS
290
     0
370
    -3
390
3E6
  0
LAYER
  5
F98
330
2
100
AcDbSymbolTableRecord
100
AcDbLayerTableRecord
  2
ear
 70
     0
 62
   200
  6
CONTINUOUS
370
    -3
390
3E6
  0
LAYER
  5
FB4
330
2
100
AcDbSymbolTableRecord
100
AcDbLayerTableRecord
  2
寸法
 70
     0
 62
     7
  6
CONTINUOUS
370
    -3
390
3E6
  0
LAYER
  5
1A21
330
2
100
AcDbSymbolTableRecord
100
AcDbLayerTableRecord
  2
底面
 70
     0
 62
     7
  6
CONTINUOUS
370
    -3
390
3E6
  0
ENDTAB
  0
TABLE
  2
STYLE
  5
3
330
0
100
AcDbSymbolTable
 70
     2
  0
STYLE
  5
17
330
3
100
AcDbSymbolTableRecord
100
AcDbTextStyleTableRecord
  2
MX_NOTE_STANDARD
 70
     0
 40
4.1656
 41
1.0
 50
0.0
 71
     0
 42
4.1656
  3
txt.shx
  4
extfont.shx
  0
STYLE
  5
3E4
330
3
100
AcDbSymbolTableRecord
100
AcDbTextStyleTableRecord
  2
Standard
 70
     0
 40
0.0
 41
1.0
 50
0.0
 71
     0
 42
0.2
  3

  4

  0
ENDTAB
  0
TABLE
  2
VIEW
  5
5
330
0
100
AcDbSymbolTable
 70
     0
  0
ENDTAB
  0
TABLE
  2
UCS
  5
6
330
0
100
AcDbSymbolTable
 70
     0
  0
ENDTAB
  0
TABLE
  2
APPID
  5
8
330
0
100
AcDbSymbolTable
 70
     1
  0
APPID
  5
16
330
8
100
AcDbSymbolTableRecord
100
AcDbRegAppTableRecord
  2
ACAD
 70
     0
  0
ENDTAB
  0
TABLE
  2
DIMSTYLE
  5
9
330
0
100
AcDbSymbolTable
 70
     3
100
AcDbDimStyleTable
 71
     2
340
84C
340
18
  0
DIMSTYLE
105
18
330
9
100
AcDbSymbolTableRecord
100
AcDbDimStyleTableRecord
  2
MXDIMSTYLE
 70
     0
 41
2.5
 42
1.0
 43
3.75
 44
1.0
 73
     0
 74
     0
 77
     1
 78
     8
140
4.1656
141
2.5
143
0.0394
147
1.0
171
     4
172
     1
273
     8
274
     4
288
     1
340
17
  0
DIMSTYLE
105
84B
330
9
100
AcDbSymbolTableRecord
100
AcDbDimStyleTableRecord
  2
Standard
 70
     0
340
3E4
  0
DIMSTYLE
105
84C
102
{ACAD_REACTORS
330
293
330
2A2
330
2AF
330
2C0
330
E12
330
187B
330
1CDF
330
1CE0
102
}
330
9
100
AcDbSymbolTableRecord
100
AcDbDimStyleTableRecord
  2
ARTICS
 70
     0
 41
4.0
 42
1.0
 43
0.0
 44
1.0
 73
     0
 77
     1
 78
     8
140
4.1656
141
2.5
143
0.0394
147
1.0
171
     4
172
     1
178
     6
271
     1
272
     1
273
     8
274
     4
288
     1
340
17
341
26C
342
26C
371
    13
372
    13
  0
ENDTAB
  0
TABLE
  2
BLOCK_RECORD
  5
1
330
0
100
AcDbSymbolTable
 70
    16
  0
BLOCK_RECORD
  5
A
330
1
100
AcDbSymbolTableRecord
100
AcDbBlockTableRecord
  2
*MODEL_SPACE
340
3E9
  0
BLOCK_RECORD
  5
ED3
330
1
100
AcDbSymbolTableRecord
100
AcDbBlockTableRecord
  2
*Paper_Space
340
ED4
  0
BLOCK_RECORD
  5
26C
330
1
100
AcDbSymbolTableRecord
100
AcDbBlockTableRecord
  2
_OPEN30
340
0
102
{BLKREFS
331
8DC
331
8DD
331
8E5
331
8E6
331
8F9
331
8FA
331
916
331
917
331
EB3
331
EB4
331
EBC
331
EBD
331
F9C
331
F9D
331
FA5
331
FA6
331
FAE
331
FAF
331
FB8
331
FB9
331
FC1
331
FC2
331
FCC
331
FCD
331
FD5
331
FD6
331
FDE
331
FDF
331
FE7
331
FE8
331
FF2
331
FF3
331
FFB
331
FFC
331
1008
331
1009
331
1011
331
1012
331
101A
331
101B
331
1025
331
1026
331
1030
331
1031
331
1039
331
103A
331
1042
331
1043
331
104B
331
104C
331
1054
331
1055
331
185A
331
185B
331
1863
331
1864
331
186C
331
186D
331
1875
331
1876
331
1880
331
1881
331
188B
331
188C
331
1896
331
1897
331
18A1
331
18A2
331
18AC
331
18AD
331
18B5
331
18B6
331
18BE
331
18BF
331
18C7
331
18C8
331
18D0
331
18D1
331
18D9
331
18DA
331
18E2
331
18E3
331
18ED
331
18EE
331
18F6
331
18F7
331
1903
331
1904
331
190E
331
190F
331
1915
331
191D
331
1923
331
195F
331
1960
331
1A26
331
1A27
331
1A31
331
1A32
331
1A3B
331
1A3C
331
1A46
331
1A47
331
1A4F
331
1A50
331
1A5A
331
1A5B
331
1A63
331
1A6B
331
1A6C
331
1A74
331
1A75
331
1BB2
331
1BB3
331
1BBB
331
1BBC
331
1BC4
331
1BC5
331
1BCD
331
1BCE
331
1BD6
331
1BD7
331
1BDF
331
1BE0
331
1BE8
331
1BE9
331
1C54
331
1C5E
331
1C5F
331
1CE5
331
1CEF
331
1CF0
331
1CF9
331
1D00
331
1D01
331
1D0C
331
1D0D
331
1D14
102
}
  0
BLOCK_RECORD
  5
722
330
1
100
AcDbSymbolTableRecord
100
AcDbBlockTableRecord
  2
*D1
340
0
  0
BLOCK_RECORD
  5
72E
330
1
100
AcDbSymbolTableRecord
100
AcDbBlockTableRecord
  2
*D2
340
0
  0
BLOCK_RECORD
  5
75B
330
1
100
AcDbSymbolTableRecord
100
AcDbBlockTableRecord
  2
*D3
340
0
  0
BLOCK_RECORD
  5
767
330
1
100
AcDbSymbolTableRecord
100
AcDbBlockTableRecord
  2
*D4
340
0
  0
BLOCK_RECORD
  5
923
330
1
100
AcDbSymbolTableRecord
100
AcDbBlockTableRecord
  2
A3zuwaku_n
340
0
102
{BLKREFS
331
99A
102
}
  0
BLOCK_RECORD
  5
E62
330
1
100
AcDbSymbolTableRecord
100
AcDbBlockTableRecord
  2
*D6
340
0
  0
BLOCK_RECORD
  5
E6E
330
1
100
AcDbSymbolTableRecord
100
AcDbBlockTableRecord
  2
*D7
340
0
  0
BLOCK_RECORD
  5
EDD
330
1
100
AcDbSymbolTableRecord
100
AcDbBlockTableRecord
  2
A2zuwaku_tate_ban
340
0
102
{BLKREFS
331
F88
102
}
  0
BLOCK_RECORD
  5
1021
330
1
100
AcDbSymbolTableRecord
100
AcDbBlockTableRecord
  2
*D9
340
0
  0
BLOCK_RECORD
  5
187C
330
1
100
AcDbSymbolTableRecord
100
AcDbBlockTableRecord
  2
*D10
340
0
  0
BLOCK_RECORD
  5
18FD
330
1
100
AcDbSymbolTableRecord
100
AcDbBlockTableRecord
  2
*D11
340
0
  0
BLOCK_RECORD
  5
1C50
330
1
100
AcDbSymbolTableRecord
100
AcDbBlockTableRecord
  2
*D12
340
0
  0
BLOCK_RECORD
  5
1C59
330
1
100
AcDbSymbolTableRecord
100
AcDbBlockTableRecord
  2
*D13
340
0
  0
BLOCK_RECORD
  5
1CE1
330
1
100
AcDbSymbolTableRecord
100
AcDbBlockTableRecord
  2
*D14
340
0
  0
BLOCK_RECORD
  5
1CEA
330
1
100
AcDbSymbolTableRecord
100
AcDbBlockTableRecord
  2
*D15
340
0
  0
ENDTAB
  0
ENDSEC
  0
SECTION
  2
BLOCKS
  0
BLOCK
  5
D
330
A
100
AcDbEntity
  8
0
100
AcDbBlockBegin
  2
*MODEL_SPACE
 70
     0
 10
0.0
 20
0.0
 30
0.0
  3
*MODEL_SPACE
  1

  0
ENDBLK
  5
E
330
A
100
AcDbEntity
  8
0
100
AcDbBlockEnd
  0
BLOCK
  5
ED5
330
ED3
100
AcDbEntity
 67
     1
  8
0
100
AcDbBlockBegin
  2
*Paper_Space
 70
     0
 10
0.0
 20
0.0
 30
0.0
  3
*Paper_Space
  1

  0
ENDBLK
  5
ED6
330
ED3
100
AcDbEntity
 67
     1
  8
0
100
AcDbBlockEnd
  0
BLOCK
  5
26D
330
26C
100
AcDbEntity
  8
0
  6
ByBlock
 62
     0
100
AcDbBlockBegin
  2
_OPEN30
 70
     2
 10
0.0
 20
0.0
 30
0.0
  3
_OPEN30
  1

  0
LINE
  5
26E
330
26C
100
AcDbEntity
  8
0
  6
ByBlock
 62
     0
100
AcDbLine
 10
-1.0
 20
0.267949
 30
0.0
 11
0.0
 21
0.0
 31
0.0
  0
LINE
  5
26F
330
26C
100
AcDbEntity
  8
0
  6
ByBlock
 62
     0
100
AcDbLine
 10
0.0
 20
0.0
 30
0.0
 11
-1.0
 21
-0.267949
 31
0.0
  0
LINE
  5
270
330
26C
100
AcDbEntity
  8
0
  6
ByBlock
 62
     0
100
AcDbLine
 10
0.0
 20
0.0
 30
0.0
 11
-1.0
 21
0.0
 31
0.0
  0
ENDBLK
  5
271
330
26C
100
AcDbEntity
  8
0
  6
ByBlock
 62
     0
100
AcDbBlockEnd
  0
BLOCK
  5
72C
330
722
100
AcDbEntity
  8
0
100
AcDbBlockBegin
  2
*D1
 70
     1
 10
0.0
 20
0.0
 30
0.0
  3
*D1
  1

  0
LINE
  5
1BDC
330
722
100
AcDbEntity
  8
寸法
  6
Continuous
 62
     0
370
    13
100
AcDbLine
 10
-230.7485509999999
 20
184.8882674483006
 30
0.0
 11
-230.7485509999999
 21
140.4198676363743
 31
0.0
  0
LINE
  5
1BDD
330
722
100
AcDbEntity
  8
寸法
  6
Continuous
 62
     0
370
    13
100
AcDbLine
 10
235.2514489999999
 20
184.8882674483005
 30
0.0
 11
235.2514489999999
 21
140.4198676363743
 31
0.0
  0
LINE
  5
1BDE
330
722
100
AcDbEntity
  8
寸法
  6
Continuous
 62
     0
370
    13
100
AcDbLine
 10
-226.7485509999999
 20
141.4198676363743
 30
0.0
 11
231.2514489999999
 21
141.4198676363743
 31
0.0
  0
INSERT
  5
1BDF
330
722
100
AcDbEntity
  8
寸法
  6
Continuous
 62
     0
370
    13
100
AcDbBlockReference
  2
_OPEN30
 10
-230.7485509999999
 20
141.4198676363743
 30
0.0
 41
4.0
 42
4.0
 43
4.0
 50
180.0
  0
INSERT
  5
1BE0
330
722
100
AcDbEntity
  8
寸法
  6
Continuous
 62
     0
370
    13
100
AcDbBlockReference
  2
_OPEN30
 10
235.2514489999999
 20
141.4198676363743
 30
0.0
 41
4.0
 42
4.0
 43
4.0
  0
MTEXT
  5
1BE1
330
722
100
AcDbEntity
  8
寸法
  6
Continuous
 62
     6
100
AcDbMText
 10
0.554460231229769
 20
146.4198676363743
 30
0.0
 40
8.0
 41
0.0
 71
     5
 72
     1
  1
\A1;466
  7
Standard
 73
     1
 44
1.0
  0
POINT
  5
1BE2
330
722
100
AcDbEntity
  8
DEFPOINTS
  6
Continuous
 62
     0
100
AcDbPoint
 10
-230.7485509999999
 20
185.8882674483009
 30
0.0
  0
POINT
  5
1BE3
330
722
100
AcDbEntity
  8
DEFPOINTS
  6
Continuous
 62
     0
100
AcDbPoint
 10
235.2514489999999
 20
185.8882674483005
 30
0.0
  0
POINT
  5
1BE4
330
722
100
AcDbEntity
  8
DEFPOINTS
  6
Continuous
 62
     0
100
AcDbPoint
 10
235.2514489999999
 20
141.4198676363743
 30
0.0
  0
ENDBLK
  5
72D
330
722
100
AcDbEntity
  8
0
100
AcDbBlockEnd
  0
BLOCK
  5
738
330
72E
100
AcDbEntity
  8
0
100
AcDbBlockBegin
  2
*D2
 70
     1
 10
0.0
 20
0.0
 30
0.0
  3
*D2
  1

  0
LINE
  5
1BE5
330
72E
100
AcDbEntity
  8
寸法
  6
Continuous
 62
     0
370
    13
100
AcDbLine
 10
-238.7485509999999
 20
185.2632674483009
 30
0.0
 11
-238.7485509999999
 21
117.1724716655794
 31
0.0
  0
LINE
  5
1BE6
330
72E
100
AcDbEntity
  8
寸法
  6
Continuous
 62
     0
370
    13
100
AcDbLine
 10
243.2514489999999
 20
185.2632674483009
 30
0.0
 11
243.2514489999999
 21
117.1724716655794
 31
0.0
  0
LINE
  5
1BE7
330
72E
100
AcDbEntity
  8
寸法
  6
Continuous
 62
     0
370
    13
100
AcDbLine
 10
-234.7485509999999
 20
118.1724716655794
 30
0.0
 11
239.2514489999999
 21
118.1724716655794
 31
0.0
  0
INSERT
  5
1BE8
330
72E
100
AcDbEntity
  8
寸法
  6
Continuous
 62
     0
370
    13
100
AcDbBlockReference
  2
_OPEN30
 10
-238.7485509999999
 20
118.1724716655794
 30
0.0
 41
4.0
 42
4.0
 43
4.0
 50
180.0
  0
INSERT
  5
1BE9
330
72E
100
AcDbEntity
  8
寸法
  6
Continuous
 62
     0
370
    13
100
AcDbBlockReference
  2
_OPEN30
 10
243.2514489999999
 20
118.1724716655794
 30
0.0
 41
4.0
 42
4.0
 43
4.0
  0
MTEXT
  5
1BEA
330
72E
100
AcDbEntity
  8
寸法
  6
Continuous
 62
     6
100
AcDbMText
 10
0.308939573789758
 20
123.1724716655794
 30
0.0
 40
8.0
 41
0.0
 71
     5
 72
     1
  1
\A1;482
  7
Standard
 73
     1
 44
1.0
  0
POINT
  5
1BEB
330
72E
100
AcDbEntity
  8
DEFPOINTS
  6
Continuous
 62
     0
100
AcDbPoint
 10
-238.7485509999999
 20
186.2632674483009
 30
0.0
  0
POINT
  5
1BEC
330
72E
100
AcDbEntity
  8
DEFPOINTS
  6
Continuous
 62
     0
100
AcDbPoint
 10
243.2514489999999
 20
186.2632674483009
 30
0.0
  0
POINT
  5
1BED
330
72E
100
AcDbEntity
  8
DEFPOINTS
  6
Continuous
 62
     0
100
AcDbPoint
 10
243.2514489999999
 20
118.1724716655794
 30
0.0
  0
ENDBLK
  5
739
330
72E
100
AcDbEntity
  8
0
100
AcDbBlockEnd
  0
BLOCK
  5
765
330
75B
100
AcDbEntity
  8
0
100
AcDbBlockBegin
  2
*D3
 70
     1
 10
0.0
 20
0.0
 30
0.0
  3
*D3
  1

  0
LINE
  5
1A66
330
75B
100
AcDbEntity
  8
寸法
  6
Continuous
 62
     0
370
    13
100
AcDbLine
 10
242.7514509999999
 20
222.1382674483009
 30
0.0
 11
267.969157
 21
222.1382674483009
 31
0.0
  0
LINE
  5
1A67
330
75B
100
AcDbEntity
  8
寸法
  6
Continuous
 62
     0
370
    13
100
AcDbLine
 10
242.7514509999999
 20
190.3882674483009
 30
0.0
 11
267.969157
 21
190.3882674483009
 31
0.0
  0
LINE
  5
1A68
330
75B
100
AcDbEntity
  8
寸法
  6
Continuous
 62
     0
370
    13
100
AcDbLine
 10
266.9691569999999
 20
226.1382674483008
 30
0.0
 11
266.9691569999999
 21
230.1382674483007
 31
0.0
  0
LINE
  5
1A69
330
75B
100
AcDbEntity
  8
寸法
  6
Continuous
 62
     0
370
    13
100
AcDbLine
 10
266.9691569999999
 20
186.3882674483009
 30
0.0
 11
266.9691569999999
 21
182.3882674483009
 31
0.0
  0
LINE
  5
1A6A
330
75B
100
AcDbEntity
  8
寸法
  6
Continuous
 62
     0
370
    13
100
AcDbLine
 10
266.9691569999999
 20
222.1382674483009
 30
0.0
 11
266.9691569999999
 21
190.3882674483009
 31
0.0
  0
INSERT
  5
1A6B
330
75B
100
AcDbEntity
  8
寸法
  6
Continuous
 62
     0
370
    13
100
AcDbBlockReference
  2
_OPEN30
 10
266.9691569999999
 20
222.1382674483009
 30
0.0
 41
4.0
 42
4.0
 43
4.0
 50
270.0
  0
INSERT
  5
1A6C
330
75B
100
AcDbEntity
  8
寸法
  6
Continuous
 62
     0
370
    13
100
AcDbBlockReference
  2
_OPEN30
 10
266.9691569999999
 20
190.3882674483009
 30
0.0
 41
4.0
 42
4.0
 43
4.0
 50
90.0
  0
MTEXT
  5
1A6D
330
75B
100
AcDbEntity
  8
寸法
  6
Continuous
 62
     6
100
AcDbMText
 10
262.9691569999999
 20
206.263267448301
 30
0.0
 40
6.0
 41
0.0
 71
     5
 72
     1
  1
\A1;31.75
  7
Standard
 11
0.0000000000000001
 21
1.0
 31
0.0
 73
     1
 44
1.0
  0
POINT
  5
1A6E
330
75B
100
AcDbEntity
  8
DEFPOINTS
  6
Continuous
 62
     0
100
AcDbPoint
 10
241.7514509999999
 20
222.1382674483009
 30
0.0
  0
POINT
  5
1A6F
330
75B
100
AcDbEntity
  8
DEFPOINTS
  6
Continuous
 62
     0
100
AcDbPoint
 10
241.7514509999999
 20
190.3882674483009
 30
0.0
  0
POINT
  5
1A70
330
75B
100
AcDbEntity
  8
DEFPOINTS
  6
Continuous
 62
     0
100
AcDbPoint
 10
266.9691569999999
 20
190.3882674483009
 30
0.0
  0
ENDBLK
  5
766
330
75B
100
AcDbEntity
  8
0
100
AcDbBlockEnd
  0
BLOCK
  5
771
330
767
100
AcDbEntity
  8
0
100
AcDbBlockBegin
  2
*D4
 70
     1
 10
0.0
 20
0.0
 30
0.0
  3
*D4
  1

  0
LINE
  5
1A71
330
767
100
AcDbEntity
  8
寸法
  6
Continuous
 62
     0
370
    13
100
AcDbLine
 10
242.2514509999999
 20
228.2632674483008
 30
0.0
 11
284.924933
 21
228.2632674483008
 31
0.0
  0
LINE
  5
1A72
330
767
100
AcDbEntity
  8
寸法
  6
Continuous
 62
     0
370
    13
100
AcDbLine
 10
242.2514509999999
 20
184.2632674483009
 30
0.0
 11
284.924933
 21
184.2632674483009
 31
0.0
  0
LINE
  5
1A73
330
767
100
AcDbEntity
  8
寸法
  6
Continuous
 62
     0
370
    13
100
AcDbLine
 10
283.924933
 20
224.2632674483008
 30
0.0
 11
283.924933
 21
188.2632674483009
 31
0.0
  0
INSERT
  5
1A74
330
767
100
AcDbEntity
  8
寸法
  6
Continuous
 62
     0
370
    13
100
AcDbBlockReference
  2
_OPEN30
 10
283.924933
 20
228.2632674483008
 30
0.0
 41
4.0
 42
4.0
 43
4.0
 50
90.0
  0
INSERT
  5
1A75
330
767
100
AcDbEntity
  8
寸法
  6
Continuous
 62
     0
370
    13
100
AcDbBlockReference
  2
_OPEN30
 10
283.924933
 20
184.2632674483009
 30
0.0
 41
4.0
 42
4.0
 43
4.0
 50
270.0
  0
MTEXT
  5
1A76
330
767
100
AcDbEntity
  8
寸法
  6
Continuous
 62
     6
100
AcDbMText
 10
278.924933
 20
206.2632674483007
 30
0.0
 40
8.0
 41
0.0
 71
     5
 72
     1
  1
\A1;44
  7
Standard
 11
0.0000000000000001
 21
1.0
 31
0.0
 73
     1
 44
1.0
  0
POINT
  5
1A77
330
767
100
AcDbEntity
  8
DEFPOINTS
  6
Continuous
 62
     0
100
AcDbPoint
 10
241.2514509999999
 20
228.2632674483008
 30
0.0
  0
POINT
  5
1A78
330
767
100
AcDbEntity
  8
DEFPOINTS
  6
Continuous
 62
     0
100
AcDbPoint
 10
241.2514509999999
 20
184.2632674483009
 30
0.0
  0
POINT
  5
1A79
330
767
100
AcDbEntity
  8
DEFPOINTS
  6
Continuous
 62
     0
100
AcDbPoint
 10
283.924933
 20
184.2632674483009
 30
0.0
  0
ENDBLK
  5
772
330
767
100
AcDbEntity
  8
0
100
AcDbBlockEnd
  0
BLOCK
  5
998
330
923
100
AcDbEntity
  8
0
100
AcDbBlockBegin
  2
A3zuwaku_n
 70
     0
 10
0.0
 20
0.0
 30
0.0
  3
A3zuwaku_n
  1

  0
LINE
  5
924
330
923
100
AcDbEntity
  8
本体
  6
Continuous
 62
    20
100
AcDbLine
 10
403.7900162256923
 20
0.2059360198707569
 30
0.0
 11
403.7900162256923
 21
278.2564360198707
 31
0.0
  0
LINE
  5
925
330
923
100
AcDbEntity
  8
本体
  6
Continuous
 62
    20
100
AcDbLine
 10
0.4640162256925038
 20
278.2564360198707
 30
0.0
 11
403.7900162256923
 21
278.2564360198707
 31
0.0
  0
LINE
  5
926
330
923
100
AcDbEntity
  8
本体
  6
Continuous
 62
    20
100
AcDbLine
 10
230.6450162256924
 20
0.2059360198707569
 30
0.0
 11
230.6450162256924
 21
35.85343601987075
 31
0.0
  0
LINE
  5
927
330
923
100
AcDbEntity
  8
本体
  6
Continuous
 62
    20
100
AcDbLine
 10
312.1250162256925
 20
0.2059360198707569
 30
0.0
 11
312.1250162256925
 21
35.85343601987075
 31
0.0
  0
LINE
  5
928
330
923
100
AcDbEntity
  8
本体
  6
Continuous
 62
    20
100
AcDbLine
 10
312.1250162256925
 20
25.66843601987075
 30
0.0
 11
403.7900162256923
 21
25.66843601987075
 31
0.0
  0
LINE
  5
929
330
923
100
AcDbEntity
  8
本体
  6
Continuous
 62
    20
100
AcDbLine
 10
230.6450162256924
 20
30.76093601987075
 30
0.0
 11
312.1250162256925
 21
30.76093601987075
 31
0.0
  0
LINE
  5
92A
330
923
100
AcDbEntity
  8
本体
  6
Continuous
 62
    20
100
AcDbLine
 10
230.6450162256924
 20
15.48343601987076
 30
0.0
 11
312.1250162256925
 21
15.48343601987076
 31
0.0
  0
LINE
  5
92B
330
923
100
AcDbEntity
  8
本体
  6
Continuous
 62
    20
100
AcDbLine
 10
251.0150162256923
 20
15.48343601987076
 30
0.0
 11
251.0150162256923
 21
35.85343601987075
 31
0.0
  0
LINE
  5
92C
330
923
100
AcDbEntity
  8
本体
  6
Continuous
 62
    20
100
AcDbLine
 10
271.3850162256924
 20
15.48343601987076
 30
0.0
 11
271.3850162256924
 21
35.85343601987075
 31
0.0
  0
LINE
  5
92D
330
923
100
AcDbEntity
  8
本体
  6
Continuous
 62
    20
100
AcDbLine
 10
291.7550162256925
 20
15.48343601987076
 30
0.0
 11
291.7550162256925
 21
35.85343601987075
 31
0.0
  0
LINE
  5
92E
330
923
100
AcDbEntity
  8
本体
  6
Continuous
 62
    20
100
AcDbLine
 10
230.6450162256924
 20
20.57593601987075
 30
0.0
 11
291.7550162256925
 21
20.57593601987075
 31
0.0
  0
LINE
  5
92F
330
923
100
AcDbEntity
  8
本体
  6
Continuous
 62
    20
100
AcDbLine
 10
357.9575162256925
 20
25.66843601987075
 30
0.0
 11
357.9575162256925
 21
35.85343601987075
 31
0.0
  0
LINE
  5
930
330
923
100
AcDbEntity
  8
本体
  6
Continuous
 62
    20
100
AcDbLine
 10
312.1250162256925
 20
10.39093601987075
 30
0.0
 11
403.7900162256923
 21
10.39093601987075
 31
0.0
  0
LINE
  5
931
330
923
100
AcDbEntity
  8
本体
  6
Continuous
 62
    20
100
AcDbLine
 10
327.4025162256923
 20
0.2059360198707569
 30
0.0
 11
327.4025162256923
 21
10.39093601987075
 31
0.0
  0
LINE
  5
932
330
923
100
AcDbEntity
  8
本体
  6
Continuous
 62
    20
100
AcDbLine
 10
112.4990162256924
 20
0.2059360198707569
 30
0.0
 11
112.4990162256924
 21
35.85343601987075
 31
0.0
  0
LINE
  5
933
330
923
100
AcDbEntity
  8
本体
  6
Continuous
 62
    20
100
AcDbLine
 10
112.4990162256924
 20
5.298436019870758
 30
0.0
 11
230.6450162256924
 21
5.298436019870758
 31
0.0
  0
LINE
  5
934
330
923
100
AcDbEntity
  8
本体
  6
Continuous
 62
    20
100
AcDbLine
 10
112.4990162256924
 20
10.39093601987075
 30
0.0
 11
230.6450162256924
 21
10.39093601987075
 31
0.0
  0
LINE
  5
935
330
923
100
AcDbEntity
  8
本体
  6
Continuous
 62
    20
100
AcDbLine
 10
112.4990162256924
 20
15.48343601987076
 30
0.0
 11
230.6450162256924
 21
15.48343601987076
 31
0.0
  0
LINE
  5
936
330
923
100
AcDbEntity
  8
本体
  6
Continuous
 62
    20
100
AcDbLine
 10
112.4990162256924
 20
20.57593601987075
 30
0.0
 11
230.6450162256924
 21
20.57593601987075
 31
0.0
  0
LINE
  5
937
330
923
100
AcDbEntity
  8
本体
  6
Continuous
 62
    20
100
AcDbLine
 10
112.4990162256924
 20
25.66843601987075
 30
0.0
 11
230.6450162256924
 21
25.66843601987075
 31
0.0
  0
LINE
  5
938
330
923
100
AcDbEntity
  8
本体
  6
Continuous
 62
    20
100
AcDbLine
 10
112.4990162256924
 20
30.76093601987075
 30
0.0
 11
230.6450162256924
 21
30.76093601987075
 31
0.0
  0
LINE
  5
939
330
923
100
AcDbEntity
  8
本体
  6
Continuous
 62
    20
100
AcDbLine
 10
127.7765162256925
 20
0.2059360198707569
 30
0.0
 11
127.7765162256925
 21
35.85343601987075
 31
0.0
  0
LINE
  5
93A
330
923
100
AcDbEntity
  8
本体
  6
Continuous
 62
    20
100
AcDbLine
 10
181.7570162256924
 20
0.2059360198707569
 30
0.0
 11
181.7570162256924
 21
35.85343601987075
 31
0.0
  0
LINE
  5
93B
330
923
100
AcDbEntity
  8
本体
  6
Continuous
 62
    20
100
AcDbLine
 10
206.2010162256924
 20
0.2059360198707569
 30
0.0
 11
206.2010162256924
 21
35.85343601987075
 31
0.0
  0
MTEXT
  5
93C
330
923
100
AcDbEntity
  8
本体
  6
Continuous
 62
    20
100
AcDbMText
 10
1.684179225692483
 20
273.9379960198707
 30
0.0
 40
3.56475
 41
0.0
 71
     7
 72
     1
  1
\T0.782;\W0.700;\A1;Ｄｉｍｅｎｓｉｏｎｓ　ｉｎ　ｍｍ（ｎｏｔ　ｔｏ　ｓｃａｌｅ）
 73
     1
 44
1.0
  0
LINE
  5
93D
330
923
100
AcDbEntity
  8
本体
  6
Continuous
 62
    20
100
AcDbLine
 10
71.7590162256925
 20
273.1639360198706
 30
0.0
 11
71.7590162256925
 21
278.2564360198707
 31
0.0
  0
LINE
  5
93E
330
923
100
AcDbEntity
  8
本体
  6
Continuous
 62
    20
100
AcDbLine
 10
0.4640162256925038
 20
273.1639360198706
 30
0.0
 11
71.7590162256925
 21
273.1639360198706
 31
0.0
  0
LINE
  5
93F
330
923
100
AcDbEntity
  8
本体
  6
Continuous
 62
    20
100
AcDbLine
 10
112.4990162256924
 20
35.85343601987075
 30
0.0
 11
403.7900162256923
 21
35.85343601987075
 31
0.0
  0
MTEXT
  5
940
330
923
100
AcDbEntity
  8
本体
  6
Continuous
 62
    20
100
AcDbMText
 10
115.4112896631925
 20
4.025311019870756
 30
0.0
 40
2.54625
 41
0.0
 71
     1
 72
     1
  1
\T0.815;\W0.959;\A1;ＭＡＲＫ
 73
     1
 44
1.0
  0
MTEXT
  5
941
330
923
100
AcDbEntity
  8
本体
  6
Continuous
 62
    20
100
AcDbMText
 10
144.0725162256923
 20
4.025311019870756
 30
0.0
 40
2.54625
 41
0.0
 71
     1
 72
     1
  1
\T0.815;\W0.959;\A1;ＲＥＶＩＳＩＯＮＳ
 73
     1
 44
1.0
  0
MTEXT
  5
942
330
923
100
AcDbEntity
  8
本体
  6
Continuous
 62
    20
100
AcDbMText
 10
189.2525396631924
 20
4.025311019870756
 30
0.0
 40
2.54625
 41
0.0
 71
     1
 72
     1
  1
\T0.815;\W0.959;\A1;ＤＡＴＥ
 73
     1
 44
1.0
  0
MTEXT
  5
943
330
923
100
AcDbEntity
  8
本体
  6
Continuous
 62
    20
100
AcDbMText
 10
213.6965396631925
 20
4.025311019870756
 30
0.0
 40
2.54625
 41
0.0
 71
     1
 72
     1
  1
\T0.815;\W0.959;\A1;ＣＨ’Ｄ
 73
     1
 44
1.0
  0
MTEXT
  5
944
330
923
100
AcDbEntity
  8
本体
  6
Continuous
 62
    20
100
AcDbMText
 10
315.9482106006925
 20
4.432711019870763
 30
0.0
 40
2.74995
 41
0.0
 71
     1
 72
     1
  1
\T0.815;\W0.959;\A1;ＮＯ．
 73
     1
 44
1.0
  0
MTEXT
  5
945
330
923
100
AcDbEntity
  8
本体
  6
Continuous
 62
    20
100
AcDbMText
 10
313.2046262256924
 20
24.75178601987074
 30
0.0
 40
3.259199999999998
 41
0.0
 71
     1
 72
     1
  1
\T0.815;\W0.959;\A1;ＴＩＴＬＥ
 73
     1
 44
1.0
  0
MTEXT
  5
946
330
923
100
AcDbEntity
  8
本体
  6
Continuous
 62
    20
100
AcDbMText
 10
359.3579537256925
 20
34.98771101987076
 30
0.0
 40
2.54625
 41
0.0
 71
     1
 72
     1
  1
\T0.815;\W0.959;\A1;ＴＲＥＡＴＭＥＮＴ
 73
     1
 44
1.0
  0
MTEXT
  5
947
330
923
100
AcDbEntity
  8
本体
  6
Continuous
 62
    20
100
AcDbMText
 10
313.5254537256924
 20
34.98771101987076
 30
0.0
 40
2.54625
 41
0.0
 71
     1
 72
     1
  1
\T0.815;\W0.959;\A1;ＭＡＴＥＲＩＡＬ
 73
     1
 44
1.0
  0
MTEXT
  5
948
330
923
100
AcDbEntity
  8
本体
  6
Continuous
 62
    20
100
AcDbMText
 10
313.3701324756923
 20
8.710411019870752
 30
0.0
 40
2.74995
 41
0.0
 71
     1
 72
     1
  1
\T0.815;\W0.959;\A1;ＤＲＡＷ．
 73
     1
 44
1.0
  0
MTEXT
  5
949
330
923
100
AcDbEntity
  8
本体
  6
Continuous
 62
    20
100
AcDbMText
 10
295.5463824756924
 20
34.68216101987074
 30
0.0
 40
2.74995
 41
0.0
 71
     1
 72
     1
  1
\T0.815;\W0.959;\A1;ＳＣＡＬＥ
 73
     1
 44
1.0
  0
MTEXT
  5
94A
330
923
100
AcDbEntity
  8
本体
  6
Continuous
 62
    20
100
AcDbMText
 10
275.1763824756924
 20
34.68216101987074
 30
0.0
 40
2.74995
 41
0.0
 71
     1
 72
     1
  1
\T0.815;\W0.959;\A1;ＡＰＰ’Ｄ
 73
     1
 44
1.0
  0
MTEXT
  5
94B
330
923
100
AcDbEntity
  8
本体
  6
Continuous
 62
    20
100
AcDbMText
 10
256.0954215381924
 20
34.68216101987074
 30
0.0
 40
2.74995
 41
0.0
 71
     1
 72
     1
  1
\T0.815;\W0.959;\A1;ＣＨ’Ｄ
 73
     1
 44
1.0
  0
MTEXT
  5
94C
330
923
100
AcDbEntity
  8
本体
  6
Continuous
 62
    20
100
AcDbMText
 10
234.4363824756924
 20
34.68216101987074
 30
0.0
 40
2.74995
 41
0.0
 71
     1
 72
     1
  1
\T0.815;\W0.959;\A1;ＤＥＳ’Ｄ
 73
     1
 44
1.0
  0
MTEXT
  5
94D
330
923
100
AcDbEntity
  8
本体
  6
Continuous
 62
    20
100
AcDbMText
 10
119.6794412256924
 20
8.353936019870758
 30
0.0
 40
2.036999999999999
 41
0.0
 71
     1
 72
     1
  1
\T1.043;\W1.226;\A1;1
 73
     1
 44
1.0
  0
MTEXT
  5
94E
330
923
100
AcDbEntity
  8
本体
  6
Continuous
 62
    20
100
AcDbMText
 10
119.3738912256925
 20
13.44643601987075
 30
0.0
 40
2.036999999999999
 41
0.0
 71
     1
 72
     1
  1
\T0.851;\A1;2
 73
     1
 44
1.0
  0
MTEXT
  5
94F
330
923
100
AcDbEntity
  8
本体
  6
Continuous
 62
    20
100
AcDbMText
 10
119.3738912256925
 20
18.53893601987076
 30
0.0
 40
2.036999999999999
 41
0.0
 71
     1
 72
     1
  1
\T0.851;\A1;3
 73
     1
 44
1.0
  0
MTEXT
  5
950
330
923
100
AcDbEntity
  8
本体
  6
Continuous
 62
    20
100
AcDbMText
 10
119.3738912256925
 20
23.63143601987076
 30
0.0
 40
2.036999999999999
 41
0.0
 71
     1
 72
     1
  1
\T0.851;\A1;4
 73
     1
 44
1.0
  0
MTEXT
  5
951
330
923
100
AcDbEntity
  8
本体
  6
Continuous
 62
    20
100
AcDbMText
 10
119.3738912256925
 20
28.72393601987076
 30
0.0
 40
2.036999999999999
 41
0.0
 71
     1
 72
     1
  1
\T0.851;\A1;5
 73
     1
 44
1.0
  0
MTEXT
  5
952
330
923
100
AcDbEntity
  8
本体
  6
Continuous
 62
    20
100
AcDbMText
 10
119.3738912256925
 20
33.81643601987075
 30
0.0
 40
2.036999999999999
 41
0.0
 71
     1
 72
     1
  1
\T0.851;\A1;6
 73
     1
 44
1.0
  0
MTEXT
  5
953
330
923
100
AcDbEntity
  8
本体
  6
Continuous
 62
    20
100
AcDbMText
 10
175.4423162256923
 20
282.4322860198707
 30
0.0
 40
3.259199999999998
 41
0.0
 71
     1
 72
     1
  1
\T0.851;\A1;4
 73
     1
 44
1.0
  0
MTEXT
  5
954
330
923
100
AcDbEntity
  8
本体
  6
Continuous
 62
    20
100
AcDbMText
 10
124.5173162256925
 20
282.4322860198707
 30
0.0
 40
3.259199999999998
 41
0.0
 71
     1
 72
     1
  1
\T0.851;\A1;3
 73
     1
 44
1.0
  0
MTEXT
  5
955
330
923
100
AcDbEntity
  8
本体
  6
Continuous
 62
    20
100
AcDbMText
 10
73.59231622569251
 20
282.4322860198707
 30
0.0
 40
3.259199999999998
 41
0.0
 71
     1
 72
     1
  1
\T0.851;\A1;2
 73
     1
 44
1.0
  0
LINE
  5
956
330
923
100
AcDbEntity
  8
本体
  6
Continuous
 62
    20
100
AcDbLine
 10
49.3520162256925
 20
278.2564360198707
 30
0.0
 11
49.3520162256925
 21
280.8026860198704
 31
0.0
  0
LINE
  5
957
330
923
100
AcDbEntity
  8
本体
  6
Continuous
 62
    20
100
AcDbLine
 10
100.2770162256925
 20
278.2564360198707
 30
0.0
 11
100.2770162256925
 21
280.8026860198704
 31
0.0
  0
LINE
  5
958
330
923
100
AcDbEntity
  8
本体
  6
Continuous
 62
    20
100
AcDbLine
 10
151.2020162256924
 20
278.2564360198707
 30
0.0
 11
151.2020162256924
 21
280.8026860198704
 31
0.0
  0
MTEXT
  5
959
330
923
100
AcDbEntity
  8
本体
  6
Continuous
 62
    20
100
AcDbMText
 10
226.3673162256925
 20
282.4322860198707
 30
0.0
 40
3.259199999999998
 41
0.0
 71
     1
 72
     1
  1
\T0.851;\A1;5
 73
     1
 44
1.0
  0
MTEXT
  5
95A
330
923
100
AcDbEntity
  8
本体
  6
Continuous
 62
    20
100
AcDbMText
 10
277.2923162256925
 20
282.4322860198707
 30
0.0
 40
3.259199999999998
 41
0.0
 71
     1
 72
     1
  1
\T0.851;\A1;6
 73
     1
 44
1.0
  0
MTEXT
  5
95B
330
923
100
AcDbEntity
  8
本体
  6
Continuous
 62
    20
100
AcDbMText
 10
328.2173162256923
 20
282.4322860198707
 30
0.0
 40
3.259199999999998
 41
0.0
 71
     1
 72
     1
  1
\T0.851;\A1;7
 73
     1
 44
1.0
  0
MTEXT
  5
95C
330
923
100
AcDbEntity
  8
本体
  6
Continuous
 62
    20
100
AcDbMText
 10
378.1238162256925
 20
282.4322860198707
 30
0.0
 40
3.259199999999998
 41
0.0
 71
     1
 72
     1
  1
\T0.851;\A1;8
 73
     1
 44
1.0
  0
MTEXT
  5
95D
330
923
100
AcDbEntity
  8
本体
  6
Continuous
 62
    20
100
AcDbMText
 10
405.1140662256925
 20
115.3982860198704
 30
0.0
 40
3.259199999999998
 41
0.0
 71
     1
 72
     1
  1
\T0.851;\A1;D
 73
     1
 44
1.0
  0
MTEXT
  5
95E
330
923
100
AcDbEntity
  8
本体
  6
Continuous
 62
    20
100
AcDbMText
 10
405.1140662256925
 20
64.47328601987074
 30
0.0
 40
3.259199999999998
 41
0.0
 71
     1
 72
     1
  1
\T0.851;\A1;E
 73
     1
 44
1.0
  0
LINE
  5
95F
330
923
100
AcDbEntity
  8
本体
  6
Continuous
 62
    20
100
AcDbLine
 10
403.7900162256923
 20
37.38118601987076
 30
0.0
 11
406.3362662256925
 21
37.38118601987076
 31
0.0
  0
LINE
  5
960
330
923
100
AcDbEntity
  8
本体
  6
Continuous
 62
    20
100
AcDbLine
 10
403.7900162256923
 20
88.30618601987074
 30
0.0
 11
406.3362662256925
 21
88.30618601987074
 31
0.0
  0
MTEXT
  5
961
330
923
100
AcDbEntity
  8
本体
  6
Continuous
 62
    20
100
AcDbMText
 10
405.1140662256925
 20
166.3232860198704
 30
0.0
 40
3.259199999999998
 41
0.0
 71
     1
 72
     1
  1
\T0.851;\A1;C
 73
     1
 44
1.0
  0
MTEXT
  5
962
330
923
100
AcDbEntity
  8
本体
  6
Continuous
 62
    20
100
AcDbMText
 10
405.1140662256925
 20
217.2482860198706
 30
0.0
 40
3.259199999999998
 41
0.0
 71
     1
 72
     1
  1
\T0.851;\A1;B
 73
     1
 44
1.0
  0
MTEXT
  5
963
330
923
100
AcDbEntity
  8
本体
  6
Continuous
 62
    20
100
AcDbMText
 10
405.1140662256925
 20
261.2984110198707
 30
0.0
 40
3.259199999999998
 41
0.0
 71
     1
 72
     1
  1
\T0.851;\A1;A
 73
     1
 44
1.0
  0
LINE
  5
964
330
923
100
AcDbEntity
  8
本体
  6
Continuous
 62
    20
100
AcDbLine
 10
403.7900162256923
 20
241.0811860198706
 30
0.0
 11
406.3362662256925
 21
241.0811860198706
 31
0.0
  0
LINE
  5
965
330
923
100
AcDbEntity
  8
本体
  6
Continuous
 62
    20
100
AcDbLine
 10
403.7900162256923
 20
190.1561860198706
 30
0.0
 11
406.3362662256925
 21
190.1561860198706
 31
0.0
  0
LINE
  5
966
330
923
100
AcDbEntity
  8
本体
  6
Continuous
 62
    20
100
AcDbLine
 10
354.9020162256923
 20
278.2564360198707
 30
0.0
 11
354.9020162256923
 21
280.8026860198704
 31
0.0
  0
LINE
  5
967
330
923
100
AcDbEntity
  8
本体
  6
Continuous
 62
    20
100
AcDbLine
 10
303.9770162256923
 20
278.2564360198707
 30
0.0
 11
303.9770162256923
 21
280.8026860198704
 31
0.0
  0
LINE
  5
968
330
923
100
AcDbEntity
  8
本体
  6
Continuous
 62
    20
100
AcDbLine
 10
253.0520162256923
 20
278.2564360198707
 30
0.0
 11
253.0520162256923
 21
280.8026860198704
 31
0.0
  0
LINE
  5
969
330
923
100
AcDbEntity
  8
本体
  6
Continuous
 62
    20
100
AcDbLine
 10
403.7900162256923
 20
139.2311860198707
 30
0.0
 11
407.8640162256925
 21
139.2311860198707
 31
0.0
  0
LINE
  5
96A
330
923
100
AcDbEntity
  8
本体
  6
Continuous
 62
    20
100
AcDbLine
 10
202.1270162256924
 20
278.2564360198707
 30
0.0
 11
202.1270162256924
 21
282.3304360198706
 31
0.0
  0
MTEXT
  5
96B
330
923
100
AcDbEntity
  8
本体
  6
Continuous
 62
    20
100
AcDbMText
 10
405.1140662256925
 20
20.42316101987075
 30
0.0
 40
3.259199999999998
 41
0.0
 71
     1
 72
     1
  1
\T0.851;\A1;F
 73
     1
 44
1.0
  0
MTEXT
  5
96C
330
923
100
AcDbEntity
  8
本体
  6
Continuous
 62
    20
100
AcDbMText
 10
24.1746962256925
 20
282.4322860198707
 30
0.0
 40
3.259199999999998
 41
0.0
 71
     1
 72
     1
  1
\T1.043;\W1.226;\A1;1
 73
     1
 44
1.0
  0
MTEXT
  5
96D
330
923
100
AcDbEntity
  8
本体
  6
Continuous
 62
    20
100
AcDbMText
 10
175.4423162256923
 20
-0.710713980129248
 30
0.0
 40
3.259199999999998
 41
0.0
 71
     1
 72
     1
  1
\T0.851;\A1;4
 73
     1
 44
1.0
  0
MTEXT
  5
96E
330
923
100
AcDbEntity
  8
本体
  6
Continuous
 62
    20
100
AcDbMText
 10
124.5173162256925
 20
-0.710713980129248
 30
0.0
 40
3.259199999999998
 41
0.0
 71
     1
 72
     1
  1
\T0.851;\A1;3
 73
     1
 44
1.0
  0
MTEXT
  5
96F
330
923
100
AcDbEntity
  8
本体
  6
Continuous
 62
    20
100
AcDbMText
 10
73.59231622569251
 20
-0.710713980129248
 30
0.0
 40
3.259199999999998
 41
0.0
 71
     1
 72
     1
  1
\T0.851;\A1;2
 73
     1
 44
1.0
  0
LINE
  5
970
330
923
100
AcDbEntity
  8
本体
  6
Continuous
 62
    20
100
AcDbLine
 10
49.3520162256925
 20
0.2059360198707569
 30
0.0
 11
49.3520162256925
 21
-2.34031398012924
 31
0.0
  0
LINE
  5
971
330
923
100
AcDbEntity
  8
本体
  6
Continuous
 62
    20
100
AcDbLine
 10
100.2770162256925
 20
0.2059360198707569
 30
0.0
 11
100.2770162256925
 21
-2.34031398012924
 31
0.0
  0
LINE
  5
972
330
923
100
AcDbEntity
  8
本体
  6
Continuous
 62
    20
100
AcDbLine
 10
151.2020162256924
 20
0.2059360198707569
 30
0.0
 11
151.2020162256924
 21
-2.34031398012924
 31
0.0
  0
MTEXT
  5
973
330
923
100
AcDbEntity
  8
本体
  6
Continuous
 62
    20
100
AcDbMText
 10
226.3673162256925
 20
-0.710713980129248
 30
0.0
 40
3.259199999999998
 41
0.0
 71
     1
 72
     1
  1
\T0.851;\A1;5
 73
     1
 44
1.0
  0
MTEXT
  5
974
330
923
100
AcDbEntity
  8
本体
  6
Continuous
 62
    20
100
AcDbMText
 10
277.2923162256925
 20
-0.710713980129248
 30
0.0
 40
3.259199999999998
 41
0.0
 71
     1
 72
     1
  1
\T0.851;\A1;6
 73
     1
 44
1.0
  0
MTEXT
  5
975
330
923
100
AcDbEntity
  8
本体
  6
Continuous
 62
    20
100
AcDbMText
 10
328.2173162256923
 20
-0.710713980129248
 30
0.0
 40
3.259199999999998
 41
0.0
 71
     1
 72
     1
  1
\T0.851;\A1;7
 73
     1
 44
1.0
  0
MTEXT
  5
976
330
923
100
AcDbEntity
  8
本体
  6
Continuous
 62
    20
100
AcDbMText
 10
378.1238162256925
 20
-0.710713980129248
 30
0.0
 40
3.259199999999998
 41
0.0
 71
     1
 72
     1
  1
\T0.851;\A1;8
 73
     1
 44
1.0
  0
LINE
  5
977
330
923
100
AcDbEntity
  8
本体
  6
Continuous
 62
    20
100
AcDbLine
 10
354.9020162256923
 20
0.2059360198707569
 30
0.0
 11
354.9020162256923
 21
-2.34031398012924
 31
0.0
  0
LINE
  5
978
330
923
100
AcDbEntity
  8
本体
  6
Continuous
 62
    20
100
AcDbLine
 10
303.9770162256923
 20
0.2059360198707569
 30
0.0
 11
303.9770162256923
 21
-2.34031398012924
 31
0.0
  0
LINE
  5
979
330
923
100
AcDbEntity
  8
本体
  6
Continuous
 62
    20
100
AcDbLine
 10
253.0520162256923
 20
0.2059360198707569
 30
0.0
 11
253.0520162256923
 21
-2.34031398012924
 31
0.0
  0
LINE
  5
97A
330
923
100
AcDbEntity
  8
本体
  6
Continuous
 62
    20
100
AcDbLine
 10
202.1270162256924
 20
0.2059360198707569
 30
0.0
 11
202.1270162256924
 21
-3.868063980129242
 31
0.0
  0
MTEXT
  5
97B
330
923
100
AcDbEntity
  8
本体
  6
Continuous
 62
    20
100
AcDbMText
 10
24.1746962256925
 20
-0.710713980129248
 30
0.0
 40
3.259199999999998
 41
0.0
 71
     1
 72
     1
  1
\T1.043;\W1.226;\A1;1
 73
     1
 44
1.0
  0
MTEXT
  5
97C
330
923
100
AcDbEntity
  8
本体
  6
Continuous
 62
    20
100
AcDbMText
 10
-3.304433774307481
 20
115.3982860198704
 30
0.0
 40
3.259199999999998
 41
0.0
 71
     1
 72
     1
  1
\T0.851;\A1;D
 73
     1
 44
1.0
  0
MTEXT
  5
97D
330
923
100
AcDbEntity
  8
本体
  6
Continuous
 62
    20
100
AcDbMText
 10
-3.304433774307481
 20
64.47328601987074
 30
0.0
 40
3.259199999999998
 41
0.0
 71
     1
 72
     1
  1
\T0.851;\A1;E
 73
     1
 44
1.0
  0
LINE
  5
97E
330
923
100
AcDbEntity
  8
本体
  6
Continuous
 62
    20
100
AcDbLine
 10
0.4640162256925038
 20
37.38118601987076
 30
0.0
 11
-2.082233774307495
 21
37.38118601987076
 31
0.0
  0
LINE
  5
97F
330
923
100
AcDbEntity
  8
本体
  6
Continuous
 62
    20
100
AcDbLine
 10
0.4640162256925038
 20
88.30618601987074
 30
0.0
 11
-2.082233774307495
 21
88.30618601987074
 31
0.0
  0
MTEXT
  5
980
330
923
100
AcDbEntity
  8
本体
  6
Continuous
 62
    20
100
AcDbMText
 10
-3.304433774307481
 20
166.3232860198704
 30
0.0
 40
3.259199999999998
 41
0.0
 71
     1
 72
     1
  1
\T0.851;\A1;C
 73
     1
 44
1.0
  0
MTEXT
  5
981
330
923
100
AcDbEntity
  8
本体
  6
Continuous
 62
    20
100
AcDbMText
 10
-3.304433774307481
 20
217.2482860198706
 30
0.0
 40
3.259199999999998
 41
0.0
 71
     1
 72
     1
  1
\T0.851;\A1;B
 73
     1
 44
1.0
  0
MTEXT
  5
982
330
923
100
AcDbEntity
  8
本体
  6
Continuous
 62
    20
100
AcDbMText
 10
-3.304433774307481
 20
261.2984110198707
 30
0.0
 40
3.259199999999998
 41
0.0
 71
     1
 72
     1
  1
\T0.851;\A1;A
 73
     1
 44
1.0
  0
LINE
  5
983
330
923
100
AcDbEntity
  8
本体
  6
Continuous
 62
    20
100
AcDbLine
 10
0.4640162256925038
 20
241.0811860198706
 30
0.0
 11
-2.082233774307495
 21
241.0811860198706
 31
0.0
  0
LINE
  5
984
330
923
100
AcDbEntity
  8
本体
  6
Continuous
 62
    20
100
AcDbLine
 10
0.4640162256925038
 20
190.1561860198706
 30
0.0
 11
-2.082233774307495
 21
190.1561860198706
 31
0.0
  0
LINE
  5
985
330
923
100
AcDbEntity
  8
本体
  6
Continuous
 62
    20
100
AcDbLine
 10
0.4640162256925038
 20
139.2311860198707
 30
0.0
 11
-3.609983774307491
 21
139.2311860198707
 31
0.0
  0
MTEXT
  5
986
330
923
100
AcDbEntity
  8
本体
  6
Continuous
 62
    20
100
AcDbMText
 10
-3.304433774307481
 20
20.42316101987075
 30
0.0
 40
3.259199999999998
 41
0.0
 71
     1
 72
     1
  1
\T0.851;\A1;F
 73
     1
 44
1.0
  0
LWPOLYLINE
  5
987
330
923
100
AcDbEntity
  8
0
  6
Continuous
 62
    20
100
AcDbPolyline
 90
        4
 70
     1
 43
0.0
 10
0.4640162256925048
 20
0.205936019870758
 10
403.7900162256923
 20
0.205936019870758
 10
403.7900162256923
 20
278.2564360198707
 10
0.4640162256925048
 20
278.2564360198707
  0
LWPOLYLINE
  5
988
330
923
100
AcDbEntity
  8
0
  6
Continuous
 62
    20
100
AcDbPolyline
 90
        3
 70
   129
 43
0.0
 10
120.0496951848194
 20
35.42710327761815
 10
117.6511894574397
 20
31.27276949555156
 10
122.4482009121991
 20
31.27276949555156
  0
LWPOLYLINE
  5
989
330
923
100
AcDbEntity
  8
0
  6
Continuous
 62
    20
100
AcDbPolyline
 90
        3
 70
   129
 43
0.0
 10
120.0496951848194
 20
30.33460327761815
 10
117.6511894574397
 20
26.18026949555157
 10
122.4482009121991
 20
26.18026949555157
  0
LWPOLYLINE
  5
98A
330
923
100
AcDbEntity
  8
0
  6
Continuous
 62
    20
100
AcDbPolyline
 90
        3
 70
   129
 43
0.0
 10
120.0496951848194
 20
25.24210327761815
 10
117.6511894574397
 20
21.08776949555156
 10
122.4482009121991
 20
21.08776949555156
  0
LWPOLYLINE
  5
98B
330
923
100
AcDbEntity
  8
0
  6
Continuous
 62
    20
100
AcDbPolyline
 90
        3
 70
   129
 43
0.0
 10
120.0496951848194
 20
20.14960327761813
 10
117.6511894574397
 20
15.99526949555157
 10
122.4482009121991
 20
15.99526949555157
  0
LWPOLYLINE
  5
98C
330
923
100
AcDbEntity
  8
0
  6
Continuous
 62
    20
100
AcDbPolyline
 90
        3
 70
   129
 43
0.0
 10
120.0496951848194
 20
15.05710327761815
 10
117.6511894574397
 20
10.90276949555156
 10
122.4482009121991
 20
10.90276949555156
  0
LWPOLYLINE
  5
98D
330
923
100
AcDbEntity
  8
0
  6
Continuous
 62
    20
100
AcDbPolyline
 90
        3
 70
   129
 43
0.0
 10
120.0496951848194
 20
9.964603277618152
 10
117.6511894574397
 20
5.810269495551565
 10
122.4482009121991
 20
5.810269495551565
  0
MTEXT
  5
98E
330
923
100
AcDbEntity
  8
0
  6
Continuous
 62
    20
 48
0.2
100
AcDbMText
 10
239.7006641553456
 20
13.72237873629646
 30
0.0
 40
5.5
 41
63.3036
 71
     1
 72
     5
  1
株式会社アルテックス
 73
     1
 44
1.0
  0
MTEXT
  5
98F
330
923
100
AcDbEntity
  8
0
  6
Continuous
 62
    20
 48
0.2
100
AcDbMText
 10
240.8950722616193
 20
5.662034636890437
 30
0.0
 40
3.0
 41
65.09525565518856
 71
     1
 72
     5
  1
Artics Co.,Ltd  CAD Dept
 73
     1
 44
1.0
  0
LINE
  5
990
330
923
100
AcDbEntity
  8
本体
  6
DASHED
 62
    20
 48
0.2
100
AcDbLine
 10
335.4025162256923
 20
0.2059360198707569
 30
0.0
 11
335.4025162256923
 21
10.39093601987075
 31
0.0
  0
LINE
  5
991
330
923
100
AcDbEntity
  8
本体
  6
DASHED
 62
    20
 48
0.2
100
AcDbLine
 10
343.4025162256923
 20
0.2059360198707569
 30
0.0
 11
343.4025162256923
 21
10.39093601987075
 31
0.0
  0
LINE
  5
992
330
923
100
AcDbEntity
  8
本体
  6
DASHED
 62
    20
 48
0.2
100
AcDbLine
 10
351.4025162256925
 20
0.2059360198707569
 30
0.0
 11
351.4025162256925
 21
10.39093601987075
 31
0.0
  0
LINE
  5
993
330
923
100
AcDbEntity
  8
本体
  6
DASHED
 62
    20
 48
0.2
100
AcDbLine
 10
359.4025162256925
 20
0.2059360198707569
 30
0.0
 11
359.4025162256925
 21
10.39093601987075
 31
0.0
  0
LINE
  5
994
330
923
100
AcDbEntity
  8
本体
  6
DASHED
 62
    20
 48
0.2
100
AcDbLine
 10
367.4025162256925
 20
0.2059360198707569
 30
0.0
 11
367.4025162256925
 21
10.39093601987075
 31
0.0
  0
LINE
  5
995
330
923
100
AcDbEntity
  8
本体
  6
DASHED
 62
    20
 48
0.2
100
AcDbLine
 10
375.4025162256925
 20
0.2059360198707569
 30
0.0
 11
375.4025162256925
 21
10.39093601987075
 31
0.0
  0
LINE
  5
996
330
923
100
AcDbEntity
  8
本体
  6
DASHED
 62
    20
 48
0.2
100
AcDbLine
 10
383.4025162256925
 20
0.2059360198707569
 30
0.0
 11
383.4025162256925
 21
10.39093601987075
 31
0.0
  0
LINE
  5
997
330
923
100
AcDbEntity
  8
本体
  6
DASHED
 62
    20
 48
0.2
100
AcDbLine
 10
391.4025162256925
 20
0.2059360198707569
 30
0.0
 11
391.4025162256925
 21
10.39093601987075
 31
0.0
  0
ENDBLK
  5
999
330
923
100
AcDbEntity
  8
0
100
AcDbBlockEnd
  0
BLOCK
  5
E6C
330
E62
100
AcDbEntity
  8
0
100
AcDbBlockBegin
  2
*D6
 70
     1
 10
0.0
 20
0.0
 30
0.0
  3
*D6
  1

  0
LINE
  5
1A4C
330
E62
100
AcDbEntity
  8
寸法
  6
Continuous
 62
     0
370
    13
100
AcDbLine
 10
304.1514489999999
 20
409.2687594576346
 30
0.0
 11
340.4829582826633
 21
409.2687594576346
 31
0.0
  0
LINE
  5
1A4D
330
E62
100
AcDbEntity
  8
寸法
  6
Continuous
 62
     0
370
    13
100
AcDbLine
 10
305.3514489999999
 20
269.2687594576344
 30
0.0
 11
340.4829582826632
 21
269.2687594576344
 31
0.0
  0
LINE
  5
1A4E
330
E62
100
AcDbEntity
  8
寸法
  6
Continuous
 62
     0
370
    13
100
AcDbLine
 10
339.4829582826633
 20
405.2687594576346
 30
0.0
 11
339.4829582826632
 21
273.2687594576344
 31
0.0
  0
INSERT
  5
1A4F
330
E62
100
AcDbEntity
  8
寸法
  6
Continuous
 62
     0
370
    13
100
AcDbBlockReference
  2
_OPEN30
 10
339.4829582826633
 20
409.2687594576346
 30
0.0
 41
4.0
 42
4.0
 43
4.0
 50
90.0
  0
INSERT
  5
1A50
330
E62
100
AcDbEntity
  8
寸法
  6
Continuous
 62
     0
370
    13
100
AcDbBlockReference
  2
_OPEN30
 10
339.4829582826632
 20
269.2687594576344
 30
0.0
 41
4.0
 42
4.0
 43
4.0
 50
270.0
  0
MTEXT
  5
1A51
330
E62
100
AcDbEntity
  8
寸法
  6
Continuous
 62
     6
100
AcDbMText
 10
334.4829582826632
 20
339.7402626559597
 30
0.0
 40
8.0
 41
0.0
 71
     5
 72
     1
  1
\A1;140
  7
Standard
 11
0.0000000000000001
 21
1.0
 31
0.0
 73
     1
 44
1.0
  0
POINT
  5
1A52
330
E62
100
AcDbEntity
  8
DEFPOINTS
  6
Continuous
 62
     0
100
AcDbPoint
 10
303.1514489999999
 20
409.2687594576346
 30
0.0
  0
POINT
  5
1A53
330
E62
100
AcDbEntity
  8
DEFPOINTS
  6
Continuous
 62
     0
100
AcDbPoint
 10
304.351449
 20
269.2687594576344
 30
0.0
  0
POINT
  5
1A54
330
E62
100
AcDbEntity
  8
DEFPOINTS
  6
Continuous
 62
     0
100
AcDbPoint
 10
339.4829582826632
 20
269.2687594576344
 30
0.0
  0
ENDBLK
  5
E6D
330
E62
100
AcDbEntity
  8
0
100
AcDbBlockEnd
  0
BLOCK
  5
E78
330
E6E
100
AcDbEntity
  8
0
100
AcDbBlockBegin
  2
*D7
 70
     1
 10
0.0
 20
0.0
 30
0.0
  3
*D7
  1

  0
LINE
  5
EB9
330
E6E
100
AcDbEntity
  8
本体
  6
Continuous
 62
     0
370
    13
100
AcDbLine
 10
279.3158389999999
 20
-86.29217300000012
 30
0.0
 11
279.3158389999999
 21
-107.6406550307152
 31
0.0
  0
LINE
  5
EBA
330
E6E
100
AcDbEntity
  8
本体
  6
Continuous
 62
     0
370
    13
100
AcDbLine
 10
322.1158389999998
 20
-87.29217300000009
 30
0.0
 11
322.1158389999998
 21
-107.6406550307152
 31
0.0
  0
LINE
  5
EBB
330
E6E
100
AcDbEntity
  8
本体
  6
Continuous
 62
     0
370
    13
100
AcDbLine
 10
283.3158389999998
 20
-106.6406550307152
 30
0.0
 11
318.1158389999998
 21
-106.6406550307152
 31
0.0
  0
INSERT
  5
EBC
330
E6E
100
AcDbEntity
  8
本体
  6
Continuous
 62
     0
370
    13
100
AcDbBlockReference
  2
_OPEN30
 10
279.3158389999999
 20
-106.6406550307152
 30
0.0
 41
4.0
 42
4.0
 43
4.0
 50
180.0
  0
INSERT
  5
EBD
330
E6E
100
AcDbEntity
  8
本体
  6
Continuous
 62
     0
370
    13
100
AcDbBlockReference
  2
_OPEN30
 10
322.1158389999998
 20
-106.6406550307152
 30
0.0
 41
4.0
 42
4.0
 43
4.0
  0
MTEXT
  5
EBE
330
E6E
100
AcDbEntity
  8
本体
  6
Continuous
 62
     6
100
AcDbMText
 10
300.6327753815511
 20
-101.6406550307151
 30
0.0
 40
8.0
 41
0.0
 71
     5
 72
     1
  1
\A1;42.8
  7
Standard
 73
     1
 44
1.0
  0
POINT
  5
EBF
330
E6E
100
AcDbEntity
  8
DEFPOINTS
  6
Continuous
 62
     0
100
AcDbPoint
 10
279.3158389999999
 20
-85.29217300000011
 30
0.0
  0
POINT
  5
EC0
330
E6E
100
AcDbEntity
  8
DEFPOINTS
  6
Continuous
 62
     0
100
AcDbPoint
 10
322.1158389999998
 20
-86.29217300000012
 30
0.0
  0
POINT
  5
EC1
330
E6E
100
AcDbEntity
  8
DEFPOINTS
  6
Continuous
 62
     0
100
AcDbPoint
 10
322.1158389999998
 20
-106.6406550307152
 30
0.0
  0
ENDBLK
  5
E79
330
E6E
100
AcDbEntity
  8
0
100
AcDbBlockEnd
  0
BLOCK
  5
F86
330
EDD
100
AcDbEntity
  8
0
100
AcDbBlockBegin
  2
A2zuwaku_tate_ban
 70
     0
 10
0.0
 20
0.0
 30
0.0
  3
A2zuwaku_tate_ban
  1

  0
LWPOLYLINE
  5
EDE
330
EDD
100
AcDbEntity
  8
0
  6
Continuous
 62
    20
100
AcDbPolyline
 90
        4
 70
     1
 43
0.0
 10
0.0
 20
0.0
 10
403.3259999999998
 20
0.0
 10
403.3259999999998
 20
556.101
 10
0.0
 20
556.101
  0
LINE
  5
EDF
330
EDD
100
AcDbEntity
  8
本体
  6
Continuous
 62
    20
100
AcDbLine
 10
0.0
 20
556.101
 30
0.0
 11
403.3259999999998
 21
556.101
 31
0.0
  0
MTEXT
  5
EE0
330
EDD
100
AcDbEntity
  8
0
  6
Continuous
 62
    20
 48
0.2
100
AcDbMText
 10
100.9120368161132
 20
23.98990730089127
 30
0.0
 40
2.0
 41
6.9836
 71
     1
 72
     5
  1
±0.3
 73
     1
 44
1.0
  0
MTEXT
  5
EE1
330
EDD
100
AcDbEntity
  8
0
  6
Continuous
 62
    20
 48
0.2
100
AcDbMText
 10
100.9120368161132
 20
18.72102743463239
 30
0.0
 40
2.0
 41
6.9836
 71
     1
 72
     5
  1
±0.5
 73
     1
 44
1.0
  0
MTEXT
  5
EE2
330
EDD
100
AcDbEntity
  8
0
  6
Continuous
 62
    20
 48
0.2
100
AcDbMText
 10
100.9120368161132
 20
8.422761210628724
 30
0.0
 40
2.0
 41
6.9836
 71
     1
 72
     5
  1
±1.2
 73
     1
 44
1.0
  0
MTEXT
  5
EE3
330
EDD
100
AcDbEntity
  8
0
  6
Continuous
 62
    20
 48
0.2
100
AcDbMText
 10
100.9120368161132
 20
13.69164107688761
 30
0.0
 40
2.0
 41
6.9836
 71
     1
 72
     5
  1
±0.8
 73
     1
 44
1.0
  0
MTEXT
  5
EE4
330
EDD
100
AcDbEntity
  8
0
  6
Continuous
 62
    20
 48
0.2
100
AcDbMText
 10
100.9120368161132
 20
3.393375608848888
 30
0.0
 40
2.0
 41
6.9836
 71
     1
 72
     5
  1
±2
 73
     1
 44
1.0
  0
MTEXT
  5
EE5
330
EDD
100
AcDbEntity
  8
0
  6
Continuous
 62
    20
 48
0.2
100
AcDbMText
 10
100.3066240282226
 20
29.02743086646325
 30
0.0
 40
2.0
 41
8.302046568063136
 71
     1
 72
     5
  1
Ｂ  級
 73
     1
 44
1.0
  0
LINE
  5
EE6
330
EDD
100
AcDbEntity
  8
本体
  6
Continuous
 62
    20
100
AcDbLine
 10
0.2581351789582262
 20
35.6475
 30
0.0
 11
403.3259999999998
 21
35.6475
 31
0.0
  0
LINE
  5
EE7
330
EDD
100
AcDbEntity
  8
本体
  6
Continuous
 62
    20
100
AcDbLine
 10
0.2581351789582262
 20
30.555
 30
0.0
 11
230.1809999999999
 21
30.555
 31
0.0
  0
LINE
  5
EE8
330
EDD
100
AcDbEntity
  8
本体
  6
Continuous
 62
    20
100
AcDbLine
 10
0.2581351789582262
 20
25.4625
 30
0.0
 11
230.1809999999999
 21
25.4625
 31
0.0
  0
LINE
  5
EE9
330
EDD
100
AcDbEntity
  8
本体
  6
Continuous
 62
    20
100
AcDbLine
 10
0.2581351789582262
 20
20.37
 30
0.0
 11
230.1809999999999
 21
20.37
 31
0.0
  0
LINE
  5
EEA
330
EDD
100
AcDbEntity
  8
本体
  6
Continuous
 62
    20
100
AcDbLine
 10
0.2581351789582262
 20
15.2775
 30
0.0
 11
230.1809999999999
 21
15.2775
 31
0.0
  0
LINE
  5
EEB
330
EDD
100
AcDbEntity
  8
本体
  6
Continuous
 62
    20
100
AcDbLine
 10
0.2581351789582262
 20
10.18499999999999
 30
0.0
 11
230.1809999999999
 21
10.18499999999999
 31
0.0
  0
LINE
  5
EEC
330
EDD
100
AcDbEntity
  8
本体
  6
Continuous
 62
    20
100
AcDbLine
 10
0.2581351789582262
 20
5.0925
 30
0.0
 11
230.1809999999999
 21
5.0925
 31
0.0
  0
MTEXT
  5
EED
330
EDD
100
AcDbEntity
  8
0
  6
Continuous
 62
    20
 48
0.2
100
AcDbMText
 10
4.816987857309056
 20
8.556527714770201
 30
0.0
 40
2.0
 41
32.2049
 71
     1
 72
     5
  1
１２０  〃     ４００  〃
 73
     1
 44
1.0
  0
MTEXT
  5
EEE
330
EDD
100
AcDbEntity
  8
0
  6
Continuous
 62
    20
 48
0.2
100
AcDbMText
 10
4.816987857309056
 20
3.411525573798658
 30
0.0
 40
2.0
 41
32.20492349478555
 71
     1
 72
     5
  1
４００  〃   １０００  〃
 73
     1
 44
1.0
  0
MTEXT
  5
EEF
330
EDD
100
AcDbEntity
  8
0
  6
Continuous
 62
    20
 48
0.2
100
AcDbMText
 10
6.595880331014412
 20
29.02743086646325
 30
0.0
 40
2.0
 41
27.03797675091755
 71
     1
 72
     5
  1
打抜きの普通寸法許容差
 73
     1
 44
1.0
  0
MTEXT
  5
EF0
330
EDD
100
AcDbEntity
  8
本体
  6
Continuous
 62
    20
100
AcDbMText
 10
-3.768449999999988
 20
36.76784999999995
 30
0.0
 40
3.259199999999998
 41
0.0
 71
     1
 72
     1
  1
\T0.851;H
 73
     1
 44
1.0
  0
LINE
  5
EF1
330
EDD
100
AcDbEntity
  8
本体
  6
Continuous
 62
    20
100
AcDbLine
 10
-0.0000000000000009
 20
60.60075000000001
 30
0.0
 11
-2.546250000000001
 21
60.60075000000001
 31
0.0
  0
LINE
  5
EF2
330
EDD
100
AcDbEntity
  8
本体
  6
Continuous
 62
    20
100
AcDbLine
 10
96.46143565474595
 20
-0.0000000000000011
 30
0.0
 11
96.46143565474595
 21
30.555
 31
0.0
  0
LINE
  5
EF3
330
EDD
100
AcDbEntity
  8
本体
  6
Continuous
 62
    20
100
AcDbLine
 10
55.99853818046401
 20
-0.0000000000000011
 30
0.0
 11
55.99853818046401
 21
30.555
 31
0.0
  0
LINE
  5
EF4
330
EDD
100
AcDbEntity
  8
本体
  6
Continuous
 62
    20
100
AcDbLine
 10
40.72103818046399
 20
-0.0000000000000011
 30
0.0
 11
40.72103818046399
 21
30.555
 31
0.0
  0
MTEXT
  5
EF5
330
EDD
100
AcDbEntity
  8
本体
  6
Continuous
 62
    20
100
AcDbMText
 10
23.71068
 20
-0.9166500000000059
 30
0.0
 40
3.259199999999998
 41
0.0
 71
     1
 72
     1
  1
\T1.043;\W1.226;\A1;1
 73
     1
 44
1.0
  0
MTEXT
  5
EF6
330
EDD
100
AcDbEntity
  8
0
  6
Continuous
 62
    20
 48
0.2
100
AcDbMText
 10
44.96260768898115
 20
3.393375608848888
 30
0.0
 40
2.0
 41
6.9836
 71
     1
 72
     5
  1
±0.8
 73
     1
 44
1.0
  0
LINE
  5
EF7
330
EDD
100
AcDbEntity
  8
本体
  6
Continuous
 62
    20
100
AcDbLine
 10
48.88799999999999
 20
-0.0000000000000011
 30
0.0
 11
48.88799999999999
 21
-2.546249999999999
 31
0.0
  0
MTEXT
  5
EF8
330
EDD
100
AcDbEntity
  8
0
  6
Continuous
 62
    20
 48
0.2
100
AcDbMText
 10
60.76641698444118
 20
3.411525573798658
 30
0.0
 40
2.0
 41
32.20492349478555
 71
     1
 72
     5
  1
４００  〃   １０００  〃
 73
     1
 44
1.0
  0
MTEXT
  5
EF9
330
EDD
100
AcDbEntity
  8
本体
  6
Continuous
 62
    20
100
AcDbMText
 10
73.12830000000002
 20
-0.9166500000000059
 30
0.0
 40
3.259199999999998
 41
0.0
 71
     1
 72
     1
  1
\T0.851;\A1;2
 73
     1
 44
1.0
  0
LINE
  5
EFA
330
EDD
100
AcDbEntity
  8
本体
  6
Continuous
 62
    20
100
AcDbLine
 10
99.813
 20
-0.0000000000000011
 30
0.0
 11
99.813
 21
-2.546249999999999
 31
0.0
  0
MTEXT
  5
EFB
330
EDD
100
AcDbEntity
  8
0
  6
Continuous
 62
    20
 48
0.2
100
AcDbMText
 10
32.52508095653171
 20
34.67595789410752
 30
0.0
 40
3.0
 41
51.59855965713518
 71
     1
 72
     5
  1
金属プレス加工品普通寸法公差
 73
     1
 44
1.0
  0
MTEXT
  5
EFC
330
EDD
100
AcDbEntity
  8
0
  6
Continuous
 62
    20
 48
0.2
100
AcDbMText
 10
28.19400993843474
 20
24.10965518909581
 30
0.0
 40
2.0
 41
11.1385
 71
     1
 72
     5
  1
６ 以下
 73
     1
 44
1.0
  0
MTEXT
  5
EFD
330
EDD
100
AcDbEntity
  8
0
  6
Continuous
 62
    20
 48
0.2
100
AcDbMText
 10
4.816987857309056
 20
13.99661023054415
 30
0.0
 40
2.0
 41
32.2049
 71
     1
 72
     5
  1
  ３０  〃     １２０  〃
 73
     1
 44
1.0
  0
MTEXT
  5
EFE
330
EDD
100
AcDbEntity
  8
0
  6
Continuous
 62
    20
 48
0.2
100
AcDbMText
 10
13.34130633665073
 20
18.65404741903494
 30
0.0
 40
2.0
 41
25.99124615738788
 71
     1
 72
     5
  1
６を超え  ３０  〃
 73
     1
 44
1.0
  0
MTEXT
  5
EFF
330
EDD
100
AcDbEntity
  8
0
  6
Continuous
 62
    20
 48
0.2
100
AcDbMText
 10
44.96260768898115
 20
13.69164107688761
 30
0.0
 40
2.0
 41
6.9836
 71
     1
 72
     5
  1
±0.3
 73
     1
 44
1.0
  0
MTEXT
  5
F00
330
EDD
100
AcDbEntity
  8
0
  6
Continuous
 62
    20
 48
0.2
100
AcDbMText
 10
44.96260768898115
 20
8.422761210628724
 30
0.0
 40
2.0
 41
6.9836
 71
     1
 72
     5
  1
±0.5
 73
     1
 44
1.0
  0
MTEXT
  5
F01
330
EDD
100
AcDbEntity
  8
0
  6
Continuous
 62
    20
 48
0.2
100
AcDbMText
 10
44.96260768898115
 20
18.72102743463239
 30
0.0
 40
2.0
 41
6.9836
 71
     1
 72
     5
  1
±0.2
 73
     1
 44
1.0
  0
MTEXT
  5
F02
330
EDD
100
AcDbEntity
  8
0
  6
Continuous
 62
    20
 48
0.2
100
AcDbMText
 10
44.96260768898115
 20
23.98990730089127
 30
0.0
 40
2.0
 41
6.983634309616491
 71
     1
 72
     5
  1
±0.1
 73
     1
 44
1.0
  0
MTEXT
  5
F03
330
EDD
100
AcDbEntity
  8
0
  6
Continuous
 62
    20
 48
0.2
100
AcDbMText
 10
44.6881371226235
 20
29.02743086646325
 30
0.0
 40
2.0
 41
8.302046568063136
 71
     1
 72
     5
  1
Ｂ  級
 73
     1
 44
1.0
  0
MTEXT
  5
F04
330
EDD
100
AcDbEntity
  8
0
  6
Continuous
 62
    20
 48
0.2
100
AcDbMText
 10
60.76641698444118
 20
13.99661023054415
 30
0.0
 40
2.0
 41
32.2049
 71
     1
 72
     5
  1
  ３０  〃     １２０  〃
 73
     1
 44
1.0
  0
MTEXT
  5
F05
330
EDD
100
AcDbEntity
  8
0
  6
Continuous
 62
    20
 48
0.2
100
AcDbMText
 10
69.29073546378287
 20
18.65404741903494
 30
0.0
 40
2.0
 41
25.99124615738788
 71
     1
 72
     5
  1
６を超え  ３０  〃
 73
     1
 44
1.0
  0
MTEXT
  5
F06
330
EDD
100
AcDbEntity
  8
0
  6
Continuous
 62
    20
 48
0.2
100
AcDbMText
 10
60.76641698444118
 20
8.556527714770201
 30
0.0
 40
2.0
 41
32.2049
 71
     1
 72
     5
  1
１２０  〃     ４００  〃
 73
     1
 44
1.0
  0
MTEXT
  5
F07
330
EDD
100
AcDbEntity
  8
0
  6
Continuous
 62
    20
 48
0.2
100
AcDbMText
 10
59.7477075869475
 20
29.02743086646325
 30
0.0
 40
2.0
 41
34.58719399086748
 71
     1
 72
     5
  1
曲げ及び絞りの普通寸法許容差
 73
     1
 44
1.0
  0
MTEXT
  5
F08
330
EDD
100
AcDbEntity
  8
0
  6
Continuous
 62
    20
 48
0.2
100
AcDbMText
 10
84.14343906556686
 20
24.10965518909581
 30
0.0
 40
2.0
 41
11.1385
 71
     1
 72
     5
  1
６ 以下
 73
     1
 44
1.0
  0
MTEXT
  5
F09
330
EDD
100
AcDbEntity
  8
本体
  6
Continuous
 62
    20
100
AcDbMText
 10
-3.768449999999988
 20
87.69284999999996
 30
0.0
 40
3.259199999999998
 41
0.0
 71
     1
 72
     1
  1
\T0.851;G
 73
     1
 44
1.0
  0
LINE
  5
F0A
330
EDD
100
AcDbEntity
  8
本体
  6
Continuous
 62
    20
100
AcDbLine
 10
-0.0000000000000009
 20
111.5257499999999
 30
0.0
 11
-4.073999999999998
 21
111.5257499999999
 31
0.0
  0
MTEXT
  5
F0B
330
EDD
100
AcDbEntity
  8
本体
  6
Continuous
 62
    20
100
AcDbMText
 10
-3.768449999999988
 20
145.492725
 30
0.0
 40
3.259199999999998
 41
0.0
 71
     1
 72
     1
  1
\T0.851;I
 73
     1
 44
1.0
  0
LINE
  5
F0C
330
EDD
100
AcDbEntity
  8
本体
  6
Continuous
 62
    20
100
AcDbLine
 10
-0.0000000000000009
 20
162.4507499999999
 30
0.0
 11
-2.546250000000001
 21
162.4507499999999
 31
0.0
  0
MTEXT
  5
F0D
330
EDD
100
AcDbEntity
  8
本体
  6
Continuous
 62
    20
100
AcDbMText
 10
-3.768449999999988
 20
189.5428499999999
 30
0.0
 40
3.259199999999998
 41
0.0
 71
     1
 72
     1
  1
\T0.851;H
 73
     1
 44
1.0
  0
LINE
  5
F0E
330
EDD
100
AcDbEntity
  8
本体
  6
Continuous
 62
    20
100
AcDbLine
 10
-0.0000000000000009
 20
213.37575
 30
0.0
 11
-2.546250000000001
 21
213.37575
 31
0.0
  0
MTEXT
  5
F0F
330
EDD
100
AcDbEntity
  8
本体
  6
Continuous
 62
    20
100
AcDbMText
 10
-3.768449999999988
 20
240.46785
 30
0.0
 40
3.259199999999998
 41
0.0
 71
     1
 72
     1
  1
\T0.851;G
 73
     1
 44
1.0
  0
LINE
  5
F10
330
EDD
100
AcDbEntity
  8
本体
  6
Continuous
 62
    20
100
AcDbLine
 10
-0.0000000000000009
 20
264.3007499999999
 30
0.0
 11
-4.073999999999998
 21
264.3007499999999
 31
0.0
  0
MTEXT
  5
F11
330
EDD
100
AcDbEntity
  8
本体
  6
Continuous
 62
    20
100
AcDbMText
 10
-3.768449999999988
 20
291.39285
 30
0.0
 40
3.259199999999998
 41
0.0
 71
     1
 72
     1
  1
\T0.851;F
 73
     1
 44
1.0
  0
LINE
  5
F12
330
EDD
100
AcDbEntity
  8
本体
  6
Continuous
 62
    20
100
AcDbLine
 10
-0.0000000000000009
 20
315.22575
 30
0.0
 11
-2.546250000000001
 21
315.22575
 31
0.0
  0
LINE
  5
F13
330
EDD
100
AcDbEntity
  8
本体
  6
Continuous
 62
    20
100
AcDbLine
 10
-0.0000000000000009
 20
315.22575
 30
0.0
 11
-2.546250000000001
 21
315.22575
 31
0.0
  0
MTEXT
  5
F14
330
EDD
100
AcDbEntity
  8
本体
  6
Continuous
 62
    20
100
AcDbMText
 10
-3.768449999999988
 20
342.3178499999999
 30
0.0
 40
3.259199999999998
 41
0.0
 71
     1
 72
     1
  1
\T0.851;\A1;E
 73
     1
 44
1.0
  0
LINE
  5
F15
330
EDD
100
AcDbEntity
  8
本体
  6
Continuous
 62
    20
100
AcDbLine
 10
-0.0000000000000009
 20
366.15075
 30
0.0
 11
-2.546250000000001
 21
366.15075
 31
0.0
  0
LINE
  5
F16
330
EDD
100
AcDbEntity
  8
本体
  6
Continuous
 62
    20
100
AcDbLine
 10
-0.0000000000000009
 20
366.15075
 30
0.0
 11
-2.546250000000001
 21
366.15075
 31
0.0
  0
MTEXT
  5
F17
330
EDD
100
AcDbEntity
  8
本体
  6
Continuous
 62
    20
100
AcDbMText
 10
-3.768449999999988
 20
393.2428499999998
 30
0.0
 40
3.259199999999998
 41
0.0
 71
     1
 72
     1
  1
\T0.851;\A1;D
 73
     1
 44
1.0
  0
LINE
  5
F18
330
EDD
100
AcDbEntity
  8
本体
  6
Continuous
 62
    20
100
AcDbLine
 10
-0.0000000000000009
 20
417.0757499999998
 30
0.0
 11
-4.073999999999998
 21
417.0757499999998
 31
0.0
  0
MTEXT
  5
F19
330
EDD
100
AcDbEntity
  8
本体
  6
Continuous
 62
    20
100
AcDbMText
 10
-3.768449999999988
 20
444.16785
 30
0.0
 40
3.259199999999998
 41
0.0
 71
     1
 72
     1
  1
\T0.851;\A1;C
 73
     1
 44
1.0
  0
MTEXT
  5
F1A
330
EDD
100
AcDbEntity
  8
本体
  6
Continuous
 62
    20
100
AcDbMText
 10
1.220162999999978
 20
551.78256
 30
0.0
 40
3.56475
 41
0.0
 71
     7
 72
     1
  1
\T0.782;\W0.700;\A1;Ｄｉｍｅｎｓｉｏｎｓ　ｉｎ　ｍｍ（ｎｏｔ　ｔｏ　ｓｃａｌｅ）
 73
     1
 44
1.0
  0
LINE
  5
F1B
330
EDD
100
AcDbEntity
  8
本体
  6
Continuous
 62
    20
100
AcDbLine
 10
0.0
 20
551.0084999999998
 30
0.0
 11
71.29500000000001
 21
551.0084999999998
 31
0.0
  0
LINE
  5
F1C
330
EDD
100
AcDbEntity
  8
本体
  6
Continuous
 62
    20
100
AcDbLine
 10
-0.0000000000000009
 20
468.00075
 30
0.0
 11
-2.546250000000001
 21
468.00075
 31
0.0
  0
MTEXT
  5
F1D
330
EDD
100
AcDbEntity
  8
本体
  6
Continuous
 62
    20
100
AcDbMText
 10
-3.768449999999988
 20
495.0928499999998
 30
0.0
 40
3.259199999999998
 41
0.0
 71
     1
 72
     1
  1
\T0.851;\A1;B
 73
     1
 44
1.0
  0
LINE
  5
F1E
330
EDD
100
AcDbEntity
  8
本体
  6
Continuous
 62
    20
100
AcDbLine
 10
-0.0000000000000009
 20
518.92575
 30
0.0
 11
-2.546250000000001
 21
518.92575
 31
0.0
  0
MTEXT
  5
F1F
330
EDD
100
AcDbEntity
  8
本体
  6
Continuous
 62
    20
100
AcDbMText
 10
-3.768449999999988
 20
539.1429749999998
 30
0.0
 40
3.259199999999998
 41
0.0
 71
     1
 72
     1
  1
\T0.851;\A1;A
 73
     1
 44
1.0
  0
MTEXT
  5
F20
330
EDD
100
AcDbEntity
  8
本体
  6
Continuous
 62
    20
100
AcDbMText
 10
23.71068
 20
560.2768499999998
 30
0.0
 40
3.259199999999998
 41
0.0
 71
     1
 72
     1
  1
\T1.043;\W1.226;\A1;1
 73
     1
 44
1.0
  0
LINE
  5
F21
330
EDD
100
AcDbEntity
  8
本体
  6
Continuous
 62
    20
100
AcDbLine
 10
48.88799999999998
 20
556.101
 30
0.0
 11
48.88799999999998
 21
558.64725
 31
0.0
  0
MTEXT
  5
F22
330
EDD
100
AcDbEntity
  8
本体
  6
Continuous
 62
    20
100
AcDbMText
 10
73.12830000000002
 20
560.2768499999998
 30
0.0
 40
3.259199999999998
 41
0.0
 71
     1
 72
     1
  1
\T0.851;\A1;2
 73
     1
 44
1.0
  0
LINE
  5
F23
330
EDD
100
AcDbEntity
  8
本体
  6
Continuous
 62
    20
100
AcDbLine
 10
71.29500000000001
 20
551.0084999999998
 30
0.0
 11
71.29500000000001
 21
556.101
 31
0.0
  0
LINE
  5
F24
330
EDD
100
AcDbEntity
  8
本体
  6
Continuous
 62
    20
100
AcDbLine
 10
99.81299999999999
 20
556.101
 30
0.0
 11
99.81299999999999
 21
558.64725
 31
0.0
  0
LINE
  5
F25
330
EDD
100
AcDbEntity
  8
本体
  6
Continuous
 62
    20
100
AcDbLine
 10
403.3259999999998
 20
-0.0000000000000011
 30
0.0
 11
403.3259999999998
 21
278.0505
 31
0.0
  0
MTEXT
  5
F26
330
EDD
100
AcDbEntity
  8
0
  6
Continuous
 62
    20
 48
0.2
100
AcDbMText
 10
240.4310560359268
 20
5.456098617019682
 30
0.0
 40
3.0
 41
65.09525565518856
 71
     1
 72
     5
  1
Artics Co.,Ltd  CAD Dept
 73
     1
 44
1.0
  0
MTEXT
  5
F27
330
EDD
100
AcDbEntity
  8
0
  6
Continuous
 62
    20
 48
0.2
100
AcDbMText
 10
239.2366479296532
 20
13.51644271642573
 30
0.0
 40
5.5
 41
63.30364349577846
 71
     1
 72
     5
  1
株式会社アルテックス
 73
     1
 44
1.0
  0
LINE
  5
F28
330
EDD
100
AcDbEntity
  8
本体
  6
Continuous
 62
    20
100
AcDbLine
 10
230.1809999999999
 20
15.2775
 30
0.0
 11
311.661
 21
15.2775
 31
0.0
  0
LINE
  5
F29
330
EDD
100
AcDbEntity
  8
本体
  6
Continuous
 62
    20
100
AcDbLine
 10
230.1809999999999
 20
30.555
 30
0.0
 11
311.661
 21
30.555
 31
0.0
  0
LINE
  5
F2A
330
EDD
100
AcDbEntity
  8
本体
  6
Continuous
 62
    20
100
AcDbLine
 10
181.2929999999999
 20
-0.0000000000000011
 30
0.0
 11
181.2929999999999
 21
35.6475
 31
0.0
  0
LINE
  5
F2B
330
EDD
100
AcDbEntity
  8
本体
  6
Continuous
 62
    20
100
AcDbLine
 10
127.3125
 20
-0.0000000000000011
 30
0.0
 11
127.3125
 21
35.6475
 31
0.0
  0
LINE
  5
F2C
330
EDD
100
AcDbEntity
  8
本体
  6
Continuous
 62
    20
100
AcDbLine
 10
112.0349999999999
 20
-0.0000000000000011
 30
0.0
 11
112.0349999999999
 21
35.6475
 31
0.0
  0
MTEXT
  5
F2D
330
EDD
100
AcDbEntity
  8
本体
  6
Continuous
 62
    20
100
AcDbMText
 10
143.6085
 20
3.819374999999998
 30
0.0
 40
2.54625
 41
0.0
 71
     1
 72
     1
  1
\T0.815;\W0.959;\A1;ＲＥＶＩＳＩＯＮＳ
 73
     1
 44
1.0
  0
MTEXT
  5
F2E
330
EDD
100
AcDbEntity
  8
本体
  6
Continuous
 62
    20
100
AcDbMText
 10
124.0532999999995
 20
-0.9166500000000059
 30
0.0
 40
3.259199999999998
 41
0.0
 71
     1
 72
     1
  1
\T0.851;\A1;3
 73
     1
 44
1.0
  0
MTEXT
  5
F2F
330
EDD
100
AcDbEntity
  8
本体
  6
Continuous
 62
    20
100
AcDbMText
 10
114.9472734374999
 20
3.819374999999998
 30
0.0
 40
2.54625
 41
0.0
 71
     1
 72
     1
  1
\T0.815;\W0.959;\A1;ＭＡＲＫ
 73
     1
 44
1.0
  0
LINE
  5
F30
330
EDD
100
AcDbEntity
  8
本体
  6
Continuous
 62
    20
100
AcDbLine
 10
150.7379999999999
 20
-0.0000000000000011
 30
0.0
 11
150.7379999999999
 21
-2.546249999999999
 31
0.0
  0
MTEXT
  5
F31
330
EDD
100
AcDbEntity
  8
本体
  6
Continuous
 62
    20
100
AcDbMText
 10
174.9782999999999
 20
-0.9166500000000059
 30
0.0
 40
3.259199999999998
 41
0.0
 71
     1
 72
     1
  1
\T0.851;\A1;4
 73
     1
 44
1.0
  0
MTEXT
  5
F32
330
EDD
100
AcDbEntity
  8
本体
  6
Continuous
 62
    20
100
AcDbMText
 10
188.7885234374999
 20
3.819374999999998
 30
0.0
 40
2.54625
 41
0.0
 71
     1
 72
     1
  1
\T0.815;\W0.959;\A1;ＤＡＴＥ
 73
     1
 44
1.0
  0
LWPOLYLINE
  5
F33
330
EDD
100
AcDbEntity
  8
0
  6
Continuous
 62
    20
100
AcDbPolyline
 90
        3
 70
   129
 43
0.0
 10
119.5856789591269
 20
14.85116725774739
 10
117.1871732317472
 20
10.69683347568081
 10
121.9841846865066
 20
10.69683347568081
  0
MTEXT
  5
F34
330
EDD
100
AcDbEntity
  8
本体
  6
Continuous
 62
    20
100
AcDbMText
 10
118.909875
 20
13.24049999999999
 30
0.0
 40
2.036999999999999
 41
0.0
 71
     1
 72
     1
  1
\T0.851;\A1;2
 73
     1
 44
1.0
  0
LWPOLYLINE
  5
F35
330
EDD
100
AcDbEntity
  8
0
  6
Continuous
 62
    20
100
AcDbPolyline
 90
        3
 70
   129
 43
0.0
 10
119.5856789591269
 20
9.758667257747395
 10
117.1871732317472
 20
5.604333475680808
 10
121.9841846865066
 20
5.604333475680808
  0
MTEXT
  5
F36
330
EDD
100
AcDbEntity
  8
本体
  6
Continuous
 62
    20
100
AcDbMText
 10
119.2154249999999
 20
8.147999999999999
 30
0.0
 40
2.036999999999999
 41
0.0
 71
     1
 72
     1
  1
\T1.043;\W1.226;\A1;1
 73
     1
 44
1.0
  0
LWPOLYLINE
  5
F37
330
EDD
100
AcDbEntity
  8
0
  6
Continuous
 62
    20
100
AcDbPolyline
 90
        3
 70
   129
 43
0.0
 10
119.5856789591269
 20
19.94366725774739
 10
117.1871732317472
 20
15.78933347568081
 10
121.9841846865066
 20
15.78933347568081
  0
MTEXT
  5
F38
330
EDD
100
AcDbEntity
  8
本体
  6
Continuous
 62
    20
100
AcDbMText
 10
118.909875
 20
18.33299999999998
 30
0.0
 40
2.036999999999999
 41
0.0
 71
     1
 72
     1
  1
\T0.851;\A1;3
 73
     1
 44
1.0
  0
LWPOLYLINE
  5
F39
330
EDD
100
AcDbEntity
  8
0
  6
Continuous
 62
    20
100
AcDbPolyline
 90
        3
 70
   129
 43
0.0
 10
119.5856789591269
 20
30.1286672577474
 10
117.1871732317472
 20
25.97433347568081
 10
121.9841846865066
 20
25.97433347568081
  0
LWPOLYLINE
  5
F3A
330
EDD
100
AcDbEntity
  8
0
  6
Continuous
 62
    20
100
AcDbPolyline
 90
        3
 70
   129
 43
0.0
 10
119.5856789591269
 20
25.03616725774739
 10
117.1871732317472
 20
20.88183347568081
 10
121.9841846865066
 20
20.88183347568081
  0
MTEXT
  5
F3B
330
EDD
100
AcDbEntity
  8
本体
  6
Continuous
 62
    20
100
AcDbMText
 10
118.909875
 20
28.518
 30
0.0
 40
2.036999999999999
 41
0.0
 71
     1
 72
     1
  1
\T0.851;\A1;5
 73
     1
 44
1.0
  0
MTEXT
  5
F3C
330
EDD
100
AcDbEntity
  8
本体
  6
Continuous
 62
    20
100
AcDbMText
 10
118.909875
 20
23.4255
 30
0.0
 40
2.036999999999999
 41
0.0
 71
     1
 72
     1
  1
\T0.851;\A1;4
 73
     1
 44
1.0
  0
LWPOLYLINE
  5
F3D
330
EDD
100
AcDbEntity
  8
0
  6
Continuous
 62
    20
100
AcDbPolyline
 90
        3
 70
   129
 43
0.0
 10
119.5856789591269
 20
35.22116725774739
 10
117.1871732317472
 20
31.06683347568081
 10
121.9841846865066
 20
31.06683347568081
  0
MTEXT
  5
F3E
330
EDD
100
AcDbEntity
  8
本体
  6
Continuous
 62
    20
100
AcDbMText
 10
118.909875
 20
33.6105
 30
0.0
 40
2.036999999999999
 41
0.0
 71
     1
 72
     1
  1
\T0.851;\A1;6
 73
     1
 44
1.0
  0
LINE
  5
F3F
330
EDD
100
AcDbEntity
  8
本体
  6
Continuous
 62
    20
100
AcDbLine
 10
205.737
 20
-0.0000000000000011
 30
0.0
 11
205.737
 21
35.6475
 31
0.0
  0
LINE
  5
F40
330
EDD
100
AcDbEntity
  8
本体
  6
Continuous
 62
    20
100
AcDbLine
 10
230.1809999999999
 20
-0.0000000000000011
 30
0.0
 11
230.1809999999999
 21
35.6475
 31
0.0
  0
MTEXT
  5
F41
330
EDD
100
AcDbEntity
  8
本体
  6
Continuous
 62
    20
100
AcDbMText
 10
213.2325234375
 20
3.819374999999998
 30
0.0
 40
2.54625
 41
0.0
 71
     1
 72
     1
  1
\T0.815;\W0.959;\A1;ＣＨ’Ｄ
 73
     1
 44
1.0
  0
LINE
  5
F42
330
EDD
100
AcDbEntity
  8
本体
  6
Continuous
 62
    20
100
AcDbLine
 10
201.6629999999999
 20
-0.0000000000000011
 30
0.0
 11
201.6629999999999
 21
-4.073999999999998
 31
0.0
  0
MTEXT
  5
F43
330
EDD
100
AcDbEntity
  8
本体
  6
Continuous
 62
    20
100
AcDbMText
 10
225.9033
 20
-0.9166500000000059
 30
0.0
 40
3.259199999999998
 41
0.0
 71
     1
 72
     1
  1
\T0.851;\A1;5
 73
     1
 44
1.0
  0
LINE
  5
F44
330
EDD
100
AcDbEntity
  8
本体
  6
Continuous
 62
    20
100
AcDbLine
 10
252.5879999999999
 20
-0.0000000000000011
 30
0.0
 11
252.5879999999999
 21
-2.546249999999999
 31
0.0
  0
MTEXT
  5
F45
330
EDD
100
AcDbEntity
  8
本体
  6
Continuous
 62
    20
100
AcDbMText
 10
276.8283
 20
-0.9166500000000059
 30
0.0
 40
3.259199999999998
 41
0.0
 71
     1
 72
     1
  1
\T0.851;\A1;6
 73
     1
 44
1.0
  0
MTEXT
  5
F46
330
EDD
100
AcDbEntity
  8
本体
  6
Continuous
 62
    20
100
AcDbMText
 10
233.9723662499999
 20
34.476225
 30
0.0
 40
2.74995
 41
0.0
 71
     1
 72
     1
  1
\T0.815;\W0.959;\A1;ＤＥＳ’Ｄ
 73
     1
 44
1.0
  0
LINE
  5
F47
330
EDD
100
AcDbEntity
  8
本体
  6
Continuous
 62
    20
100
AcDbLine
 10
230.1809999999999
 20
20.37
 30
0.0
 11
291.291
 21
20.37
 31
0.0
  0
LINE
  5
F48
330
EDD
100
AcDbEntity
  8
本体
  6
Continuous
 62
    20
100
AcDbLine
 10
250.551
 20
15.2775
 30
0.0
 11
250.551
 21
35.6475
 31
0.0
  0
MTEXT
  5
F49
330
EDD
100
AcDbEntity
  8
本体
  6
Continuous
 62
    20
100
AcDbMText
 10
255.6314053124999
 20
34.476225
 30
0.0
 40
2.74995
 41
0.0
 71
     1
 72
     1
  1
\T0.815;\W0.959;\A1;ＣＨ’Ｄ
 73
     1
 44
1.0
  0
LINE
  5
F4A
330
EDD
100
AcDbEntity
  8
本体
  6
Continuous
 62
    20
100
AcDbLine
 10
291.291
 20
15.2775
 30
0.0
 11
291.291
 21
35.6475
 31
0.0
  0
LINE
  5
F4B
330
EDD
100
AcDbEntity
  8
本体
  6
Continuous
 62
    20
100
AcDbLine
 10
270.921
 20
15.2775
 30
0.0
 11
270.921
 21
35.6475
 31
0.0
  0
MTEXT
  5
F4C
330
EDD
100
AcDbEntity
  8
本体
  6
Continuous
 62
    20
100
AcDbMText
 10
274.7123662499999
 20
34.476225
 30
0.0
 40
2.74995
 41
0.0
 71
     1
 72
     1
  1
\T0.815;\W0.959;\A1;ＡＰＰ’Ｄ
 73
     1
 44
1.0
  0
LINE
  5
F4D
330
EDD
100
AcDbEntity
  8
本体
  6
Continuous
 62
    20
100
AcDbLine
 10
311.661
 20
10.18499999999999
 30
0.0
 11
403.3259999999998
 21
10.18499999999999
 31
0.0
  0
LINE
  5
F4E
330
EDD
100
AcDbEntity
  8
本体
  6
Continuous
 62
    20
100
AcDbLine
 10
311.661
 20
25.4625
 30
0.0
 11
403.3259999999998
 21
25.4625
 31
0.0
  0
LINE
  5
F4F
330
EDD
100
AcDbEntity
  8
本体
  6
DASHED
 62
    20
 48
0.2
100
AcDbLine
 10
382.9384999999998
 20
-0.0000000000000011
 30
0.0
 11
382.9384999999998
 21
10.18499999999999
 31
0.0
  0
LINE
  5
F50
330
EDD
100
AcDbEntity
  8
本体
  6
DASHED
 62
    20
 48
0.2
100
AcDbLine
 10
374.9384999999998
 20
-0.0000000000000011
 30
0.0
 11
374.9384999999998
 21
10.18499999999999
 31
0.0
  0
LINE
  5
F51
330
EDD
100
AcDbEntity
  8
本体
  6
DASHED
 62
    20
 48
0.2
100
AcDbLine
 10
366.9384999999998
 20
-0.0000000000000011
 30
0.0
 11
366.9384999999998
 21
10.18499999999999
 31
0.0
  0
LINE
  5
F52
330
EDD
100
AcDbEntity
  8
本体
  6
DASHED
 62
    20
 48
0.2
100
AcDbLine
 10
358.9385
 20
-0.0000000000000011
 30
0.0
 11
358.9385
 21
10.18499999999999
 31
0.0
  0
LINE
  5
F53
330
EDD
100
AcDbEntity
  8
本体
  6
DASHED
 62
    20
 48
0.2
100
AcDbLine
 10
350.9384999999998
 20
-0.0000000000000011
 30
0.0
 11
350.9384999999998
 21
10.18499999999999
 31
0.0
  0
LINE
  5
F54
330
EDD
100
AcDbEntity
  8
本体
  6
DASHED
 62
    20
 48
0.2
100
AcDbLine
 10
342.9384999999998
 20
-0.0000000000000011
 30
0.0
 11
342.9384999999998
 21
10.18499999999999
 31
0.0
  0
LINE
  5
F55
330
EDD
100
AcDbEntity
  8
本体
  6
DASHED
 62
    20
 48
0.2
100
AcDbLine
 10
334.9384999999998
 20
-0.0000000000000011
 30
0.0
 11
334.9384999999998
 21
10.18499999999999
 31
0.0
  0
LINE
  5
F56
330
EDD
100
AcDbEntity
  8
本体
  6
Continuous
 62
    20
100
AcDbLine
 10
326.9384999999997
 20
-0.0000000000000011
 30
0.0
 11
326.9384999999997
 21
10.18499999999999
 31
0.0
  0
LINE
  5
F57
330
EDD
100
AcDbEntity
  8
本体
  6
Continuous
 62
    20
100
AcDbLine
 10
311.661
 20
-0.0000000000000011
 30
0.0
 11
311.661
 21
35.6475
 31
0.0
  0
MTEXT
  5
F58
330
EDD
100
AcDbEntity
  8
本体
  6
Continuous
 62
    20
100
AcDbMText
 10
315.484194375
 20
4.226775000000004
 30
0.0
 40
2.74995
 41
0.0
 71
     1
 72
     1
  1
\T0.815;\W0.959;\A1;ＮＯ．
 73
     1
 44
1.0
  0
LINE
  5
F59
330
EDD
100
AcDbEntity
  8
本体
  6
Continuous
 62
    20
100
AcDbLine
 10
303.5129999999998
 20
-0.0000000000000011
 30
0.0
 11
303.5129999999998
 21
-2.546249999999999
 31
0.0
  0
MTEXT
  5
F5A
330
EDD
100
AcDbEntity
  8
本体
  6
Continuous
 62
    20
100
AcDbMText
 10
327.7533
 20
-0.9166500000000059
 30
0.0
 40
3.259199999999998
 41
0.0
 71
     1
 72
     1
  1
\T0.851;\A1;7
 73
     1
 44
1.0
  0
LINE
  5
F5B
330
EDD
100
AcDbEntity
  8
本体
  6
Continuous
 62
    20
100
AcDbLine
 10
354.4379999999998
 20
-0.0000000000000011
 30
0.0
 11
354.4379999999998
 21
-2.546249999999999
 31
0.0
  0
MTEXT
  5
F5C
330
EDD
100
AcDbEntity
  8
本体
  6
Continuous
 62
    20
100
AcDbMText
 10
377.6598
 20
-0.9166500000000059
 30
0.0
 40
3.259199999999998
 41
0.0
 71
     1
 72
     1
  1
\T0.851;\A1;8
 73
     1
 44
1.0
  0
MTEXT
  5
F5D
330
EDD
100
AcDbEntity
  8
本体
  6
Continuous
 62
    20
100
AcDbMText
 10
312.90611625
 20
8.504474999999994
 30
0.0
 40
2.74995
 41
0.0
 71
     1
 72
     1
  1
\T0.815;\W0.959;\A1;ＤＲＡＷ．
 73
     1
 44
1.0
  0
MTEXT
  5
F5E
330
EDD
100
AcDbEntity
  8
本体
  6
Continuous
 62
    20
100
AcDbMText
 10
313.0614375
 20
34.78177500000001
 30
0.0
 40
2.54625
 41
0.0
 71
     1
 72
     1
  1
\T0.815;\W0.959;\A1;ＭＡＴＥＲＩＡＬ
 73
     1
 44
1.0
  0
MTEXT
  5
F5F
330
EDD
100
AcDbEntity
  8
本体
  6
Continuous
 62
    20
100
AcDbMText
 10
312.7406099999999
 20
24.54584999999999
 30
0.0
 40
3.259199999999998
 41
0.0
 71
     1
 72
     1
  1
\T0.815;\W0.959;\A1;ＴＩＴＬＥ
 73
     1
 44
1.0
  0
MTEXT
  5
F60
330
EDD
100
AcDbEntity
  8
本体
  6
Continuous
 62
    20
100
AcDbMText
 10
295.0823662499999
 20
34.476225
 30
0.0
 40
2.74995
 41
0.0
 71
     1
 72
     1
  1
\T0.815;\W0.959;\A1;ＳＣＡＬＥ
 73
     1
 44
1.0
  0
MTEXT
  5
F61
330
EDD
100
AcDbEntity
  8
本体
  6
Continuous
 62
    20
100
AcDbMText
 10
358.8939374999998
 20
34.78177500000001
 30
0.0
 40
2.54625
 41
0.0
 71
     1
 72
     1
  1
\T0.815;\W0.959;\A1;ＴＲＥＡＴＭＥＮＴ
 73
     1
 44
1.0
  0
LINE
  5
F62
330
EDD
100
AcDbEntity
  8
本体
  6
Continuous
 62
    20
100
AcDbLine
 10
357.4934999999998
 20
25.4625
 30
0.0
 11
357.4934999999998
 21
35.6475
 31
0.0
  0
LINE
  5
F63
330
EDD
100
AcDbEntity
  8
本体
  6
DASHED
 62
    20
 48
0.2
100
AcDbLine
 10
390.9384999999998
 20
-0.0000000000000011
 30
0.0
 11
390.9384999999998
 21
10.18499999999999
 31
0.0
  0
MTEXT
  5
F64
330
EDD
100
AcDbEntity
  8
本体
  6
Continuous
 62
    20
100
AcDbMText
 10
404.65005
 20
36.76784999999995
 30
0.0
 40
3.259199999999998
 41
0.0
 71
     1
 72
     1
  1
\T0.851;H
 73
     1
 44
1.0
  0
LINE
  5
F65
330
EDD
100
AcDbEntity
  8
本体
  6
Continuous
 62
    20
100
AcDbLine
 10
405.8722999999998
 20
60.60075000000001
 30
0.0
 11
403.3260499999998
 21
60.60075000000001
 31
0.0
  0
MTEXT
  5
F66
330
EDD
100
AcDbEntity
  8
本体
  6
Continuous
 62
    20
100
AcDbMText
 10
404.65005
 20
87.69284999999996
 30
0.0
 40
3.259199999999998
 41
0.0
 71
     1
 72
     1
  1
\T0.851;G
 73
     1
 44
1.0
  0
LINE
  5
F67
330
EDD
100
AcDbEntity
  8
本体
  6
Continuous
 62
    20
100
AcDbLine
 10
407.3999999999998
 20
111.5257499999999
 30
0.0
 11
403.3259999999998
 21
111.5257499999999
 31
0.0
  0
MTEXT
  5
F68
330
EDD
100
AcDbEntity
  8
本体
  6
Continuous
 62
    20
100
AcDbMText
 10
404.65005
 20
145.492725
 30
0.0
 40
3.259199999999998
 41
0.0
 71
     1
 72
     1
  1
\T0.851;I
 73
     1
 44
1.0
  0
LINE
  5
F69
330
EDD
100
AcDbEntity
  8
本体
  6
Continuous
 62
    20
100
AcDbLine
 10
405.8722999999998
 20
162.4507499999999
 30
0.0
 11
403.3260499999998
 21
162.4507499999999
 31
0.0
  0
MTEXT
  5
F6A
330
EDD
100
AcDbEntity
  8
本体
  6
Continuous
 62
    20
100
AcDbMText
 10
404.65005
 20
189.5428499999999
 30
0.0
 40
3.259199999999998
 41
0.0
 71
     1
 72
     1
  1
\T0.851;H
 73
     1
 44
1.0
  0
LINE
  5
F6B
330
EDD
100
AcDbEntity
  8
本体
  6
Continuous
 62
    20
100
AcDbLine
 10
405.8722999999998
 20
213.37575
 30
0.0
 11
403.3260499999998
 21
213.37575
 31
0.0
  0
MTEXT
  5
F6C
330
EDD
100
AcDbEntity
  8
本体
  6
Continuous
 62
    20
100
AcDbMText
 10
404.65005
 20
240.46785
 30
0.0
 40
3.259199999999998
 41
0.0
 71
     1
 72
     1
  1
\T0.851;G
 73
     1
 44
1.0
  0
LINE
  5
F6D
330
EDD
100
AcDbEntity
  8
本体
  6
Continuous
 62
    20
100
AcDbLine
 10
407.3999999999998
 20
264.3007499999999
 30
0.0
 11
403.3259999999998
 21
264.3007499999999
 31
0.0
  0
MTEXT
  5
F6E
330
EDD
100
AcDbEntity
  8
本体
  6
Continuous
 62
    20
100
AcDbMText
 10
404.65005
 20
291.39285
 30
0.0
 40
3.259199999999998
 41
0.0
 71
     1
 72
     1
  1
\T0.851;F
 73
     1
 44
1.0
  0
LINE
  5
F6F
330
EDD
100
AcDbEntity
  8
本体
  6
Continuous
 62
    20
100
AcDbLine
 10
405.8722999999998
 20
315.22575
 30
0.0
 11
403.3260499999998
 21
315.22575
 31
0.0
  0
LINE
  5
F70
330
EDD
100
AcDbEntity
  8
本体
  6
Continuous
 62
    20
100
AcDbLine
 10
405.8722999999998
 20
315.22575
 30
0.0
 11
403.3260499999998
 21
315.22575
 31
0.0
  0
MTEXT
  5
F71
330
EDD
100
AcDbEntity
  8
本体
  6
Continuous
 62
    20
100
AcDbMText
 10
124.0532999999995
 20
560.2768499999998
 30
0.0
 40
3.259199999999998
 41
0.0
 71
     1
 72
     1
  1
\T0.851;\A1;3
 73
     1
 44
1.0
  0
LINE
  5
F72
330
EDD
100
AcDbEntity
  8
本体
  6
Continuous
 62
    20
100
AcDbLine
 10
150.7379999999999
 20
556.101
 30
0.0
 11
150.7379999999999
 21
558.64725
 31
0.0
  0
MTEXT
  5
F73
330
EDD
100
AcDbEntity
  8
本体
  6
Continuous
 62
    20
100
AcDbMText
 10
174.9782999999999
 20
560.2768499999998
 30
0.0
 40
3.259199999999998
 41
0.0
 71
     1
 72
     1
  1
\T0.851;\A1;4
 73
     1
 44
1.0
  0
LINE
  5
F74
330
EDD
100
AcDbEntity
  8
本体
  6
Continuous
 62
    20
100
AcDbLine
 10
201.6629999999999
 20
556.101
 30
0.0
 11
201.6629999999999
 21
560.175
 31
0.0
  0
MTEXT
  5
F75
330
EDD
100
AcDbEntity
  8
本体
  6
Continuous
 62
    20
100
AcDbMText
 10
225.9033
 20
560.2768499999998
 30
0.0
 40
3.259199999999998
 41
0.0
 71
     1
 72
     1
  1
\T0.851;\A1;5
 73
     1
 44
1.0
  0
LINE
  5
F76
330
EDD
100
AcDbEntity
  8
本体
  6
Continuous
 62
    20
100
AcDbLine
 10
252.5879999999999
 20
556.101
 30
0.0
 11
252.5879999999999
 21
558.64725
 31
0.0
  0
MTEXT
  5
F77
330
EDD
100
AcDbEntity
  8
本体
  6
Continuous
 62
    20
100
AcDbMText
 10
276.8283
 20
560.2768499999998
 30
0.0
 40
3.259199999999998
 41
0.0
 71
     1
 72
     1
  1
\T0.851;\A1;6
 73
     1
 44
1.0
  0
MTEXT
  5
F78
330
EDD
100
AcDbEntity
  8
本体
  6
Continuous
 62
    20
100
AcDbMText
 10
404.65005
 20
342.3178499999999
 30
0.0
 40
3.259199999999998
 41
0.0
 71
     1
 72
     1
  1
\T0.851;\A1;E
 73
     1
 44
1.0
  0
LINE
  5
F79
330
EDD
100
AcDbEntity
  8
本体
  6
Continuous
 62
    20
100
AcDbLine
 10
405.8722999999998
 20
366.15075
 30
0.0
 11
403.3260499999998
 21
366.15075
 31
0.0
  0
LINE
  5
F7A
330
EDD
100
AcDbEntity
  8
本体
  6
Continuous
 62
    20
100
AcDbLine
 10
405.8722999999998
 20
366.15075
 30
0.0
 11
403.3260499999998
 21
366.15075
 31
0.0
  0
MTEXT
  5
F7B
330
EDD
100
AcDbEntity
  8
本体
  6
Continuous
 62
    20
100
AcDbMText
 10
404.65005
 20
393.2428499999998
 30
0.0
 40
3.259199999999998
 41
0.0
 71
     1
 72
     1
  1
\T0.851;\A1;D
 73
     1
 44
1.0
  0
LINE
  5
F7C
330
EDD
100
AcDbEntity
  8
本体
  6
Continuous
 62
    20
100
AcDbLine
 10
407.3999999999998
 20
417.0757499999998
 30
0.0
 11
403.3259999999998
 21
417.0757499999998
 31
0.0
  0
MTEXT
  5
F7D
330
EDD
100
AcDbEntity
  8
本体
  6
Continuous
 62
    20
100
AcDbMText
 10
404.65005
 20
444.16785
 30
0.0
 40
3.259199999999998
 41
0.0
 71
     1
 72
     1
  1
\T0.851;\A1;C
 73
     1
 44
1.0
  0
LINE
  5
F7E
330
EDD
100
AcDbEntity
  8
本体
  6
Continuous
 62
    20
100
AcDbLine
 10
303.5129999999998
 20
556.101
 30
0.0
 11
303.5129999999998
 21
558.64725
 31
0.0
  0
MTEXT
  5
F7F
330
EDD
100
AcDbEntity
  8
本体
  6
Continuous
 62
    20
100
AcDbMText
 10
327.7533
 20
560.2768499999998
 30
0.0
 40
3.259199999999998
 41
0.0
 71
     1
 72
     1
  1
\T0.851;\A1;7
 73
     1
 44
1.0
  0
LINE
  5
F80
330
EDD
100
AcDbEntity
  8
本体
  6
Continuous
 62
    20
100
AcDbLine
 10
354.4379999999998
 20
556.101
 30
0.0
 11
354.4379999999998
 21
558.64725
 31
0.0
  0
MTEXT
  5
F81
330
EDD
100
AcDbEntity
  8
本体
  6
Continuous
 62
    20
100
AcDbMText
 10
377.6598
 20
560.2768499999998
 30
0.0
 40
3.259199999999998
 41
0.0
 71
     1
 72
     1
  1
\T0.851;\A1;8
 73
     1
 44
1.0
  0
LINE
  5
F82
330
EDD
100
AcDbEntity
  8
本体
  6
Continuous
 62
    20
100
AcDbLine
 10
405.8722999999998
 20
468.00075
 30
0.0
 11
403.3260499999998
 21
468.00075
 31
0.0
  0
MTEXT
  5
F83
330
EDD
100
AcDbEntity
  8
本体
  6
Continuous
 62
    20
100
AcDbMText
 10
404.65005
 20
495.0928499999998
 30
0.0
 40
3.259199999999998
 41
0.0
 71
     1
 72
     1
  1
\T0.851;\A1;B
 73
     1
 44
1.0
  0
LINE
  5
F84
330
EDD
100
AcDbEntity
  8
本体
  6
Continuous
 62
    20
100
AcDbLine
 10
405.8722999999998
 20
518.92575
 30
0.0
 11
403.3260499999998
 21
518.92575
 31
0.0
  0
MTEXT
  5
F85
330
EDD
100
AcDbEntity
  8
本体
  6
Continuous
 62
    20
100
AcDbMText
 10
404.65005
 20
539.1429749999998
 30
0.0
 40
3.259199999999998
 41
0.0
 71
     1
 72
     1
  1
\T0.851;\A1;A
 73
     1
 44
1.0
  0
ENDBLK
  5
F87
330
EDD
100
AcDbEntity
  8
0
100
AcDbBlockEnd
  0
BLOCK
  5
102B
330
1021
100
AcDbEntity
  8
0
100
AcDbBlockBegin
  2
*D9
 70
     1
 10
0.0
 20
0.0
 30
0.0
  3
*D9
  1

  0
LINE
  5
1BD3
330
1021
100
AcDbEntity
  8
寸法
  6
Continuous
 62
     0
370
    13
100
AcDbLine
 10
-207.7485509999999
 20
183.2632674483009
 30
0.0
 11
-207.7485509999999
 21
163.7895167399094
 31
0.0
  0
LINE
  5
1BD4
330
1021
100
AcDbEntity
  8
寸法
  6
Continuous
 62
     0
370
    13
100
AcDbLine
 10
212.2514489999999
 20
183.2632674483009
 30
0.0
 11
212.2514489999999
 21
163.7895167399094
 31
0.0
  0
LINE
  5
1BD5
330
1021
100
AcDbEntity
  8
寸法
  6
Continuous
 62
     0
370
    13
100
AcDbLine
 10
-203.7485509999999
 20
164.7895167399096
 30
0.0
 11
208.2514489999999
 21
164.7895167399096
 31
0.0
  0
INSERT
  5
1BD6
330
1021
100
AcDbEntity
  8
寸法
  6
Continuous
 62
     0
370
    13
100
AcDbBlockReference
  2
_OPEN30
 10
-207.7485509999999
 20
164.7895167399096
 30
0.0
 41
4.0
 42
4.0
 43
4.0
 50
180.0
  0
INSERT
  5
1BD7
330
1021
100
AcDbEntity
  8
寸法
  6
Continuous
 62
     0
370
    13
100
AcDbBlockReference
  2
_OPEN30
 10
212.2514489999999
 20
164.7895167399096
 30
0.0
 41
4.0
 42
4.0
 43
4.0
  0
MTEXT
  5
1BD8
330
1021
100
AcDbEntity
  8
寸法
  6
Continuous
 62
     6
100
AcDbMText
 10
0.4739878999250779
 20
169.7895167399096
 30
0.0
 40
8.0
 41
0.0
 71
     5
 72
     1
  1
\A1;420
  7
Standard
 73
     1
 44
1.0
  0
POINT
  5
1BD9
330
1021
100
AcDbEntity
  8
DEFPOINTS
  6
Continuous
 62
     0
100
AcDbPoint
 10
-207.7485509999999
 20
184.2632674483009
 30
0.0
  0
POINT
  5
1BDA
330
1021
100
AcDbEntity
  8
DEFPOINTS
  6
Continuous
 62
     0
100
AcDbPoint
 10
212.2514489999999
 20
184.2632674483009
 30
0.0
  0
POINT
  5
1BDB
330
1021
100
AcDbEntity
  8
DEFPOINTS
  6
Continuous
 62
     0
100
AcDbPoint
 10
212.2514489999999
 20
164.7895167399096
 30
0.0
  0
ENDBLK
  5
102C
330
1021
100
AcDbEntity
  8
0
100
AcDbBlockEnd
  0
BLOCK
  5
1886
330
187C
100
AcDbEntity
  8
0
100
AcDbBlockBegin
  2
*D10
 70
     1
 10
0.0
 20
0.0
 30
0.0
  3
*D10
  1

  0
LINE
  5
1A55
330
187C
100
AcDbEntity
  8
寸法
  6
Continuous
 62
     0
370
    13
100
AcDbLine
 10
269.095449
 20
286.2687594366903
 30
0.0
 11
324.9542674794397
 21
286.2687594366903
 31
0.0
  0
LINE
  5
1A56
330
187C
100
AcDbEntity
  8
寸法
  6
Continuous
 62
     0
370
    13
100
AcDbLine
 10
305.3514489999999
 20
269.2687594576344
 30
0.0
 11
324.9542674794397
 21
269.2687594576344
 31
0.0
  0
LINE
  5
1A57
330
187C
100
AcDbEntity
  8
寸法
  6
Continuous
 62
     0
370
    13
100
AcDbLine
 10
323.9542674794396
 20
290.2687594366903
 30
0.0
 11
323.9542674794396
 21
294.2687594366903
 31
0.0
  0
LINE
  5
1A58
330
187C
100
AcDbEntity
  8
寸法
  6
Continuous
 62
     0
370
    13
100
AcDbLine
 10
323.9542674794396
 20
265.2687594576344
 30
0.0
 11
323.9542674794396
 21
261.2687594576344
 31
0.0
  0
LINE
  5
1A59
330
187C
100
AcDbEntity
  8
寸法
  6
Continuous
 62
     0
370
    13
100
AcDbLine
 10
323.9542674794396
 20
286.2687594366903
 30
0.0
 11
323.9542674794396
 21
269.2687594576344
 31
0.0
  0
INSERT
  5
1A5A
330
187C
100
AcDbEntity
  8
寸法
  6
Continuous
 62
     0
370
    13
100
AcDbBlockReference
  2
_OPEN30
 10
323.9542674794396
 20
286.2687594366903
 30
0.0
 41
4.0
 42
4.0
 43
4.0
 50
270.0
  0
INSERT
  5
1A5B
330
187C
100
AcDbEntity
  8
寸法
  6
Continuous
 62
     0
370
    13
100
AcDbBlockReference
  2
_OPEN30
 10
323.9542674794396
 20
269.2687594576344
 30
0.0
 41
4.0
 42
4.0
 43
4.0
 50
90.0
  0
MTEXT
  5
1A5C
330
187C
100
AcDbEntity
  8
寸法
  6
Continuous
 62
     6
100
AcDbMText
 10
318.9542674794396
 20
277.7654111480801
 30
0.0
 40
8.0
 41
0.0
 71
     5
 72
     1
  1
\A1;17
  7
Standard
 11
0.0000000000000001
 21
1.0
 31
0.0
 73
     1
 44
1.0
  0
POINT
  5
1A5D
330
187C
100
AcDbEntity
  8
DEFPOINTS
  6
Continuous
 62
     0
100
AcDbPoint
 10
268.095449
 20
286.2687594366903
 30
0.0
  0
POINT
  5
1A5E
330
187C
100
AcDbEntity
  8
DEFPOINTS
  6
Continuous
 62
     0
100
AcDbPoint
 10
304.351449
 20
269.2687594576344
 30
0.0
  0
POINT
  5
1A5F
330
187C
100
AcDbEntity
  8
DEFPOINTS
  6
Continuous
 62
     0
100
AcDbPoint
 10
323.9542674794396
 20
269.2687594576344
 30
0.0
  0
ENDBLK
  5
1887
330
187C
100
AcDbEntity
  8
0
100
AcDbBlockEnd
  0
BLOCK
  5
1907
330
18FD
100
AcDbEntity
  8
0
100
AcDbBlockBegin
  2
*D11
 70
     1
 10
0.0
 20
0.0
 30
0.0
  3
*D11
  1

  0
LINE
  5
1A60
330
18FD
100
AcDbEntity
  8
寸法
  6
Continuous
 62
     0
370
    13
100
AcDbLine
 10
307.6171641052596
 20
165.6768095051893
 30
0.0
 11
264.5446041052588
 21
165.6768095051893
 31
0.0
  0
LINE
  5
1A61
330
18FD
100
AcDbEntity
  8
寸法
  6
Continuous
 62
     0
370
    13
100
AcDbLine
 10
264.5446041052588
 20
165.6768095051893
 30
0.0
 11
242.8111781732561
 21
185.3544407210442
 31
0.0
  0
MTEXT
  5
1A62
330
18FD
100
AcDbEntity
  8
寸法
  6
Continuous
 62
     6
100
AcDbMText
 10
286.5808841052596
 20
168.7596095051893
 30
0.0
 40
4.1656
 41
0.0
 71
     5
 72
     1
  1
\A1;4-10×\U+22057(長丸)
 73
     1
 44
1.0
  0
INSERT
  5
1A63
330
18FD
100
AcDbEntity
  8
寸法
  6
Continuous
 62
     0
370
    13
100
AcDbBlockReference
  2
_OPEN30
 10
239.8459892808528
 20
188.0391483089144
 30
0.0
 41
4.0
 42
4.0
 43
4.0
 50
137.8420366205822
  0
POINT
  5
1A64
330
18FD
100
AcDbEntity
  8
DEFPOINTS
  6
Continuous
 62
     0
100
AcDbPoint
 10
239.8459892808528
 20
188.0391483089144
 30
0.0
  0
POINT
  5
1A65
330
18FD
100
AcDbEntity
  8
DEFPOINTS
  6
Continuous
 62
     0
100
AcDbPoint
 10
234.6569087191469
 20
192.7373865876873
 30
0.0
  0
ENDBLK
  5
1908
330
18FD
100
AcDbEntity
  8
0
100
AcDbBlockEnd
  0
BLOCK
  5
1C57
330
1C50
100
AcDbEntity
  8
0
 62
    84
100
AcDbBlockBegin
  2
*D12
 70
     1
 10
0.0
 20
0.0
 30
0.0
  3
*D12
  1

  0
LINE
  5
1C51
330
1C50
100
AcDbEntity
  8
寸法
  6
Continuous
 62
     0
370
    13
100
AcDbLine
 10
307.6171641052601
 20
165.6768095051889
 30
0.0
 11
264.5446041052589
 21
165.6768095051889
 31
0.0
  0
LINE
  5
1C52
330
1C50
100
AcDbEntity
  8
寸法
  6
Continuous
 62
     0
370
    13
100
AcDbLine
 10
264.5446041052589
 20
165.6768095051889
 30
0.0
 11
242.8111781732562
 21
185.3544407210442
 31
0.0
  0
MTEXT
  5
1C53
330
1C50
100
AcDbEntity
  8
寸法
  6
Continuous
 62
     6
100
AcDbMText
 10
286.5808841052601
 20
168.7596095051891
 30
0.0
 40
4.1656
 41
0.0
 71
     5
 72
     1
  1
\A1;4-10×\U+22057(長丸)
 73
     1
 44
1.0
  0
INSERT
  5
1C54
330
1C50
100
AcDbEntity
  8
寸法
  6
Continuous
 62
     0
370
    13
100
AcDbBlockReference
  2
_OPEN30
 10
239.8459892808528
 20
188.0391483089144
 30
0.0
 41
4.0
 42
4.0
 43
4.0
 50
137.8420366205822
  0
POINT
  5
1C55
330
1C50
100
AcDbEntity
  8
DEFPOINTS
  6
Continuous
 62
     0
100
AcDbPoint
 10
239.8459892808528
 20
188.0391483089144
 30
0.0
  0
POINT
  5
1C56
330
1C50
100
AcDbEntity
  8
DEFPOINTS
  6
Continuous
 62
     0
100
AcDbPoint
 10
234.6569087191467
 20
192.7373865876873
 30
0.0
  0
ENDBLK
  5
1C58
330
1C50
100
AcDbEntity
  8
0
 62
    84
100
AcDbBlockEnd
  0
BLOCK
  5
1C63
330
1C59
100
AcDbEntity
  8
0
 62
    84
100
AcDbBlockBegin
  2
*D13
 70
     1
 10
0.0
 20
0.0
 30
0.0
  3
*D13
  1

  0
LINE
  5
1C5A
330
1C59
100
AcDbEntity
  8
寸法
  6
Continuous
 62
     0
370
    13
100
AcDbLine
 10
2.251448999999865
 20
183.263267448301
 30
0.0
 11
2.251448999999864
 21
163.78951673991
 31
0.0
  0
LINE
  5
1C5B
330
1C59
100
AcDbEntity
  8
寸法
  6
Continuous
 62
     0
370
    13
100
AcDbLine
 10
243.2514489999998
 20
183.955815718669
 30
0.0
 11
243.2514489999998
 21
163.78951673991
 31
0.0
  0
LINE
  5
1C5C
330
1C59
100
AcDbEntity
  8
寸法
  6
Continuous
 62
     0
370
    13
100
AcDbLine
 10
6.251448999999861
 20
164.78951673991
 30
0.0
 11
239.2514489999998
 21
164.78951673991
 31
0.0
  0
MTEXT
  5
1C5D
330
1C59
100
AcDbEntity
  8
寸法
  6
Continuous
 62
     6
100
AcDbMText
 10
122.7514489999999
 20
170.3599289710076
 30
0.0
 40
8.0
 41
0.0
 71
     5
 72
     1
  1
\A1;241
  7
Standard
 73
     1
 44
1.0
  0
INSERT
  5
1C5E
330
1C59
100
AcDbEntity
  8
寸法
  6
Continuous
 62
     0
370
    13
100
AcDbBlockReference
  2
_OPEN30
 10
2.251448999999864
 20
164.78951673991
 30
0.0
 41
4.0
 42
4.0
 43
4.0
 50
180.0
  0
INSERT
  5
1C5F
330
1C59
100
AcDbEntity
  8
寸法
  6
Continuous
 62
     0
370
    13
100
AcDbBlockReference
  2
_OPEN30
 10
243.2514489999998
 20
164.78951673991
 30
0.0
 41
4.0
 42
4.0
 43
4.0
  0
POINT
  5
1C60
330
1C59
100
AcDbEntity
  8
DEFPOINTS
  6
Continuous
 62
     0
100
AcDbPoint
 10
2.251448999999865
 20
184.263267448301
 30
0.0
  0
POINT
  5
1C61
330
1C59
100
AcDbEntity
  8
DEFPOINTS
  6
Continuous
 62
     0
100
AcDbPoint
 10
243.2514489999998
 20
184.9558157186691
 30
0.0
  0
POINT
  5
1C62
330
1C59
100
AcDbEntity
  8
DEFPOINTS
  6
Continuous
 62
     0
100
AcDbPoint
 10
243.2514489999998
 20
164.78951673991
 30
0.0
  0
ENDBLK
  5
1C64
330
1C59
100
AcDbEntity
  8
0
 62
    84
100
AcDbBlockEnd
  0
BLOCK
  5
1CE8
330
1CE1
100
AcDbEntity
  8
0
100
AcDbBlockBegin
  2
*D14
 70
     1
 10
0.0
 20
0.0
 30
0.0
  3
*D14
  1

  0
LINE
  5
1D11
330
1CE1
100
AcDbEntity
  8
寸法
  6
Continuous
 62
     0
370
    13
100
AcDbLine
 10
307.6171641052602
 20
165.6768095051889
 30
0.0
 11
264.5446041052591
 21
165.6768095051889
 31
0.0
  0
LINE
  5
1D12
330
1CE1
100
AcDbEntity
  8
寸法
  6
Continuous
 62
     0
370
    13
100
AcDbLine
 10
264.5446041052591
 20
165.6768095051889
 30
0.0
 11
242.8111781732563
 21
185.354440721044
 31
0.0
  0
MTEXT
  5
1D13
330
1CE1
100
AcDbEntity
  8
寸法
  6
Continuous
 62
     6
100
AcDbMText
 10
286.5808841052601
 20
168.7596095051889
 30
0.0
 40
4.1656
 41
0.0
 71
     5
 72
     1
  1
\A1;4-10×\U+22057(長丸)
 73
     1
 44
1.0
  0
INSERT
  5
1D14
330
1CE1
100
AcDbEntity
  8
寸法
  6
Continuous
 62
     0
370
    13
100
AcDbBlockReference
  2
_OPEN30
 10
239.8459892808528
 20
188.0391483089143
 30
0.0
 41
4.0
 42
4.0
 43
4.0
 50
137.842036620582
  0
POINT
  5
1D15
330
1CE1
100
AcDbEntity
  8
DEFPOINTS
  6
Continuous
 62
     0
100
AcDbPoint
 10
239.8459892808528
 20
188.0391483089143
 30
0.0
  0
POINT
  5
1D16
330
1CE1
100
AcDbEntity
  8
DEFPOINTS
  6
Continuous
 62
     0
100
AcDbPoint
 10
234.656908719147
 20
192.7373865876871
 30
0.0
  0
ENDBLK
  5
1CE9
330
1CE1
100
AcDbEntity
  8
0
100
AcDbBlockEnd
  0
BLOCK
  5
1CF4
330
1CEA
100
AcDbEntity
  8
0
100
AcDbBlockBegin
  2
*D15
 70
     1
 10
0.0
 20
0.0
 30
0.0
  3
*D15
  1

  0
LINE
  5
1D08
330
1CEA
100
AcDbEntity
  8
寸法
  6
Continuous
 62
     0
370
    13
100
AcDbLine
 10
2.251448999999979
 20
183.2632674483009
 30
0.0
 11
2.251448999999977
 21
163.7895167399098
 31
0.0
  0
LINE
  5
1D09
330
1CEA
100
AcDbEntity
  8
寸法
  6
Continuous
 62
     0
370
    13
100
AcDbLine
 10
243.2514489999999
 20
183.9558157186688
 30
0.0
 11
243.2514489999999
 21
163.7895167399098
 31
0.0
  0
LINE
  5
1D0A
330
1CEA
100
AcDbEntity
  8
寸法
  6
Continuous
 62
     0
370
    13
100
AcDbLine
 10
6.251448999999976
 20
164.7895167399098
 30
0.0
 11
239.2514489999999
 21
164.7895167399098
 31
0.0
  0
MTEXT
  5
1D0B
330
1CEA
100
AcDbEntity
  8
寸法
  6
Continuous
 62
     6
100
AcDbMText
 10
122.7514489999999
 20
170.3599289710074
 30
0.0
 40
8.0
 41
0.0
 71
     5
 72
     1
  1
\A1;241
  7
Standard
 73
     1
 44
1.0
  0
INSERT
  5
1D0C
330
1CEA
100
AcDbEntity
  8
寸法
  6
Continuous
 62
     0
370
    13
100
AcDbBlockReference
  2
_OPEN30
 10
2.251448999999977
 20
164.7895167399098
 30
0.0
 41
4.0
 42
4.0
 43
4.0
 50
180.0
  0
INSERT
  5
1D0D
330
1CEA
100
AcDbEntity
  8
寸法
  6
Continuous
 62
     0
370
    13
100
AcDbBlockReference
  2
_OPEN30
 10
243.2514489999999
 20
164.7895167399098
 30
0.0
 41
4.0
 42
4.0
 43
4.0
  0
POINT
  5
1D0E
330
1CEA
100
AcDbEntity
  8
DEFPOINTS
  6
Continuous
 62
     0
100
AcDbPoint
 10
2.251448999999979
 20
184.2632674483009
 30
0.0
  0
POINT
  5
1D0F
330
1CEA
100
AcDbEntity
  8
DEFPOINTS
  6
Continuous
 62
     0
100
AcDbPoint
 10
243.2514489999999
 20
184.955815718669
 30
0.0
  0
POINT
  5
1D10
330
1CEA
100
AcDbEntity
  8
DEFPOINTS
  6
Continuous
 62
     0
100
AcDbPoint
 10
243.2514489999999
 20
164.7895167399098
 30
0.0
  0
ENDBLK
  5
1CF5
330
1CEA
100
AcDbEntity
  8
0
100
AcDbBlockEnd
  0
ENDSEC
  0
SECTION
  2
ENTITIES
  0
DIMENSION
  5
293
330
A
100
AcDbEntity
  8
寸法
  6
Continuous
100
AcDbDimension
  2
*D2
 10
243.2514489999999
 20
118.1724716655794
 30
0.0
 11
0.3089395737897576
 21
118.1724716655794
 31
0.0
 70
   160
  1
<>
 71
     5
 42
481.9999999999998
  3
ARTICS
100
AcDbAlignedDimension
 13
-238.7485509999999
 23
186.2632674483009
 33
0.0
 14
243.2514489999999
 24
186.2632674483009
 34
0.0
100
AcDbRotatedDimension
1001
ACAD
1000
DSTYLE
1002
{
1070
   340
1005
3E4
1070
   140
1040
8.0
1002
}
  0
DIMENSION
  5
2A2
330
A
100
AcDbEntity
  8
寸法
  6
Continuous
100
AcDbDimension
  2
*D4
 10
283.924933
 20
184.2632674483009
 30
0.0
 11
283.924933
 21
206.2632674483007
 31
0.0
 70
   160
  1
<>
 71
     5
 42
43.99999999999989
  3
ARTICS
100
AcDbAlignedDimension
 13
241.2514509999999
 23
228.2632674483008
 33
0.0
 14
241.2514509999999
 24
184.2632674483009
 34
0.0
 50
90.0
100
AcDbRotatedDimension
1001
ACAD
1000
DSTYLE
1002
{
1070
   340
1005
3E4
1070
   140
1040
8.0
1002
}
  0
DIMENSION
  5
2AF
330
A
100
AcDbEntity
  8
寸法
  6
Continuous
100
AcDbDimension
  2
*D3
 10
266.9691569999999
 20
190.3882674483009
 30
0.0
 11
266.9691569999999
 21
206.263267448301
 31
0.0
 70
   160
  1
<>
 71
     5
 42
31.75
  3
ARTICS
100
AcDbAlignedDimension
 13
241.7514509999999
 23
222.1382674483009
 33
0.0
 14
241.7514509999999
 24
190.3882674483009
 34
0.0
 50
90.0
100
AcDbRotatedDimension
1001
ACAD
1000
DSTYLE
1002
{
1070
   340
1005
3E4
1070
   140
1040
6.0
1070
   271
1070
     2
1002
}
  0
DIMENSION
  5
2C0
330
A
100
AcDbEntity
  8
寸法
  6
Continuous
100
AcDbDimension
  2
*D1
 10
235.2514489999999
 20
141.4198676363743
 30
0.0
 11
0.5544602312297684
 21
141.4198676363743
 31
0.0
 70
   160
  1
<>
 71
     5
 42
465.9999999999998
  3
ARTICS
100
AcDbAlignedDimension
 13
-230.7485509999999
 23
185.8882674483009
 33
0.0
 14
235.2514489999999
 24
185.8882674483005
 34
0.0
100
AcDbRotatedDimension
1001
ACAD
1000
DSTYLE
1002
{
1070
   340
1005
3E4
1070
   140
1040
8.0
1002
}
  0
LINE
  5
2C2
330
A
100
AcDbEntity
  8
ear
  6
CENTER
 48
0.2
100
AcDbLine
 10
-237.2485509999999
 20
190.3882674483009
 30
0.0
 11
-224.2485509999999
 21
190.3882674483009
 31
0.0
  0
LINE
  5
2C3
330
A
100
AcDbEntity
  8
ear
  6
CENTER
 48
0.2
100
AcDbLine
 10
-237.2485509999999
 20
222.1382674483009
 30
0.0
 11
-224.2485509999999
 21
222.1382674483009
 31
0.0
  0
LINE
  5
2C4
330
A
100
AcDbEntity
  8
ear
  6
CENTER
 48
0.5
100
AcDbLine
 10
-230.7485509999999
 20
226.638267448301
 30
0.0
 11
-230.7485509999999
 21
185.8882674483009
 31
0.0
  0
LINE
  5
340
330
A
100
AcDbEntity
  8
ear
  6
Continuous
100
AcDbLine
 10
-238.7485509999999
 20
186.2632674483009
 30
0.0
 11
-236.7485509999999
 21
184.2632674483009
 31
0.0
  0
LINE
  5
341
330
A
100
AcDbEntity
  8
ear
  6
Continuous
100
AcDbLine
 10
-236.7485509999999
 20
228.2632674483008
 30
0.0
 11
-238.7485509999999
 21
226.2632674483008
 31
0.0
  0
LINE
  5
342
330
A
100
AcDbEntity
  8
ear
  6
Continuous
100
AcDbLine
 10
-207.7485509999999
 20
184.2632674483009
 30
0.0
 11
-236.7485509999999
 21
184.2632674483009
 31
0.0
  0
LINE
  5
343
330
A
100
AcDbEntity
  8
ear
  6
Continuous
100
AcDbLine
 10
-207.7485509999999
 20
228.2632674483008
 30
0.0
 11
-236.7485509999999
 21
228.2632674483008
 31
0.0
  0
ARC
  5
344
330
A
100
AcDbEntity
  8
ear
  6
Continuous
100
AcDbCircle
 10
-232.7485509999999
 20
222.1382674483009
 30
0.0
 40
3.5
100
AcDbArc
 50
90.0
 51
270.0
  0
ARC
  5
345
330
A
100
AcDbEntity
  8
ear
  6
Continuous
100
AcDbCircle
 10
-228.7485509999999
 20
222.1382674483009
 30
0.0
 40
3.5
100
AcDbArc
 50
270.0
 51
90.0
  0
LINE
  5
346
330
A
100
AcDbEntity
  8
ear
  6
Continuous
100
AcDbLine
 10
-228.7485509999999
 20
225.6382674483007
 30
0.0
 11
-232.7485509999999
 21
225.6382674483007
 31
0.0
  0
LINE
  5
347
330
A
100
AcDbEntity
  8
ear
  6
Continuous
100
AcDbLine
 10
-228.7485509999999
 20
218.6382674483009
 30
0.0
 11
-232.7485509999999
 21
218.6382674483009
 31
0.0
  0
LINE
  5
348
330
A
100
AcDbEntity
  8
ear
  6
Continuous
100
AcDbLine
 10
-228.7485509999999
 20
193.8882674483009
 30
0.0
 11
-232.7485509999999
 21
193.8882674483009
 31
0.0
  0
LINE
  5
349
330
A
100
AcDbEntity
  8
ear
  6
Continuous
100
AcDbLine
 10
-228.7485509999999
 20
186.8882674483008
 30
0.0
 11
-232.7485509999999
 21
186.8882674483008
 31
0.0
  0
ARC
  5
34A
330
A
100
AcDbEntity
  8
ear
  6
Continuous
100
AcDbCircle
 10
-228.7485509999999
 20
190.3882674483009
 30
0.0
 40
3.5
100
AcDbArc
 50
270.0
 51
90.0
  0
ARC
  5
34B
330
A
100
AcDbEntity
  8
ear
  6
Continuous
100
AcDbCircle
 10
-232.7485509999999
 20
190.3882674483009
 30
0.0
 40
3.5
100
AcDbArc
 50
90.0
 51
270.0
  0
LINE
  5
34C
330
A
100
AcDbEntity
  8
ear
  6
Continuous
100
AcDbLine
 10
-238.7485509999999
 20
226.2632674483008
 30
0.0
 11
-238.7485509999999
 21
186.2632674483009
 31
0.0
  0
LINE
  5
45A
330
A
100
AcDbEntity
  8
本体
  6
Continuous
 62
    84
100
AcDbLine
 10
-207.7485509999999
 20
184.2632674483009
 30
0.0
 11
2.251448999999979
 21
184.2632674483009
 31
0.0
  0
LINE
  5
45B
330
A
100
AcDbEntity
  8
本体
  6
Continuous
 62
    84
100
AcDbLine
 10
-206.748551
 20
228.2632674483008
 30
0.0
 11
1.251448999999978
 21
228.2632674483008
 31
0.0
  0
HATCH
  5
45C
330
A
100
AcDbEntity
  8
本体
  6
Continuous
 62
    84
100
AcDbHatch
 10
0.0
 20
0.0
 30
0.0
210
0.0
220
0.0
230
1.0
  2
SOLID
 70
     1
 71
     0
 91
        1
 92
        1
 93
       12
 72
     1
 10
-47.00885426606236
 20
218.2632671686477
 11
-35.34255122802891
 21
218.2632671686477
 72
     1
 10
-35.34255122802891
 20
218.2632671686477
 11
-35.34255122802891
 21
219.0632671686477
 72
     1
 10
-35.34255120990904
 20
219.0632671686477
 11
-47.00885424850613
 21
219.0632671686477
 72
     2
 10
-47.00885426606236
 20
214.0632671686474
 40
5.0
 50
89.99999999999998
 51
135.0
 73
     1
 72
     1
 10
-50.54438809393082
 20
217.5988011452026
 11
-74.8497705840889
 21
193.2934185954398
 72
     2
 10
-77.81961903989459
 20
196.2632671686477
 40
4.2
 50
405.0
 51
450.0
 73
     0
 72
     1
 10
-77.81961903808745
 20
192.0632671686474
 11
-203.7485512280288
 21
192.0632671686474
 72
     1
 10
-203.7485512280288
 20
192.0632671805685
 11
-203.7485512280288
 21
191.2632671686477
 72
     1
 10
-203.7485512280288
 20
191.2632671686477
 11
-77.8196190398944
 21
191.2632671686477
 72
     2
 10
-77.81961903989439
 20
196.2632671686477
 40
5.0
 50
-90.00000000000001
 51
-45.0
 73
     1
 72
     1
 10
-74.28408513305815
 20
192.7277332636183
 11
-49.97870274704586
 21
217.033115649631
 72
     2
 10
-47.00885426606236
 20
214.0632671686474
 40
4.2
 50
225.0
 51
270.0
 73
     0
 97
        0
 75
     0
 76
     1
 98
        1
 10
-101.2282509999999
 20
130.3044574483009
  0
LINE
  5
45D
330
A
100
AcDbEntity
  8
本体
  6
Continuous
 62
    84
100
AcDbLine
 10
-203.7485509999999
 20
192.063267448301
 30
0.0
 11
-77.81961899999997
 21
192.063267448301
 31
0.0
  0
LINE
  5
45E
330
A
100
AcDbEntity
  8
本体
  6
Continuous
 62
    84
100
AcDbLine
 10
-203.7485509999999
 20
191.2632674483008
 30
0.0
 11
-77.81961899999997
 21
191.2632674483008
 31
0.0
  0
LINE
  5
45F
330
A
100
AcDbEntity
  8
本体
  6
Continuous
 62
    84
100
AcDbLine
 10
-204.248551
 20
226.7632674483007
 30
0.0
 11
-1.248551000000019
 21
226.7632674483007
 31
0.0
  0
LINE
  5
460
330
A
100
AcDbEntity
  8
本体
  6
Continuous
 62
    84
100
AcDbLine
 10
-204.248551
 20
185.7632674483008
 30
0.0
 11
-1.248551000000019
 21
185.7632674483008
 31
0.0
  0
LINE
  5
461
330
A
100
AcDbEntity
  8
ear
  6
Continuous
100
AcDbLine
 10
-207.7488377258708
 20
184.3389935019967
 30
0.0
 11
-207.7485509999999
 21
228.2632674483008
 31
0.0
  0
MTEXT
  5
462
330
A
100
AcDbEntity
  8
本体
  6
Continuous
 62
    84
100
AcDbMText
 10
-185.898551
 20
194.2632674483005
 30
0.0
 40
3.5
 41
0.0
 71
     4
 72
     1
  1
\T0.750;\W1.298;\A1;VIDEO DISTRIBUTOR
 73
     1
 44
1.0
  0
LINE
  5
463
330
A
100
AcDbEntity
  8
本体
  6
Continuous
 62
    84
100
AcDbLine
 10
-206.248551
 20
187.7632674483009
 30
0.0
 11
-206.248551
 21
224.7632674483007
 31
0.0
  0
ARC
  5
465
330
A
100
AcDbEntity
  8
本体
  6
Continuous
 62
    84
100
AcDbCircle
 10
-204.248551
 20
224.7632674483007
 30
0.0
 40
2.0
100
AcDbArc
 50
89.99999999999998
 51
180.0
  0
ARC
  5
466
330
A
100
AcDbEntity
  8
本体
  6
Continuous
 62
    84
100
AcDbCircle
 10
-206.748551
 20
227.2632674483009
 30
0.0
 40
1.0
100
AcDbArc
 50
89.99999999999998
 51
180.0
  0
ARC
  5
46C
330
A
100
AcDbEntity
  8
本体
  6
Continuous
 62
    84
100
AcDbCircle
 10
-204.248551
 20
187.7632674483009
 30
0.0
 40
2.0
100
AcDbArc
 50
180.0
 51
270.0
  0
LINE
  5
46D
330
A
100
AcDbEntity
  8
本体
  6
Continuous
 62
    84
100
AcDbLine
 10
-203.7485509999999
 20
192.063267448301
 30
0.0
 11
-203.7485509999999
 21
191.2632674483008
 31
0.0
  0
ARC
  5
46E
330
A
100
AcDbEntity
  8
本体
  6
Continuous
 62
    84
100
AcDbCircle
 10
-21.23855100000003
 20
192.7632674483009
 30
0.0
 40
1.0
100
AcDbArc
 50
270.0
 51
0.0
  0
ARC
  5
46F
330
A
100
AcDbEntity
  8
本体
  6
Continuous
 62
    84
100
AcDbCircle
 10
-21.23855100000003
 20
211.7632674483008
 30
0.0
 40
1.0
100
AcDbArc
 50
0.0
 51
89.99999999999998
  0
LINE
  5
470
330
A
100
AcDbEntity
  8
本体
  6
Continuous
 62
    84
100
AcDbLine
 10
-39.23855100000002
 20
190.2632674483008
 30
0.0
 11
-16.238551
 21
190.2632674483008
 31
0.0
  0
LINE
  5
471
330
A
100
AcDbEntity
  8
本体
  6
Continuous
 62
    84
100
AcDbLine
 10
-39.23855100000002
 20
214.2632674483007
 30
0.0
 11
-16.238551
 21
214.2632674483007
 31
0.0
  0
LINE
  5
472
330
A
100
AcDbEntity
  8
本体
  6
Continuous
 62
    84
100
AcDbLine
 10
-20.23855100000003
 20
199.2632674483008
 30
0.0
 11
-16.238551
 21
199.2632674483008
 31
0.0
  0
LINE
  5
473
330
A
100
AcDbEntity
  8
本体
  6
Continuous
 62
    84
100
AcDbLine
 10
-20.23855100000003
 20
205.2632674483009
 30
0.0
 11
-16.238551
 21
205.2632674483009
 31
0.0
  0
LINE
  5
474
330
A
100
AcDbEntity
  8
本体
  6
Continuous
 62
    84
100
AcDbLine
 10
-39.74855100000002
 20
189.7632674483008
 30
0.0
 11
-15.74855100000001
 21
189.7632674483008
 31
0.0
  0
LINE
  5
475
330
A
100
AcDbEntity
  8
本体
  6
Continuous
 62
    84
100
AcDbLine
 10
-39.74855100000002
 20
214.7632674483009
 30
0.0
 11
-15.74855100000001
 21
214.7632674483009
 31
0.0
  0
LINE
  5
476
330
A
100
AcDbEntity
  8
本体
  6
Continuous
 62
    84
100
AcDbLine
 10
-39.74855100000002
 20
189.7632674483008
 30
0.0
 11
-15.74855100000001
 21
189.7632674483008
 31
0.0
  0
LINE
  5
477
330
A
100
AcDbEntity
  8
本体
  6
Continuous
 62
    84
100
AcDbLine
 10
-39.74855100000002
 20
214.7632674483009
 30
0.0
 11
-15.74855100000001
 21
214.7632674483009
 31
0.0
  0
LINE
  5
478
330
A
100
AcDbEntity
  8
本体
  6
Continuous
 62
    84
100
AcDbLine
 10
-35.23855100000004
 20
192.7632674483009
 30
0.0
 11
-35.23855100000004
 21
211.7632674483008
 31
0.0
  0
LINE
  5
479
330
A
100
AcDbEntity
  8
本体
  6
Continuous
 62
    84
100
AcDbLine
 10
-20.23855100000003
 20
192.7632674483009
 30
0.0
 11
-20.23855100000003
 21
211.7632674483008
 31
0.0
  0
LINE
  5
47A
330
A
100
AcDbEntity
  8
本体
  6
Continuous
 62
    84
100
AcDbLine
 10
-20.23855100000003
 20
214.2632674483007
 30
0.0
 11
-20.23855100000003
 21
190.2632674483008
 31
0.0
  0
LINE
  5
47B
330
A
100
AcDbEntity
  8
本体
  6
Continuous
 62
    84
100
AcDbLine
 10
-35.23855100000004
 20
214.2632674483007
 30
0.0
 11
-35.23855100000004
 21
190.2632674483008
 31
0.0
  0
LINE
  5
47C
330
A
100
AcDbEntity
  8
本体
  6
Continuous
 62
    84
100
AcDbLine
 10
-39.23855100000002
 20
196.2632674483008
 30
0.0
 11
-39.23855100000002
 21
190.2632674483008
 31
0.0
  0
LINE
  5
47D
330
A
100
AcDbEntity
  8
本体
  6
Continuous
 62
    84
100
AcDbLine
 10
-39.74855100000002
 20
195.7632674483009
 30
0.0
 11
-39.74855100000002
 21
189.7632674483008
 31
0.0
  0
LINE
  5
47E
330
A
100
AcDbEntity
  8
本体
  6
Continuous
 62
    84
100
AcDbLine
 10
-49.97870299999998
 20
217.0331154483009
 30
0.0
 11
-74.284085
 21
192.727733448301
 31
0.0
  0
LINE
  5
47F
330
A
100
AcDbEntity
  8
本体
  6
Continuous
 62
    84
100
AcDbLine
 10
-50.54438800000003
 20
217.598801448301
 30
0.0
 11
-74.84977100000003
 21
193.2934184483008
 31
0.0
  0
MTEXT
  5
480
330
A
100
AcDbEntity
  8
本体
  6
Continuous
 62
    84
100
AcDbMText
 10
-46.5235510000001
 20
194.2632674483005
 30
0.0
 40
2.0
 41
0.0
 71
     1
 72
     1
  1
\T0.750;\W1.136;\A1;OFF
 73
     1
 44
1.0
  0
LINE
  5
481
330
A
100
AcDbEntity
  8
本体
  6
Continuous
 62
    84
100
AcDbLine
 10
-39.74855100000002
 20
195.7632674483009
 30
0.0
 11
-39.74855100000002
 21
189.7632674483008
 31
0.0
  0
LINE
  5
482
330
A
100
AcDbEntity
  8
本体
  6
Continuous
 62
    84
100
AcDbLine
 10
-45.23855100000003
 20
205.2632674483009
 30
0.0
 11
-35.23855100000004
 21
205.2632674483009
 31
0.0
  0
LINE
  5
483
330
A
100
AcDbEntity
  8
本体
  6
Continuous
 62
    84
100
AcDbLine
 10
-45.23855100000003
 20
199.2632674483008
 30
0.0
 11
-35.23855100000004
 21
199.2632674483008
 31
0.0
  0
LINE
  5
484
330
A
100
AcDbEntity
  8
本体
  6
Continuous
 62
    84
100
AcDbLine
 10
-45.23855100000003
 20
196.2632674483008
 30
0.0
 11
-39.23855100000002
 21
196.2632674483008
 31
0.0
  0
LINE
  5
485
330
A
100
AcDbEntity
  8
本体
  6
Continuous
 62
    84
100
AcDbLine
 10
-45.23855100000003
 20
208.2632674483007
 30
0.0
 11
-39.23855100000002
 21
208.2632674483007
 31
0.0
  0
LINE
  5
486
330
A
100
AcDbEntity
  8
本体
  6
Continuous
 62
    84
100
AcDbLine
 10
-45.74855100000002
 20
208.763267448301
 30
0.0
 11
-39.74855100000002
 21
208.763267448301
 31
0.0
  0
LINE
  5
487
330
A
100
AcDbEntity
  8
本体
  6
Continuous
 62
    84
100
AcDbLine
 10
-45.74855100000002
 20
195.7632674483009
 30
0.0
 11
-39.74855100000002
 21
195.7632674483009
 31
0.0
  0
LINE
  5
488
330
A
100
AcDbEntity
  8
本体
  6
Continuous
 62
    84
100
AcDbLine
 10
-35.34255100000007
 20
218.2632674483008
 30
0.0
 11
-47.00885400000003
 21
218.2632674483008
 31
0.0
  0
LINE
  5
489
330
A
100
AcDbEntity
  8
本体
  6
Continuous
 62
    84
100
AcDbLine
 10
-35.34255100000007
 20
219.063267448301
 30
0.0
 11
-47.00885400000003
 21
219.063267448301
 31
0.0
  0
MTEXT
  5
48A
330
A
100
AcDbEntity
  8
本体
  6
Continuous
 62
    84
100
AcDbMText
 10
-45.5860510000001
 20
212.2632674483007
 30
0.0
 40
2.0
 41
0.0
 71
     1
 72
     1
  1
\T0.750;\W1.136;\A1;ON
 73
     1
 44
1.0
  0
LINE
  5
48B
330
A
100
AcDbEntity
  8
本体
  6
Continuous
 62
    84
100
AcDbLine
 10
-45.74855100000002
 20
208.763267448301
 30
0.0
 11
-39.74855100000002
 21
208.763267448301
 31
0.0
  0
LINE
  5
48C
330
A
100
AcDbEntity
  8
本体
  6
Continuous
 62
    84
100
AcDbLine
 10
-45.74855100000002
 20
195.7632674483009
 30
0.0
 11
-39.74855100000002
 21
195.7632674483009
 31
0.0
  0
ARC
  5
48D
330
A
100
AcDbEntity
  8
本体
  6
Continuous
 62
    84
100
AcDbCircle
 10
-47.00885400000003
 20
214.0632674483009
 30
0.0
 40
4.2
100
AcDbArc
 50
89.99999999999998
 51
135.0
  0
ARC
  5
48E
330
A
100
AcDbEntity
  8
本体
  6
Continuous
 62
    84
100
AcDbCircle
 10
-47.00885400000003
 20
214.0632674483009
 30
0.0
 40
5.0
100
AcDbArc
 50
89.99999999999998
 51
135.0
  0
LINE
  5
48F
330
A
100
AcDbEntity
  8
本体
  6
Continuous
 62
    84
100
AcDbLine
 10
-45.23855100000003
 20
208.2632674483007
 30
0.0
 11
-45.23855100000003
 21
196.2632674483008
 31
0.0
  0
LINE
  5
490
330
A
100
AcDbEntity
  8
本体
  6
Continuous
 62
    84
100
AcDbLine
 10
-45.74855100000002
 20
208.763267448301
 30
0.0
 11
-45.74855100000002
 21
195.7632674483009
 31
0.0
  0
LINE
  5
491
330
A
100
AcDbEntity
  8
本体
  6
Continuous
 62
    84
100
AcDbLine
 10
-45.74855100000002
 20
208.763267448301
 30
0.0
 11
-45.74855100000002
 21
195.7632674483009
 31
0.0
  0
LINE
  5
492
330
A
100
AcDbEntity
  8
本体
  6
Continuous
 62
    84
100
AcDbLine
 10
-39.23855100000002
 20
214.2632674483007
 30
0.0
 11
-39.23855100000002
 21
208.2632674483007
 31
0.0
  0
LINE
  5
493
330
A
100
AcDbEntity
  8
本体
  6
Continuous
 62
    84
100
AcDbLine
 10
-32.73855100000004
 20
209.7632674483008
 30
0.0
 11
-32.73855100000004
 21
194.763267448301
 31
0.0
  0
LINE
  5
494
330
A
100
AcDbEntity
  8
本体
  6
Continuous
 62
    84
100
AcDbLine
 10
-22.73855100000003
 20
209.7632674483008
 30
0.0
 11
-22.73855100000003
 21
194.763267448301
 31
0.0
  0
LINE
  5
495
330
A
100
AcDbEntity
  8
本体
  6
Continuous
 62
    84
100
AcDbLine
 10
-39.74855100000002
 20
214.7632674483009
 30
0.0
 11
-39.74855100000002
 21
208.763267448301
 31
0.0
  0
LINE
  5
496
330
A
100
AcDbEntity
  8
本体
  6
Continuous
 62
    84
100
AcDbLine
 10
-39.74855100000002
 20
214.7632674483009
 30
0.0
 11
-39.74855100000002
 21
208.763267448301
 31
0.0
  0
LINE
  5
497
330
A
100
AcDbEntity
  8
本体
  6
Continuous
 62
    84
100
AcDbLine
 10
-21.23855100000003
 20
212.7632674483009
 30
0.0
 11
-34.23855100000003
 21
212.7632674483009
 31
0.0
  0
LINE
  5
498
330
A
100
AcDbEntity
  8
本体
  6
Continuous
 62
    84
100
AcDbLine
 10
-35.23855100000004
 20
212.7632674483009
 30
0.0
 11
-20.23855100000003
 21
212.7632674483009
 31
0.0
  0
LINE
  5
499
330
A
100
AcDbEntity
  8
本体
  6
Continuous
 62
    84
100
AcDbLine
 10
-32.73855100000004
 20
209.7632674483008
 30
0.0
 11
-22.73855100000003
 21
209.7632674483008
 31
0.0
  0
MTEXT
  5
49A
330
A
100
AcDbEntity
  8
本体
  6
Continuous
 62
    84
100
AcDbMText
 10
-33.49073900000007
 20
219.9132674483009
 30
0.0
 40
2.5
 41
0.0
 71
     1
 72
     1
  1
\T0.750;\W1.065;\A1;POWER
 73
     1
 44
1.0
  0
LINE
  5
49B
330
A
100
AcDbEntity
  8
本体
  6
Continuous
 62
    84
100
AcDbLine
 10
-35.34255100000007
 20
219.063267448301
 30
0.0
 11
-35.34255100000007
 21
218.2632674483008
 31
0.0
  0
ARC
  5
49C
330
A
100
AcDbEntity
  8
本体
  6
Continuous
 62
    84
100
AcDbCircle
 10
-34.23855100000003
 20
211.7632674483008
 30
0.0
 40
1.0
100
AcDbArc
 50
89.99999999999998
 51
180.0
  0
LINE
  5
49D
330
A
100
AcDbEntity
  8
本体
  6
Continuous
 62
    84
100
AcDbLine
 10
-22.73855100000003
 20
206.5132674483009
 30
0.0
 11
-32.73855100000004
 21
206.5132674483009
 31
0.0
  0
LINE
  5
49E
330
A
100
AcDbEntity
  8
本体
  6
Continuous
 62
    84
100
AcDbLine
 10
-32.73855100000004
 20
194.763267448301
 30
0.0
 11
-22.73855100000003
 21
194.763267448301
 31
0.0
  0
LINE
  5
49F
330
A
100
AcDbEntity
  8
本体
  6
Continuous
 62
    84
100
AcDbLine
 10
-42.73855100000004
 20
204.763267448301
 30
0.0
 11
-42.73855100000004
 21
199.7632674483009
 31
0.0
  0
LINE
  5
4A0
330
A
100
AcDbEntity
  8
本体
  6
Continuous
 62
    84
100
AcDbLine
 10
-37.73855100000004
 20
204.763267448301
 30
0.0
 11
-37.73855100000004
 21
199.7632674483009
 31
0.0
  0
LINE
  5
4A1
330
A
100
AcDbEntity
  8
本体
  6
Continuous
 62
    84
100
AcDbLine
 10
-42.73855100000004
 20
204.763267448301
 30
0.0
 11
-37.73855100000004
 21
204.763267448301
 31
0.0
  0
LINE
  5
4A2
330
A
100
AcDbEntity
  8
本体
  6
Continuous
 62
    84
100
AcDbLine
 10
-42.73855100000004
 20
199.7632674483009
 30
0.0
 11
-37.73855100000004
 21
199.7632674483009
 31
0.0
  0
SOLID
  5
4A3
330
A
100
AcDbEntity
  8
本体
  6
Continuous
 62
    84
100
AcDbTrace
 10
-27.53855099999998
 20
202.7632674483009
 30
0.0
 11
-27.53855099999998
 21
205.5132674483008
 31
0.0
 12
-27.93855100000007
 22
202.7632674483009
 32
0.0
 13
-27.93855100000007
 23
205.5132674483008
 33
0.0
  0
LINE
  5
4A4
330
A
100
AcDbEntity
  8
本体
  6
Continuous
 62
    84
100
AcDbLine
 10
-27.93855100000007
 20
205.5132674483008
 30
0.0
 11
-27.93855100000007
 21
202.7632674483009
 31
0.0
  0
LINE
  5
4A5
330
A
100
AcDbEntity
  8
本体
  6
Continuous
 62
    84
100
AcDbLine
 10
-27.53855099999998
 20
205.5132674483008
 30
0.0
 11
-27.53855099999998
 21
202.7632674483009
 31
0.0
  0
LINE
  5
4A6
330
A
100
AcDbEntity
  8
本体
  6
Continuous
 62
    84
100
AcDbLine
 10
-27.53855099999998
 20
205.5132674483008
 30
0.0
 11
-27.93855100000007
 21
205.5132674483008
 31
0.0
  0
LINE
  5
4A7
330
A
100
AcDbEntity
  8
本体
  6
Continuous
 62
    84
100
AcDbLine
 10
-27.53855099999998
 20
202.7632674483009
 30
0.0
 11
-27.93855100000007
 21
202.7632674483009
 31
0.0
  0
CIRCLE
  5
4A8
330
A
100
AcDbEntity
  8
本体
  6
Continuous
 62
    84
100
AcDbCircle
 10
-27.73855100000003
 20
196.7632674483009
 30
0.0
 40
1.0
  0
ARC
  5
4A9
330
A
100
AcDbEntity
  8
本体
  6
Continuous
 62
    84
100
AcDbCircle
 10
-77.81961899999997
 20
196.2632674483008
 30
0.0
 40
4.2
100
AcDbArc
 50
270.0
 51
315.0
  0
ARC
  5
4AA
330
A
100
AcDbEntity
  8
本体
  6
Continuous
 62
    84
100
AcDbCircle
 10
-77.81961899999997
 20
196.2632674483008
 30
0.0
 40
5.0
100
AcDbArc
 50
270.0
 51
315.0
  0
LINE
  5
4AB
330
A
100
AcDbEntity
  8
本体
  6
Continuous
 62
    84
100
AcDbLine
 10
-21.23855100000003
 20
191.7632674483009
 30
0.0
 11
-34.23855100000003
 21
191.7632674483009
 31
0.0
  0
LINE
  5
4AC
330
A
100
AcDbEntity
  8
本体
  6
Continuous
 62
    84
100
AcDbLine
 10
-35.23855100000004
 20
191.7632674483009
 30
0.0
 11
-20.23855100000003
 21
191.7632674483009
 31
0.0
  0
ARC
  5
4AD
330
A
100
AcDbEntity
  8
本体
  6
Continuous
 62
    84
100
AcDbCircle
 10
-34.23855100000003
 20
192.7632674483009
 30
0.0
 40
1.0
100
AcDbArc
 50
180.0
 51
270.0
  0
LINE
  5
4AF
330
A
100
AcDbEntity
  8
本体
  6
Continuous
 62
    84
100
AcDbLine
 10
-16.238551
 20
214.2632674483007
 30
0.0
 11
-16.238551
 21
190.2632674483008
 31
0.0
  0
LINE
  5
4B0
330
A
100
AcDbEntity
  8
本体
  6
Continuous
 62
    84
100
AcDbLine
 10
2.251448999999979
 20
184.2632674483009
 30
0.0
 11
2.251448999999979
 21
227.2632674483009
 31
0.0
  0
LINE
  5
4B1
330
A
100
AcDbEntity
  8
本体
  6
Continuous
 62
    84
100
AcDbLine
 10
-15.74855100000001
 20
214.7632674483009
 30
0.0
 11
-15.74855100000001
 21
189.7632674483008
 31
0.0
  0
LINE
  5
4B2
330
A
100
AcDbEntity
  8
本体
  6
Continuous
 62
    84
100
AcDbLine
 10
-15.74855100000001
 20
214.7632674483009
 30
0.0
 11
-15.74855100000001
 21
189.7632674483008
 31
0.0
  0
LINE
  5
4B3
330
A
100
AcDbEntity
  8
本体
  6
Continuous
 62
    84
100
AcDbLine
 10
0.7514489999999796
 20
187.7632674483009
 30
0.0
 11
0.7514489999999796
 21
224.7632674483007
 31
0.0
  0
ARC
  5
4B4
330
A
100
AcDbEntity
  8
本体
  6
Continuous
 62
    84
100
AcDbCircle
 10
-1.248551000000019
 20
224.7632674483007
 30
0.0
 40
2.0
100
AcDbArc
 50
0.0
 51
89.99999999999998
  0
ARC
  5
4B5
330
A
100
AcDbEntity
  8
本体
  6
Continuous
 62
    84
100
AcDbCircle
 10
1.251448999999978
 20
227.2632674483009
 30
0.0
 40
1.0
100
AcDbArc
 50
0.0
 51
89.99999999999998
  0
SOLID
  5
4B6
330
A
100
AcDbEntity
  8
本体
  6
Continuous
 62
    84
100
AcDbTrace
 10
-1.748551000000019
 20
219.0632674483008
 30
0.0
 11
-20.07955099999992
 21
219.0632674483008
 31
0.0
 12
-1.748551000000019
 22
218.2632674483008
 32
0.0
 13
-20.07955099999992
 23
218.2632674483008
 33
0.0
  0
LINE
  5
4B7
330
A
100
AcDbEntity
  8
本体
  6
Continuous
 62
    84
100
AcDbLine
 10
-20.07955100000003
 20
218.2632674483008
 30
0.0
 11
-1.748551000000019
 21
218.2632674483008
 31
0.0
  0
LINE
  5
4B8
330
A
100
AcDbEntity
  8
本体
  6
Continuous
 62
    84
100
AcDbLine
 10
-20.07955100000003
 20
219.063267448301
 30
0.0
 11
-1.748551000000019
 21
219.063267448301
 31
0.0
  0
LINE
  5
4B9
330
A
100
AcDbEntity
  8
本体
  6
Continuous
 62
    84
100
AcDbLine
 10
-20.07955100000003
 20
219.063267448301
 30
0.0
 11
-20.07955100000003
 21
218.2632674483008
 31
0.0
  0
LINE
  5
4BB
330
A
100
AcDbEntity
  8
本体
  6
Continuous
 62
    84
100
AcDbLine
 10
-1.748551000000019
 20
219.063267448301
 30
0.0
 11
-1.748551000000019
 21
218.2632674483008
 31
0.0
  0
ARC
  5
4BF
330
A
100
AcDbEntity
  8
本体
  6
Continuous
 62
    84
100
AcDbCircle
 10
-1.248551000000019
 20
187.7632674483009
 30
0.0
 40
2.0
100
AcDbArc
 50
270.0
 51
0.0
  0
DIMENSION
  5
E12
330
A
100
AcDbEntity
  8
寸法
  6
Continuous
100
AcDbDimension
  2
*D6
 10
339.4829582826632
 20
269.2687594576344
 30
0.0
 11
339.4829582826632
 21
339.7402626559597
 31
0.0
 70
   160
 71
     5
 42
140.0
  3
ARTICS
100
AcDbAlignedDimension
 13
303.1514489999999
 23
409.2687594576346
 33
0.0
 14
304.351449
 24
269.2687594576344
 34
0.0
 50
90.0
100
AcDbRotatedDimension
1001
ACAD
1000
DSTYLE
1002
{
1070
   340
1005
3E4
1070
   140
1040
8.0
1070
   271
1070
     0
1002
}
  0
LINE
  5
111E
330
A
100
AcDbEntity
  8
本体
  6
Continuous
 62
    84
100
AcDbLine
 10
2.251449000000147
 20
270.2687594576345
 30
0.0
 11
2.251449000000147
 21
409.2687594576346
 31
0.0
  0
LINE
  5
111F
330
A
100
AcDbEntity
  8
本体
  6
Continuous
 62
    84
100
AcDbLine
 10
-207.7485509999997
 20
270.2687594576345
 30
0.0
 11
-207.7485509999994
 21
409.2687594576346
 31
0.0
  0
LINE
  5
1120
330
A
100
AcDbEntity
  8
本体
  6
Continuous
 62
    84
100
AcDbLine
 10
-205.5485509999996
 20
409.2687594576346
 30
0.0
 11
0.051449000000332
 21
409.2687594576346
 31
0.0
  0
LINE
  5
1121
330
A
100
AcDbEntity
  8
本体
  6
Continuous
 62
    84
100
AcDbLine
 10
-207.7485509999994
 20
409.2687594576346
 30
0.0
 11
2.251449000000147
 21
409.2687594576346
 31
0.0
  0
LINE
  5
1122
330
A
100
AcDbEntity
  8
本体
  6
Continuous
 62
    84
100
AcDbLine
 10
-90.74855099999963
 20
409.7707594576347
 30
0.0
 11
-103.7485509999996
 21
409.7707594576347
 31
0.0
  0
LINE
  5
1123
330
A
100
AcDbEntity
  8
本体
  6
Continuous
 62
    84
100
AcDbLine
 10
-164.4985509999995
 20
420.7707594576346
 30
0.0
 11
-173.9985509999995
 21
420.7707594576346
 31
0.0
  0
LINE
  5
1124
330
A
100
AcDbEntity
  8
本体
  6
Continuous
 62
    84
100
AcDbLine
 10
-162.7485509999996
 20
409.7707594576347
 30
0.0
 11
-175.7485509999995
 21
409.7707594576347
 31
0.0
  0
LINE
  5
1125
330
A
100
AcDbEntity
  8
本体
  6
Continuous
 62
    84
100
AcDbLine
 10
-173.9985509999995
 20
420.7707594576346
 30
0.0
 11
-173.9985509999995
 21
409.7707594576347
 31
0.0
  0
LINE
  5
1126
330
A
100
AcDbEntity
  8
本体
  6
Continuous
 62
    84
100
AcDbLine
 10
-182.4985509999995
 20
420.7707594576346
 30
0.0
 11
-182.4985509999995
 21
409.7707594576347
 31
0.0
  0
LINE
  5
1127
330
A
100
AcDbEntity
  8
本体
  6
Continuous
 62
    84
100
AcDbLine
 10
-191.9985509999996
 20
420.7707594576346
 30
0.0
 11
-191.9985509999996
 21
409.7707594576347
 31
0.0
  0
LINE
  5
1128
330
A
100
AcDbEntity
  8
本体
  6
Continuous
 62
    84
100
AcDbLine
 10
-182.4985509999995
 20
420.7707594576346
 30
0.0
 11
-191.9985509999996
 21
420.7707594576346
 31
0.0
  0
LINE
  5
1129
330
A
100
AcDbEntity
  8
本体
  6
Continuous
 62
    84
100
AcDbLine
 10
-192.7985509999993
 20
417.5307594576346
 30
0.0
 11
-192.7985509999993
 21
415.5307594576346
 31
0.0
  0
LINE
  5
112A
330
A
100
AcDbEntity
  8
本体
  6
Continuous
 62
    84
100
AcDbLine
 10
-191.9985509999996
 20
417.5307594576346
 30
0.0
 11
-192.7985509999993
 21
417.5307594576346
 31
0.0
  0
LINE
  5
112B
330
A
100
AcDbEntity
  8
本体
  6
Continuous
 62
    84
100
AcDbLine
 10
-191.9985509999996
 20
415.5307594576346
 30
0.0
 11
-192.7985509999993
 21
415.5307594576346
 31
0.0
  0
LINE
  5
112C
330
A
100
AcDbEntity
  8
本体
  6
Continuous
 62
    84
100
AcDbLine
 10
-181.6985509999993
 20
417.5307594576346
 30
0.0
 11
-181.6985509999993
 21
415.5307594576346
 31
0.0
  0
LINE
  5
112D
330
A
100
AcDbEntity
  8
本体
  6
Continuous
 62
    84
100
AcDbLine
 10
-181.6985509999993
 20
417.5307594576346
 30
0.0
 11
-182.4985509999995
 21
417.5307594576346
 31
0.0
  0
LINE
  5
112E
330
A
100
AcDbEntity
  8
本体
  6
Continuous
 62
    84
100
AcDbLine
 10
-181.6985509999993
 20
415.5307594576346
 30
0.0
 11
-182.4985509999995
 21
415.5307594576346
 31
0.0
  0
LINE
  5
112F
330
A
100
AcDbEntity
  8
本体
  6
Continuous
 62
    84
100
AcDbLine
 10
-174.7985509999995
 20
417.5307594576346
 30
0.0
 11
-174.7985509999995
 21
415.5307594576346
 31
0.0
  0
LINE
  5
1130
330
A
100
AcDbEntity
  8
本体
  6
Continuous
 62
    84
100
AcDbLine
 10
-173.9985509999995
 20
417.5307594576346
 30
0.0
 11
-174.7985509999995
 21
417.5307594576346
 31
0.0
  0
LINE
  5
1131
330
A
100
AcDbEntity
  8
本体
  6
Continuous
 62
    84
100
AcDbLine
 10
-173.9985509999995
 20
415.5307594576346
 30
0.0
 11
-174.7985509999995
 21
415.5307594576346
 31
0.0
  0
ARC
  5
1132
330
A
100
AcDbEntity
  8
本体
  6
Continuous
 62
    84
100
AcDbCircle
 10
-201.9435509999996
 20
394.2687594576345
 30
0.0
 40
7.799999999999998
100
AcDbArc
 50
157.3801400000004
 51
202.6198699999998
  0
LINE
  5
1133
330
A
100
AcDbEntity
  8
本体
  6
Continuous
 62
    84
100
AcDbLine
 10
-180.7485509999995
 20
409.7707594576347
 30
0.0
 11
-193.7485509999993
 21
409.7707594576347
 31
0.0
  0
LINE
  5
1134
330
A
100
AcDbEntity
  8
本体
  6
Continuous
 62
    84
100
AcDbLine
 10
-193.7485509999993
 20
409.7707594576347
 30
0.0
 11
-193.7485509999993
 21
409.2687594576346
 31
0.0
  0
ARC
  5
1135
330
A
100
AcDbEntity
  8
本体
  6
Continuous
 62
    84
100
AcDbCircle
 10
-208.4435509999996
 20
396.1437594576345
 30
0.0
 40
1.324999999999999
100
AcDbArc
 50
58.10921000000131
 51
121.8907999999996
  0
LINE
  5
1136
330
A
100
AcDbEntity
  8
本体
  6
Continuous
 62
    84
100
AcDbLine
 10
-180.7485509999995
 20
409.7707594576347
 30
0.0
 11
-180.7485509999995
 21
409.2687594576346
 31
0.0
  0
LINE
  5
1137
330
A
100
AcDbEntity
  8
本体
  6
Continuous
 62
    84
100
AcDbLine
 10
-175.7485509999995
 20
409.7707594576347
 30
0.0
 11
-175.7485509999995
 21
409.2687594576346
 31
0.0
  0
ARC
  5
1138
330
A
100
AcDbEntity
  8
本体
  6
Continuous
 62
    84
100
AcDbCircle
 10
-208.4435509999996
 20
392.3937594576345
 30
0.0
 40
1.324999999999999
100
AcDbArc
 50
238.1092100000012
 51
301.8907920000008
  0
LINE
  5
1139
330
A
100
AcDbEntity
  8
本体
  6
Continuous
 62
    84
100
AcDbLine
 10
-137.9985509999996
 20
420.7707594576346
 30
0.0
 11
-137.9985509999996
 21
409.7707594576347
 31
0.0
  0
LINE
  5
113A
330
A
100
AcDbEntity
  8
本体
  6
Continuous
 62
    84
100
AcDbLine
 10
-128.4985509999996
 20
420.7707594576346
 30
0.0
 11
-128.4985509999996
 21
409.7707594576347
 31
0.0
  0
LINE
  5
113B
330
A
100
AcDbEntity
  8
本体
  6
Continuous
 62
    84
100
AcDbLine
 10
-119.9985509999995
 20
420.7707594576346
 30
0.0
 11
-119.9985509999995
 21
409.7707594576347
 31
0.0
  0
LINE
  5
113C
330
A
100
AcDbEntity
  8
本体
  6
Continuous
 62
    84
100
AcDbLine
 10
-110.4985509999995
 20
420.7707594576346
 30
0.0
 11
-110.4985509999995
 21
409.7707594576347
 31
0.0
  0
LINE
  5
113D
330
A
100
AcDbEntity
  8
本体
  6
Continuous
 62
    84
100
AcDbLine
 10
-101.9985509999995
 20
420.7707594576346
 30
0.0
 11
-101.9985509999995
 21
409.7707594576347
 31
0.0
  0
LINE
  5
113E
330
A
100
AcDbEntity
  8
本体
  6
Continuous
 62
    84
100
AcDbLine
 10
-92.49855099999962
 20
420.7707594576346
 30
0.0
 11
-92.49855099999962
 21
409.7707594576347
 31
0.0
  0
LINE
  5
113F
330
A
100
AcDbEntity
  8
本体
  6
Continuous
 62
    84
100
AcDbLine
 10
-146.4985509999995
 20
420.7707594576346
 30
0.0
 11
-146.4985509999995
 21
409.7707594576347
 31
0.0
  0
LINE
  5
1140
330
A
100
AcDbEntity
  8
本体
  6
Continuous
 62
    84
100
AcDbLine
 10
-155.9985509999996
 20
420.7707594576346
 30
0.0
 11
-155.9985509999996
 21
409.7707594576347
 31
0.0
  0
LINE
  5
1141
330
A
100
AcDbEntity
  8
本体
  6
Continuous
 62
    84
100
AcDbLine
 10
-164.4985509999995
 20
420.7707594576346
 30
0.0
 11
-164.4985509999995
 21
409.7707594576347
 31
0.0
  0
LINE
  5
1142
330
A
100
AcDbEntity
  8
本体
  6
Continuous
 62
    84
100
AcDbLine
 10
-128.4985509999996
 20
420.7707594576346
 30
0.0
 11
-137.9985509999996
 21
420.7707594576346
 31
0.0
  0
LINE
  5
1143
330
A
100
AcDbEntity
  8
本体
  6
Continuous
 62
    84
100
AcDbLine
 10
-146.4985509999995
 20
420.7707594576346
 30
0.0
 11
-155.9985509999996
 21
420.7707594576346
 31
0.0
  0
LINE
  5
1144
330
A
100
AcDbEntity
  8
本体
  6
Continuous
 62
    84
100
AcDbLine
 10
-163.6985509999996
 20
417.5307594576346
 30
0.0
 11
-163.6985509999996
 21
415.5307594576346
 31
0.0
  0
LINE
  5
1145
330
A
100
AcDbEntity
  8
本体
  6
Continuous
 62
    84
100
AcDbLine
 10
-163.6985509999996
 20
417.5307594576346
 30
0.0
 11
-164.4985509999995
 21
417.5307594576346
 31
0.0
  0
LINE
  5
1146
330
A
100
AcDbEntity
  8
本体
  6
Continuous
 62
    84
100
AcDbLine
 10
-163.6985509999996
 20
415.5307594576346
 30
0.0
 11
-164.4985509999995
 21
415.5307594576346
 31
0.0
  0
LINE
  5
1147
330
A
100
AcDbEntity
  8
本体
  6
Continuous
 62
    84
100
AcDbLine
 10
-156.7985509999994
 20
417.5307594576346
 30
0.0
 11
-156.7985509999994
 21
415.5307594576346
 31
0.0
  0
LINE
  5
1148
330
A
100
AcDbEntity
  8
本体
  6
Continuous
 62
    84
100
AcDbLine
 10
-155.9985509999996
 20
417.5307594576346
 30
0.0
 11
-156.7985509999994
 21
417.5307594576346
 31
0.0
  0
LINE
  5
1149
330
A
100
AcDbEntity
  8
本体
  6
Continuous
 62
    84
100
AcDbLine
 10
-155.9985509999996
 20
415.5307594576346
 30
0.0
 11
-156.7985509999994
 21
415.5307594576346
 31
0.0
  0
LINE
  5
114A
330
A
100
AcDbEntity
  8
本体
  6
Continuous
 62
    84
100
AcDbLine
 10
-145.6985509999996
 20
417.5307594576346
 30
0.0
 11
-145.6985509999996
 21
415.5307594576346
 31
0.0
  0
LINE
  5
114B
330
A
100
AcDbEntity
  8
本体
  6
Continuous
 62
    84
100
AcDbLine
 10
-145.6985509999996
 20
417.5307594576346
 30
0.0
 11
-146.4985509999995
 21
417.5307594576346
 31
0.0
  0
LINE
  5
114C
330
A
100
AcDbEntity
  8
本体
  6
Continuous
 62
    84
100
AcDbLine
 10
-145.6985509999996
 20
415.5307594576346
 30
0.0
 11
-146.4985509999995
 21
415.5307594576346
 31
0.0
  0
LINE
  5
114D
330
A
100
AcDbEntity
  8
本体
  6
Continuous
 62
    84
100
AcDbLine
 10
-138.7985509999996
 20
417.5307594576346
 30
0.0
 11
-138.7985509999996
 21
415.5307594576346
 31
0.0
  0
LINE
  5
114E
330
A
100
AcDbEntity
  8
本体
  6
Continuous
 62
    84
100
AcDbLine
 10
-137.9985509999996
 20
417.5307594576346
 30
0.0
 11
-138.7985509999996
 21
417.5307594576346
 31
0.0
  0
LINE
  5
114F
330
A
100
AcDbEntity
  8
本体
  6
Continuous
 62
    84
100
AcDbLine
 10
-137.9985509999996
 20
415.5307594576346
 30
0.0
 11
-138.7985509999996
 21
415.5307594576346
 31
0.0
  0
LINE
  5
1150
330
A
100
AcDbEntity
  8
本体
  6
Continuous
 62
    84
100
AcDbLine
 10
-110.4985509999995
 20
420.7707594576346
 30
0.0
 11
-119.9985509999995
 21
420.7707594576346
 31
0.0
  0
LINE
  5
1151
330
A
100
AcDbEntity
  8
本体
  6
Continuous
 62
    84
100
AcDbLine
 10
-127.6985509999996
 20
417.5307594576346
 30
0.0
 11
-127.6985509999996
 21
415.5307594576346
 31
0.0
  0
LINE
  5
1152
330
A
100
AcDbEntity
  8
本体
  6
Continuous
 62
    84
100
AcDbLine
 10
-127.6985509999996
 20
417.5307594576346
 30
0.0
 11
-128.4985509999996
 21
417.5307594576346
 31
0.0
  0
LINE
  5
1153
330
A
100
AcDbEntity
  8
本体
  6
Continuous
 62
    84
100
AcDbLine
 10
-127.6985509999996
 20
415.5307594576346
 30
0.0
 11
-128.4985509999996
 21
415.5307594576346
 31
0.0
  0
LINE
  5
1154
330
A
100
AcDbEntity
  8
本体
  6
Continuous
 62
    84
100
AcDbLine
 10
-120.7985509999996
 20
417.5307594576346
 30
0.0
 11
-120.7985509999996
 21
415.5307594576346
 31
0.0
  0
LINE
  5
1155
330
A
100
AcDbEntity
  8
本体
  6
Continuous
 62
    84
100
AcDbLine
 10
-119.9985509999995
 20
417.5307594576346
 30
0.0
 11
-120.7985509999996
 21
417.5307594576346
 31
0.0
  0
LINE
  5
1156
330
A
100
AcDbEntity
  8
本体
  6
Continuous
 62
    84
100
AcDbLine
 10
-119.9985509999995
 20
415.5307594576346
 30
0.0
 11
-120.7985509999996
 21
415.5307594576346
 31
0.0
  0
LINE
  5
1157
330
A
100
AcDbEntity
  8
本体
  6
Continuous
 62
    84
100
AcDbLine
 10
-92.49855099999962
 20
420.7707594576346
 30
0.0
 11
-101.9985509999995
 21
420.7707594576346
 31
0.0
  0
LINE
  5
1158
330
A
100
AcDbEntity
  8
本体
  6
Continuous
 62
    84
100
AcDbLine
 10
-109.6985509999995
 20
417.5307594576346
 30
0.0
 11
-109.6985509999995
 21
415.5307594576346
 31
0.0
  0
LINE
  5
1159
330
A
100
AcDbEntity
  8
本体
  6
Continuous
 62
    84
100
AcDbLine
 10
-102.7985509999996
 20
417.5307594576346
 30
0.0
 11
-102.7985509999996
 21
415.5307594576346
 31
0.0
  0
LINE
  5
115A
330
A
100
AcDbEntity
  8
本体
  6
Continuous
 62
    84
100
AcDbLine
 10
-109.6985509999995
 20
417.5307594576346
 30
0.0
 11
-110.4985509999995
 21
417.5307594576346
 31
0.0
  0
LINE
  5
115B
330
A
100
AcDbEntity
  8
本体
  6
Continuous
 62
    84
100
AcDbLine
 10
-101.9985509999995
 20
417.5307594576346
 30
0.0
 11
-102.7985509999996
 21
417.5307594576346
 31
0.0
  0
LINE
  5
115C
330
A
100
AcDbEntity
  8
本体
  6
Continuous
 62
    84
100
AcDbLine
 10
-109.6985509999995
 20
415.5307594576346
 30
0.0
 11
-110.4985509999995
 21
415.5307594576346
 31
0.0
  0
LINE
  5
115D
330
A
100
AcDbEntity
  8
本体
  6
Continuous
 62
    84
100
AcDbLine
 10
-101.9985509999995
 20
415.5307594576346
 30
0.0
 11
-102.7985509999996
 21
415.5307594576346
 31
0.0
  0
LINE
  5
115E
330
A
100
AcDbEntity
  8
本体
  6
Continuous
 62
    84
100
AcDbLine
 10
-91.69855099999969
 20
417.5307594576346
 30
0.0
 11
-91.69855099999969
 21
415.5307594576346
 31
0.0
  0
LINE
  5
115F
330
A
100
AcDbEntity
  8
本体
  6
Continuous
 62
    84
100
AcDbLine
 10
-91.69855099999969
 20
417.5307594576346
 30
0.0
 11
-92.49855099999962
 21
417.5307594576346
 31
0.0
  0
LINE
  5
1160
330
A
100
AcDbEntity
  8
本体
  6
Continuous
 62
    84
100
AcDbLine
 10
-91.69855099999969
 20
415.5307594576346
 30
0.0
 11
-92.49855099999962
 21
415.5307594576346
 31
0.0
  0
LINE
  5
1161
330
A
100
AcDbEntity
  8
本体
  6
Continuous
 62
    84
100
AcDbLine
 10
-126.7485509999995
 20
409.7707594576347
 30
0.0
 11
-139.7485509999995
 21
409.7707594576347
 31
0.0
  0
LINE
  5
1162
330
A
100
AcDbEntity
  8
本体
  6
Continuous
 62
    84
100
AcDbLine
 10
-144.7485509999995
 20
409.7707594576347
 30
0.0
 11
-157.7485509999996
 21
409.7707594576347
 31
0.0
  0
LINE
  5
1163
330
A
100
AcDbEntity
  8
本体
  6
Continuous
 62
    84
100
AcDbLine
 10
-162.7485509999996
 20
409.7707594576347
 30
0.0
 11
-162.7485509999996
 21
409.2687594576346
 31
0.0
  0
LINE
  5
1164
330
A
100
AcDbEntity
  8
本体
  6
Continuous
 62
    84
100
AcDbLine
 10
-157.7485509999996
 20
409.7707594576347
 30
0.0
 11
-157.7485509999996
 21
409.2687594576346
 31
0.0
  0
LINE
  5
1165
330
A
100
AcDbEntity
  8
本体
  6
Continuous
 62
    84
100
AcDbLine
 10
-144.7485509999995
 20
409.7707594576347
 30
0.0
 11
-144.7485509999995
 21
409.2687594576346
 31
0.0
  0
LINE
  5
1166
330
A
100
AcDbEntity
  8
本体
  6
Continuous
 62
    84
100
AcDbLine
 10
-139.7485509999995
 20
409.7707594576347
 30
0.0
 11
-139.7485509999995
 21
409.2687594576346
 31
0.0
  0
LINE
  5
1167
330
A
100
AcDbEntity
  8
本体
  6
Continuous
 62
    84
100
AcDbLine
 10
-108.7485509999996
 20
409.7707594576347
 30
0.0
 11
-121.7485509999995
 21
409.7707594576347
 31
0.0
  0
LINE
  5
1168
330
A
100
AcDbEntity
  8
本体
  6
Continuous
 62
    84
100
AcDbLine
 10
-126.7485509999995
 20
409.7707594576347
 30
0.0
 11
-126.7485509999995
 21
409.2687594576346
 31
0.0
  0
LINE
  5
1169
330
A
100
AcDbEntity
  8
本体
  6
Continuous
 62
    84
100
AcDbLine
 10
-121.7485509999995
 20
409.7707594576347
 30
0.0
 11
-121.7485509999995
 21
409.2687594576346
 31
0.0
  0
CIRCLE
  5
116A
330
A
100
AcDbEntity
  8
本体
  6
Continuous
 62
    84
100
AcDbCircle
 10
-102.7485509999995
 20
403.2707594576342
 30
0.0
 40
2.64
  0
CIRCLE
  5
116B
330
A
100
AcDbEntity
  8
本体
  6
Continuous
 62
    84
100
AcDbCircle
 10
-101.3695509999995
 20
403.2697594576347
 30
0.0
 40
0.3
  0
ARC
  5
116C
330
A
100
AcDbEntity
  8
本体
  6
Continuous
 62
    84
100
AcDbCircle
 10
-101.3705509999995
 20
403.2707594576342
 30
0.0
 40
0.6
100
AcDbArc
 50
134.9323500000012
 51
225.0676399999998
  0
ARC
  5
116D
330
A
100
AcDbEntity
  8
本体
  6
Continuous
 62
    84
100
AcDbCircle
 10
-104.1265509999995
 20
403.2707594576342
 30
0.0
 40
0.6
100
AcDbArc
 50
314.9323539999996
 51
45.06763999999987
  0
LINE
  5
116E
330
A
100
AcDbEntity
  8
本体
  6
Continuous
 62
    84
100
AcDbLine
 10
-108.7485509999996
 20
409.7707594576347
 30
0.0
 11
-108.7485509999996
 21
409.2687594576346
 31
0.0
  0
LINE
  5
116F
330
A
100
AcDbEntity
  8
本体
  6
Continuous
 62
    84
100
AcDbLine
 10
-103.7485509999996
 20
409.7707594576347
 30
0.0
 11
-103.7485509999996
 21
409.2687594576346
 31
0.0
  0
LINE
  5
1170
330
A
100
AcDbEntity
  8
本体
  6
Continuous
 62
    84
100
AcDbLine
 10
-103.5445509999995
 20
404.5967594576346
 30
0.0
 11
-104.0745509999996
 21
404.0667594576346
 31
0.0
  0
LINE
  5
1171
330
A
100
AcDbEntity
  8
本体
  6
Continuous
 62
    84
100
AcDbLine
 10
-101.9525509999996
 20
404.5967594576346
 30
0.0
 11
-101.4225509999995
 21
404.0667594576346
 31
0.0
  0
LINE
  5
1172
330
A
100
AcDbEntity
  8
本体
  6
Continuous
 62
    84
100
AcDbLine
 10
-103.5445509999995
 20
404.5967594576346
 30
0.0
 11
-103.1725509999996
 21
404.2257594576345
 31
0.0
  0
LINE
  5
1173
330
A
100
AcDbEntity
  8
本体
  6
Continuous
 62
    84
100
AcDbLine
 10
-101.4225509999995
 20
404.0667594576346
 30
0.0
 11
-101.7935509999995
 21
403.6947594576345
 31
0.0
  0
LINE
  5
1174
330
A
100
AcDbEntity
  8
本体
  6
Continuous
 62
    84
100
AcDbLine
 10
-104.0745509999996
 20
404.0667594576346
 30
0.0
 11
-103.7035509999995
 21
403.6947594576345
 31
0.0
  0
LINE
  5
1175
330
A
100
AcDbEntity
  8
本体
  6
Continuous
 62
    84
100
AcDbLine
 10
-101.9525509999996
 20
404.5967594576346
 30
0.0
 11
-102.3245509999995
 21
404.2257594576345
 31
0.0
  0
ARC
  5
1176
330
A
100
AcDbEntity
  8
本体
  6
Continuous
 62
    84
100
AcDbCircle
 10
-102.7485509999995
 20
404.6487594576346
 30
0.0
 40
0.6
100
AcDbArc
 50
224.93235
 51
315.0676450000003
  0
LINE
  5
1177
330
A
100
AcDbEntity
  8
本体
  6
Continuous
 62
    84
100
AcDbLine
 10
-101.4225509999995
 20
402.4747594576346
 30
0.0
 11
-101.9525509999996
 21
401.9447594576346
 31
0.0
  0
LINE
  5
1178
330
A
100
AcDbEntity
  8
本体
  6
Continuous
 62
    84
100
AcDbLine
 10
-104.0745509999996
 20
402.4747594576346
 30
0.0
 11
-103.5445509999995
 21
401.9447594576346
 31
0.0
  0
LINE
  5
1179
330
A
100
AcDbEntity
  8
本体
  6
Continuous
 62
    84
100
AcDbLine
 10
-101.7935509999995
 20
402.8467594576346
 30
0.0
 11
-101.4225509999995
 21
402.4747594576346
 31
0.0
  0
LINE
  5
117A
330
A
100
AcDbEntity
  8
本体
  6
Continuous
 62
    84
100
AcDbLine
 10
-103.1725509999996
 20
402.3157594576343
 30
0.0
 11
-103.5445509999995
 21
401.9447594576346
 31
0.0
  0
LINE
  5
117B
330
A
100
AcDbEntity
  8
本体
  6
Continuous
 62
    84
100
AcDbLine
 10
-102.3245509999995
 20
402.3157594576343
 30
0.0
 11
-101.9525509999996
 21
401.9447594576346
 31
0.0
  0
LINE
  5
117C
330
A
100
AcDbEntity
  8
本体
  6
Continuous
 62
    84
100
AcDbLine
 10
-103.7035509999995
 20
402.8467594576346
 30
0.0
 11
-104.0745509999996
 21
402.4747594576346
 31
0.0
  0
ARC
  5
117D
330
A
100
AcDbEntity
  8
本体
  6
Continuous
 62
    84
100
AcDbCircle
 10
-102.7485509999995
 20
401.8927594576345
 30
0.0
 40
0.6
100
AcDbArc
 50
44.93235000000006
 51
135.0676399999997
  0
ARC
  5
117E
330
A
100
AcDbEntity
  8
本体
  6
Continuous
 62
    84
100
AcDbCircle
 10
-11.24855099999964
 20
411.0707594576346
 30
0.0
 40
2.0
100
AcDbArc
 50
0.0
 51
89.99999999999998
  0
SPLINE
  5
117F
330
A
100
AcDbEntity
  8
本体
  6
Continuous
 62
    84
100
AcDbSpline
210
0.0
220
0.0
230
1.0
 70
     8
 71
     3
 72
    13
 73
     9
 74
     7
 42
0.0000000001
 43
0.0000000001
 44
0.000001
 12
-0.7930986738278537
 22
-0.6090931731455377
 32
0.0
 13
-0.5819426908718715
 23
-0.813229798114165
 33
0.0
 40
0.0
 40
0.0
 40
0.0
 40
0.0
 40
1.975341128390669
 40
3.802034394030979
 40
6.007531397646211
 40
8.112862450055306
 40
10.2981792176605
 40
12.82269205303873
 40
12.82269205303873
 40
12.82269205303873
 40
12.82269205303873
 10
-10.09670341671807
 20
435.5490724576519
 30
0.0
 10
-10.61891689314615
 20
435.1480168590065
 30
0.0
 10
-11.65031871684166
 20
434.4287875392261
 30
0.0
 10
-13.81036365718609
 20
433.9758019192319
 30
0.0
 10
-15.39441595730237
 20
435.434665936791
 30
0.0
 10
-17.16846248780466
 20
437.0382145320202
 30
0.0
 10
-19.53637996179018
 20
435.8485976479615
 30
0.0
 10
-20.50669873398495
 20
434.6683233132604
 30
0.0
 10
-20.99640599817182
 20
433.9839869587766
 30
0.0
 11
-10.09670341671807
 21
435.5490724576519
 31
0.0
 11
-11.7812437582576
 21
434.5174239352192
 31
0.0
 11
-13.59019783385082
 21
434.2634665121472
 31
0.0
 11
-15.4371924462477
 21
435.4688008285013
 31
0.0
 11
-17.22343202766857
 21
436.5831468051232
 31
0.0
 11
-19.27512296073627
 21
435.8307011739541
 31
0.0
 11
-20.99640599817182
 21
433.9839869587766
 31
0.0
  0
LINE
  5
1180
330
A
100
AcDbEntity
  8
本体
  6
Continuous
 62
    84
100
AcDbLine
 10
-83.99855099999962
 20
420.7707594576346
 30
0.0
 11
-83.99855099999962
 21
409.7707594576347
 31
0.0
  0
LINE
  5
1181
330
A
100
AcDbEntity
  8
本体
  6
Continuous
 62
    84
100
AcDbLine
 10
-74.49855099999962
 20
420.7707594576346
 30
0.0
 11
-74.49855099999962
 21
409.7707594576347
 31
0.0
  0
LINE
  5
1182
330
A
100
AcDbEntity
  8
本体
  6
Continuous
 62
    84
100
AcDbLine
 10
-56.4985509999996
 20
420.7707594576346
 30
0.0
 11
-56.4985509999996
 21
409.7707594576347
 31
0.0
  0
LINE
  5
1183
330
A
100
AcDbEntity
  8
本体
  6
Continuous
 62
    84
100
AcDbLine
 10
-65.99855099999962
 20
420.7707594576346
 30
0.0
 11
-65.99855099999962
 21
409.7707594576347
 31
0.0
  0
ARC
  5
1184
330
A
100
AcDbEntity
  8
本体
  6
Continuous
 62
    84
100
AcDbCircle
 10
-40.5045509999995
 20
411.9347734576344
 30
0.0
 40
1.761999999999999
100
AcDbArc
 50
328.1049099999986
 51
31.89507999999992
  0
ARC
  5
1185
330
A
100
AcDbEntity
  8
本体
  6
Continuous
 62
    84
100
AcDbCircle
 10
-44.99255099999959
 20
411.9347734576344
 30
0.0
 40
1.761999999999999
100
AcDbArc
 50
148.1049099999985
 51
211.8950859999995
  0
ARC
  5
1186
330
A
100
AcDbEntity
  8
本体
  6
Continuous
 62
    84
100
AcDbCircle
 10
-20.24855099999965
 20
411.0707594576346
 30
0.0
 40
2.0
100
AcDbArc
 50
89.99999999999998
 51
180.0
  0
LINE
  5
1187
330
A
100
AcDbEntity
  8
本体
  6
Continuous
 62
    84
100
AcDbLine
 10
-74.49855099999962
 20
420.7707594576346
 30
0.0
 11
-83.99855099999962
 21
420.7707594576346
 31
0.0
  0
LINE
  5
1188
330
A
100
AcDbEntity
  8
本体
  6
Continuous
 62
    84
100
AcDbLine
 10
-84.79855099999969
 20
417.5307594576346
 30
0.0
 11
-84.79855099999969
 21
415.5307594576346
 31
0.0
  0
LINE
  5
1189
330
A
100
AcDbEntity
  8
本体
  6
Continuous
 62
    84
100
AcDbLine
 10
-83.99855099999962
 20
417.5307594576346
 30
0.0
 11
-84.79855099999969
 21
417.5307594576346
 31
0.0
  0
LINE
  5
118A
330
A
100
AcDbEntity
  8
本体
  6
Continuous
 62
    84
100
AcDbLine
 10
-83.99855099999962
 20
415.5307594576346
 30
0.0
 11
-84.79855099999969
 21
415.5307594576346
 31
0.0
  0
LINE
  5
118B
330
A
100
AcDbEntity
  8
本体
  6
Continuous
 62
    84
100
AcDbLine
 10
-73.69855099999956
 20
417.5307594576346
 30
0.0
 11
-73.69855099999956
 21
415.5307594576346
 31
0.0
  0
LINE
  5
118C
330
A
100
AcDbEntity
  8
本体
  6
Continuous
 62
    84
100
AcDbLine
 10
-73.69855099999956
 20
417.5307594576346
 30
0.0
 11
-74.49855099999962
 21
417.5307594576346
 31
0.0
  0
LINE
  5
118D
330
A
100
AcDbEntity
  8
本体
  6
Continuous
 62
    84
100
AcDbLine
 10
-73.69855099999956
 20
415.5307594576346
 30
0.0
 11
-74.49855099999962
 21
415.5307594576346
 31
0.0
  0
LINE
  5
118E
330
A
100
AcDbEntity
  8
本体
  6
Continuous
 62
    84
100
AcDbLine
 10
-56.4985509999996
 20
420.7707594576346
 30
0.0
 11
-65.99855099999962
 21
420.7707594576346
 31
0.0
  0
LINE
  5
118F
330
A
100
AcDbEntity
  8
本体
  6
Continuous
 62
    84
100
AcDbLine
 10
-66.79855099999969
 20
417.5307594576346
 30
0.0
 11
-66.79855099999969
 21
415.5307594576346
 31
0.0
  0
LINE
  5
1190
330
A
100
AcDbEntity
  8
本体
  6
Continuous
 62
    84
100
AcDbLine
 10
-65.99855099999962
 20
417.5307594576346
 30
0.0
 11
-66.79855099999969
 21
417.5307594576346
 31
0.0
  0
LINE
  5
1191
330
A
100
AcDbEntity
  8
本体
  6
Continuous
 62
    84
100
AcDbLine
 10
-65.99855099999962
 20
415.5307594576346
 30
0.0
 11
-66.79855099999969
 21
415.5307594576346
 31
0.0
  0
LINE
  5
1192
330
A
100
AcDbEntity
  8
本体
  6
Continuous
 62
    84
100
AcDbLine
 10
-55.69855099999954
 20
417.5307594576346
 30
0.0
 11
-55.69855099999954
 21
415.5307594576346
 31
0.0
  0
LINE
  5
1193
330
A
100
AcDbEntity
  8
本体
  6
Continuous
 62
    84
100
AcDbLine
 10
-55.69855099999954
 20
417.5307594576346
 30
0.0
 11
-56.4985509999996
 21
417.5307594576346
 31
0.0
  0
LINE
  5
1194
330
A
100
AcDbEntity
  8
本体
  6
Continuous
 62
    84
100
AcDbLine
 10
-55.69855099999954
 20
415.5307594576346
 30
0.0
 11
-56.4985509999996
 21
415.5307594576346
 31
0.0
  0
LINE
  5
1195
330
A
100
AcDbEntity
  8
本体
  6
Continuous
 62
    84
100
AcDbLine
 10
-12.24355099999974
 20
434.3460034576342
 30
0.0
 11
-12.24355099999974
 21
413.0707594576346
 31
0.0
  0
LINE
  5
1196
330
A
100
AcDbEntity
  8
本体
  6
Continuous
 62
    84
100
AcDbLine
 10
-15.74355099999974
 20
435.7346914576345
 30
0.0
 11
-15.74355099999974
 21
413.0707594576346
 31
0.0
  0
LINE
  5
1197
330
A
100
AcDbEntity
  8
本体
  6
Continuous
 62
    84
100
AcDbLine
 10
-19.24355099999973
 20
435.8552614576345
 30
0.0
 11
-19.24355099999973
 21
413.0707594576346
 31
0.0
  0
ARC
  5
1198
330
A
100
AcDbEntity
  8
本体
  6
Continuous
 62
    84
100
AcDbCircle
 10
-42.74855099999956
 20
404.5007734576345
 30
0.0
 40
9.163
100
AcDbArc
 50
65.91053000000035
 51
114.089459999999
  0
LINE
  5
1199
330
A
100
AcDbEntity
  8
本体
  6
Continuous
 62
    84
100
AcDbLine
 10
-11.24855099999985
 20
413.0707594576346
 30
0.0
 11
-20.24855099999985
 21
413.0707594576346
 31
0.0
  0
LINE
  5
119A
330
A
100
AcDbEntity
  8
本体
  6
Continuous
 62
    84
100
AcDbLine
 10
-72.74855099999962
 20
409.7707594576347
 30
0.0
 11
-85.74855099999963
 21
409.7707594576347
 31
0.0
  0
LINE
  5
119B
330
A
100
AcDbEntity
  8
本体
  6
Continuous
 62
    84
100
AcDbLine
 10
-90.74855099999963
 20
409.7707594576347
 30
0.0
 11
-90.74855099999963
 21
409.2687594576346
 31
0.0
  0
LINE
  5
119C
330
A
100
AcDbEntity
  8
本体
  6
Continuous
 62
    84
100
AcDbLine
 10
-85.74855099999963
 20
409.7707594576347
 30
0.0
 11
-85.74855099999963
 21
409.2687594576346
 31
0.0
  0
LINE
  5
119D
330
A
100
AcDbEntity
  8
本体
  6
Continuous
 62
    84
100
AcDbLine
 10
-72.74855099999962
 20
409.7707594576347
 30
0.0
 11
-72.74855099999962
 21
409.2687594576346
 31
0.0
  0
LINE
  5
119E
330
A
100
AcDbEntity
  8
本体
  6
Continuous
 62
    84
100
AcDbLine
 10
-54.74855099999961
 20
409.7707594576347
 30
0.0
 11
-67.74855099999962
 21
409.7707594576347
 31
0.0
  0
LINE
  5
119F
330
A
100
AcDbEntity
  8
本体
  6
Continuous
 62
    84
100
AcDbLine
 10
-67.74855099999962
 20
409.7707594576347
 30
0.0
 11
-67.74855099999962
 21
409.2687594576346
 31
0.0
  0
LINE
  5
11A0
330
A
100
AcDbEntity
  8
本体
  6
Continuous
 62
    84
100
AcDbLine
 10
-54.74855099999961
 20
409.7707594576347
 30
0.0
 11
-54.74855099999961
 21
409.2687594576346
 31
0.0
  0
LINE
  5
11A1
330
A
100
AcDbEntity
  8
本体
  6
Continuous
 62
    84
100
AcDbLine
 10
-40.4079209999996
 20
409.3290134576346
 30
0.0
 11
-42.05573099999964
 21
409.4872654576346
 31
0.0
  0
LINE
  5
11A2
330
A
100
AcDbEntity
  8
本体
  6
Continuous
 62
    84
100
AcDbLine
 10
-38.84855099999964
 20
411.0037734576343
 30
0.0
 11
-46.6485509999996
 21
411.0037734576343
 31
0.0
  0
LINE
  5
11A3
330
A
100
AcDbEntity
  8
本体
  6
Continuous
 62
    84
100
AcDbLine
 10
-38.84855099999964
 20
410.5037734576343
 30
0.0
 11
-46.6485509999996
 21
410.5037734576343
 31
0.0
  0
LINE
  5
11A4
330
A
100
AcDbEntity
  8
本体
  6
Continuous
 62
    84
100
AcDbLine
 10
-41.05203699999964
 20
410.2095754576343
 30
0.0
 11
-42.49574299999955
 21
410.0299814576342
 31
0.0
  0
LINE
  5
11A5
330
A
100
AcDbEntity
  8
本体
  6
Continuous
 62
    84
100
AcDbLine
 10
-40.91625699999968
 20
410.4455194576345
 30
0.0
 11
-42.74855299999962
 21
410.1759414576346
 31
0.0
  0
LINE
  5
11A6
330
A
100
AcDbEntity
  8
本体
  6
Continuous
 62
    84
100
AcDbLine
 10
-39.0085509999996
 20
411.0037734576343
 30
0.0
 11
-46.48855099999963
 21
411.0037734576343
 31
0.0
  0
LINE
  5
11A7
330
A
100
AcDbEntity
  8
本体
  6
Continuous
 62
    84
100
AcDbLine
 10
-43.5663729999996
 20
410.0707594576347
 30
0.0
 11
-42.18073099999964
 21
409.2707594576346
 31
0.0
  0
LINE
  5
11A8
330
A
100
AcDbEntity
  8
本体
  6
Continuous
 62
    84
100
AcDbLine
 10
-41.93073099999963
 20
409.7037734576343
 30
0.0
 11
-42.18073099999964
 21
409.2707594576346
 31
0.0
  0
LINE
  5
11A9
330
A
100
AcDbEntity
  8
本体
  6
Continuous
 62
    84
100
AcDbLine
 10
-46.94855299999963
 20
409.3872654576345
 30
0.0
 11
-44.78352899999964
 21
409.5161374576345
 31
0.0
  0
ARC
  5
11AA
330
A
100
AcDbEntity
  8
本体
  6
Continuous
 62
    84
100
AcDbCircle
 10
-45.27396299999963
 20
409.8872654576345
 30
0.0
 40
1.74764
100
AcDbArc
 50
163.375387999999
 51
196.6246120000007
  0
LINE
  5
11AB
330
A
100
AcDbEntity
  8
本体
  6
Continuous
 62
    84
100
AcDbLine
 10
-46.94855299999963
 20
409.3872654576345
 30
0.0
 11
-46.94855299999963
 21
409.5940154576345
 31
0.0
  0
LINE
  5
11AC
330
A
100
AcDbEntity
  8
本体
  6
Continuous
 62
    84
100
AcDbLine
 10
-44.58084699999954
 20
409.3290134576346
 30
0.0
 11
-42.74855299999962
 21
409.5985914576345
 31
0.0
  0
LINE
  5
11AD
330
A
100
AcDbEntity
  8
本体
  6
Continuous
 62
    84
100
AcDbLine
 10
-44.58084699999954
 20
409.3290134576346
 30
0.0
 11
-44.44506699999958
 21
409.5649554576342
 31
0.0
  0
ARC
  5
11AE
330
A
100
AcDbEntity
  8
本体
  6
Continuous
 62
    84
100
AcDbCircle
 10
-43.15310499999958
 20
411.0787814576346
 30
0.0
 40
2.25835
100
AcDbArc
 50
202.9825120000004
 51
230.786895999999
  0
ARC
  5
11AF
330
A
100
AcDbEntity
  8
本体
  6
Continuous
 62
    84
100
AcDbCircle
 10
-43.0100929999996
 20
411.3272934576341
 30
0.0
 40
2.25835
100
AcDbArc
 50
202.982510999999
 51
230.786895999999
  0
LINE
  5
11B0
330
A
100
AcDbEntity
  8
本体
  6
Continuous
 62
    84
100
AcDbLine
 10
-46.6485509999996
 20
411.0037734576343
 30
0.0
 11
-46.6485509999996
 21
410.5037734576343
 31
0.0
  0
LINE
  5
11B1
330
A
100
AcDbEntity
  8
本体
  6
Continuous
 62
    84
100
AcDbLine
 10
-44.44506699999958
 20
409.5649554576342
 30
0.0
 11
-43.00136099999967
 21
409.7445494576346
 31
0.0
  0
LINE
  5
11B2
330
A
100
AcDbEntity
  8
本体
  6
Continuous
 62
    84
100
AcDbLine
 10
-46.94855299999963
 20
410.3872654576345
 30
0.0
 11
-45.18317899999959
 21
410.2821854576347
 31
0.0
  0
LINE
  5
11B3
330
A
100
AcDbEntity
  8
本体
  6
Continuous
 62
    84
100
AcDbLine
 10
-45.08918299999963
 20
410.4455194576345
 30
0.0
 11
-43.44137299999959
 21
410.2872654576345
 31
0.0
  0
LINE
  5
11B4
330
A
100
AcDbEntity
  8
本体
  6
Continuous
 62
    84
100
AcDbLine
 10
-45.23219499999965
 20
410.1970094576346
 30
0.0
 11
-45.08918299999963
 21
410.4455194576345
 31
0.0
  0
ARC
  5
11B5
330
A
100
AcDbEntity
  8
本体
  6
Continuous
 62
    84
100
AcDbCircle
 10
-45.09397499999955
 20
409.9906414576345
 30
0.0
 40
1.896516
100
AcDbArc
 50
167.9284049999993
 51
192.0715949999991
  0
LINE
  5
11B6
330
A
100
AcDbEntity
  8
本体
  6
Continuous
 62
    84
100
AcDbLine
 10
-46.94855299999963
 20
409.5940154576345
 30
0.0
 11
-44.95156499999967
 21
409.7128834576345
 31
0.0
  0
LINE
  5
11B7
330
A
100
AcDbEntity
  8
本体
  6
Continuous
 62
    84
100
AcDbLine
 10
-43.3163729999996
 20
410.5037734576343
 30
0.0
 11
-43.5663729999996
 21
410.0707594576347
 31
0.0
  0
LINE
  5
11B8
330
A
100
AcDbEntity
  8
本体
  6
Continuous
 62
    84
100
AcDbLine
 10
-43.3163729999996
 20
410.5037734576343
 30
0.0
 11
-41.93073099999963
 21
409.7037734576343
 31
0.0
  0
LINE
  5
11B9
330
A
100
AcDbEntity
  8
本体
  6
Continuous
 62
    84
100
AcDbLine
 10
-38.54855299999968
 20
409.3872654576345
 30
0.0
 11
-40.31392499999964
 21
409.4923474576344
 31
0.0
  0
LINE
  5
11BA
330
A
100
AcDbEntity
  8
本体
  6
Continuous
 62
    84
100
AcDbLine
 10
-40.26283899999959
 20
409.5811214576346
 30
0.0
 11
-40.4079209999996
 21
409.3290134576346
 31
0.0
  0
ARC
  5
11BB
330
A
100
AcDbEntity
  8
本体
  6
Continuous
 62
    84
100
AcDbCircle
 10
-40.40312899999952
 20
409.7838914576342
 30
0.0
 40
1.896516
100
AcDbArc
 50
347.9284050000009
 51
12.07159500000066
  0
ARC
  5
11BC
330
A
100
AcDbEntity
  8
本体
  6
Continuous
 62
    84
100
AcDbCircle
 10
-40.22314099999957
 20
409.8872654576345
 30
0.0
 40
1.74764
100
AcDbArc
 50
343.3753879999993
 51
16.6246120000007
  0
ARC
  5
11BD
330
A
100
AcDbEntity
  8
本体
  6
Continuous
 62
    84
100
AcDbCircle
 10
-42.48701099999957
 20
408.4472394576343
 30
0.0
 40
2.25835
100
AcDbArc
 50
22.98251099999931
 51
50.78689599999902
  0
ARC
  5
11BE
330
A
100
AcDbEntity
  8
本体
  6
Continuous
 62
    84
100
AcDbCircle
 10
-42.34399899999957
 20
408.6957494576345
 30
0.0
 40
2.25835
100
AcDbArc
 50
22.98251099999931
 51
50.78689599999902
  0
LINE
  5
11BF
330
A
100
AcDbEntity
  8
本体
  6
Continuous
 62
    84
100
AcDbLine
 10
-38.84855099999964
 20
411.0037734576343
 30
0.0
 11
-38.84855099999964
 21
410.5037734576343
 31
0.0
  0
LINE
  5
11C0
330
A
100
AcDbEntity
  8
本体
  6
Continuous
 62
    84
100
AcDbLine
 10
-38.54855299999968
 20
410.3872654576345
 30
0.0
 11
-38.54855299999968
 21
410.1805174576346
 31
0.0
  0
LINE
  5
11C1
330
A
100
AcDbEntity
  8
本体
  6
Continuous
 62
    84
100
AcDbLine
 10
-38.54855299999968
 20
410.1805174576346
 30
0.0
 11
-40.54553899999956
 21
410.0616494576346
 31
0.0
  0
LINE
  5
11C2
330
A
100
AcDbEntity
  8
本体
  6
Continuous
 62
    84
100
AcDbLine
 10
-40.91625699999968
 20
410.4455194576345
 30
0.0
 11
-41.05203699999964
 21
410.2095754576343
 31
0.0
  0
LINE
  5
11C3
330
A
100
AcDbEntity
  8
本体
  6
Continuous
 62
    84
100
AcDbLine
 10
-38.54855299999968
 20
410.3872654576345
 30
0.0
 11
-40.71357499999959
 21
410.2583954576346
 31
0.0
  0
LINE
  5
11C4
330
A
100
AcDbEntity
  8
本体
  6
Continuous
 62
    84
100
AcDbLine
 10
-22.24855099999984
 20
409.2707594576346
 30
0.0
 11
-22.24855099999984
 21
411.0707594576346
 31
0.0
  0
LINE
  5
11C6
330
A
100
AcDbEntity
  8
本体
  6
Continuous
 62
    84
100
AcDbLine
 10
-9.248550999999848
 20
409.2707594576346
 30
0.0
 11
-9.248550999999848
 21
411.0707594576346
 31
0.0
  0
LINE
  5
11C9
330
A
100
AcDbEntity
  8
本体
  6
Continuous
 62
    84
100
AcDbLine
 10
-206.7485509999996
 20
269.2687594576345
 30
0.0
 11
1.251449000000149
 21
269.2687594576345
 31
0.0
  0
ARC
  5
11CD
330
A
100
AcDbEntity
  8
本体
  6
Continuous
 62
    84
100
AcDbCircle
 10
-206.7485509999995
 20
270.2687594576345
 30
0.0
 40
1.0
100
AcDbArc
 50
180.0
 51
270.0
  0
LINE
  5
11CE
330
A
100
AcDbEntity
  8
本体
  6
Continuous
 62
    84
100
AcDbLine
 10
-16.25055099999979
 20
269.2687594576345
 30
0.0
 11
-16.25055099999979
 21
263.7687594576346
 31
0.0
  0
LINE
  5
11CF
330
A
100
AcDbEntity
  8
本体
  6
Continuous
 62
    84
100
AcDbLine
 10
-45.2505509999998
 20
269.2687594576345
 30
0.0
 11
-45.2505509999998
 21
263.7687594576346
 31
0.0
  0
LINE
  5
11D0
330
A
100
AcDbEntity
  8
本体
  6
Continuous
 62
    84
100
AcDbLine
 10
-39.25055099999978
 20
269.2687594576345
 30
0.0
 11
-39.25055099999978
 21
264.7687594576345
 31
0.0
  0
LINE
  5
11D1
330
A
100
AcDbEntity
  8
本体
  6
Continuous
 62
    84
100
AcDbLine
 10
-32.65055099999964
 20
263.9687594576345
 30
0.0
 11
-22.8505509999997
 21
263.9687594576345
 31
0.0
  0
LINE
  5
11D2
330
A
100
AcDbEntity
  8
本体
  6
Continuous
 62
    84
100
AcDbLine
 10
-39.25055099999978
 20
267.2687594576345
 30
0.0
 11
-16.25055099999979
 21
267.2687594576345
 31
0.0
  0
LINE
  5
11D3
330
A
100
AcDbEntity
  8
本体
  6
Continuous
 62
    84
100
AcDbLine
 10
-45.2505509999998
 20
263.7687594576346
 30
0.0
 11
-35.25055099999979
 21
263.7687594576346
 31
0.0
  0
LINE
  5
11D4
330
A
100
AcDbEntity
  8
本体
  6
Continuous
 62
    84
100
AcDbLine
 10
-45.2505509999998
 20
264.7687594576345
 30
0.0
 11
-39.25055099999978
 21
264.7687594576345
 31
0.0
  0
LINE
  5
11D5
330
A
100
AcDbEntity
  8
本体
  6
Continuous
 62
    84
100
AcDbLine
 10
-35.25055099999979
 20
267.2687594576345
 30
0.0
 11
-35.25055099999979
 21
263.7687594576346
 31
0.0
  0
LINE
  5
11D6
330
A
100
AcDbEntity
  8
本体
  6
Continuous
 62
    84
100
AcDbLine
 10
-32.65055099999964
 20
267.2687594576345
 30
0.0
 11
-32.65055099999964
 21
263.9687594576345
 31
0.0
  0
LINE
  5
11D7
330
A
100
AcDbEntity
  8
本体
  6
Continuous
 62
    84
100
AcDbLine
 10
-22.8505509999997
 20
267.2687594576345
 30
0.0
 11
-22.8505509999997
 21
263.9687594576345
 31
0.0
  0
LINE
  5
11D8
330
A
100
AcDbEntity
  8
本体
  6
Continuous
 62
    84
100
AcDbLine
 10
-20.25055099999979
 20
267.2687594576345
 30
0.0
 11
-20.25055099999979
 21
263.7687594576346
 31
0.0
  0
LINE
  5
11D9
330
A
100
AcDbEntity
  8
本体
  6
Continuous
 62
    84
100
AcDbLine
 10
-20.25055099999979
 20
263.7687594576346
 30
0.0
 11
-16.25055099999979
 21
263.7687594576346
 31
0.0
  0
ARC
  5
11DD
330
A
100
AcDbEntity
  8
本体
  6
Continuous
 62
    84
100
AcDbCircle
 10
1.251449000000319
 20
270.2687594576344
 30
0.0
 40
1.0
100
AcDbArc
 50
270.0
 51
0.0
  0
LINE
  5
14A0
330
A
100
AcDbEntity
  8
本体
  6
Continuous
 62
    84
100
AcDbLine
 10
-203.2485509999997
 20
507.4353780755623
 30
0.0
 11
-2.248550999999876
 21
507.4353780755623
 31
0.0
  0
LINE
  5
14A1
330
A
100
AcDbEntity
  8
本体
  6
Continuous
 62
    84
100
AcDbLine
 10
-203.2485509999997
 20
468.4353780755623
 30
0.0
 11
-2.248550999999849
 21
468.4353780755623
 31
0.0
  0
CIRCLE
  5
14A2
330
A
100
AcDbEntity
  8
本体
  6
Continuous
 62
    84
100
AcDbCircle
 10
-97.24855099999986
 20
494.6353780755623
 30
0.0
 40
6.849999999999997
  0
CIRCLE
  5
14A3
330
A
100
AcDbEntity
  8
本体
  6
Continuous
 62
    84
100
AcDbCircle
 10
-97.24855099999986
 20
477.6353780755624
 30
0.0
 40
6.849999999999997
  0
ARC
  5
14A4
330
A
100
AcDbEntity
  8
本体
  6
Continuous
 62
    84
100
AcDbCircle
 10
-94.74855099999986
 20
475.135378075562
 30
0.0
 40
6.0
100
AcDbArc
 50
270.0
 51
0.0
  0
ARC
  5
14A5
330
A
100
AcDbEntity
  8
本体
  6
Continuous
 62
    84
100
AcDbCircle
 10
-94.74855099999986
 20
499.1353780755622
 30
0.0
 40
6.0
100
AcDbArc
 50
0.0
 51
89.99999999999998
  0
CIRCLE
  5
14A6
330
A
100
AcDbEntity
  8
本体
  6
Continuous
 62
    84
100
AcDbCircle
 10
-97.24855099999986
 20
494.6353780755623
 30
0.0
 40
6.5
  0
CIRCLE
  5
14A7
330
A
100
AcDbEntity
  8
本体
  6
Continuous
 62
    84
100
AcDbCircle
 10
-97.24855099999986
 20
477.6353780755624
 30
0.0
 40
6.5
  0
LINE
  5
14A8
330
A
100
AcDbEntity
  8
本体
  6
Continuous
 62
    84
100
AcDbLine
 10
-206.5485509999998
 20
467.1353780755621
 30
0.0
 11
1.051449000000332
 21
467.1353780755621
 31
0.0
  0
LINE
  5
14A9
330
A
100
AcDbEntity
  8
本体
  6
Continuous
 62
    84
100
AcDbLine
 10
-206.7485509999996
 20
465.9353780755623
 30
0.0
 11
1.251449000000149
 21
465.9353780755623
 31
0.0
  0
LINE
  5
14AA
330
A
100
AcDbEntity
  8
本体
  6
Continuous
 62
    84
100
AcDbLine
 10
-206.5485509999998
 20
508.7353780755623
 30
0.0
 11
-19.28844699999962
 21
508.7353780755623
 31
0.0
  0
LINE
  5
14AB
330
A
100
AcDbEntity
  8
本体
  6
Continuous
 62
    84
100
AcDbLine
 10
-205.5485509999998
 20
508.7353780755623
 30
0.0
 11
1.051449000000332
 21
508.7353780755623
 31
0.0
  0
LINE
  5
14AC
330
A
100
AcDbEntity
  8
本体
  6
Continuous
 62
    84
100
AcDbLine
 10
-205.5485509999998
 20
467.1353780755621
 30
0.0
 11
0.051449000000332
 21
467.1353780755621
 31
0.0
  0
CIRCLE
  5
14AD
330
A
100
AcDbEntity
  8
本体
  6
Continuous
 62
    84
100
AcDbCircle
 10
-97.24855099999986
 20
494.6353780755623
 30
0.0
 40
6.75
  0
CIRCLE
  5
14AE
330
A
100
AcDbEntity
  8
本体
  6
Continuous
 62
    84
100
AcDbCircle
 10
-97.24855099999986
 20
477.6353780755624
 30
0.0
 40
6.75
  0
LINE
  5
14AF
330
A
100
AcDbEntity
  8
本体
  6
Continuous
 62
    84
100
AcDbLine
 10
-207.7485509999997
 20
509.9353780755623
 30
0.0
 11
2.251449000000147
 21
509.9353780755623
 31
0.0
  0
CIRCLE
  5
14B1
330
A
100
AcDbEntity
  8
本体
  6
Continuous
 62
    84
100
AcDbCircle
 10
-169.2485509999998
 20
494.6353780755623
 30
0.0
 40
6.849999999999997
  0
CIRCLE
  5
14B2
330
A
100
AcDbEntity
  8
本体
  6
Continuous
 62
    84
100
AcDbCircle
 10
-169.2485509999998
 20
477.6353780755624
 30
0.0
 40
6.849999999999997
  0
MTEXT
  5
14B3
330
A
100
AcDbEntity
  8
本体
  6
Continuous
 62
    84
100
AcDbMText
 10
-167.5214829999997
 20
502.1353780755624
 30
0.0
 40
2.5
 41
0.0
 71
     1
 72
     1
  1
\T1.019;\W1.028;\A1;IN
 11
-1.0
 21
0.0000000000000002
 31
0.0
 73
     1
 44
1.0
  0
LINE
  5
14B4
330
A
100
AcDbEntity
  8
本体
  6
Continuous
 62
    84
100
AcDbLine
 10
-166.7485509999998
 20
505.1353780755623
 30
0.0
 11
-190.2485509999997
 21
505.1353780755623
 31
0.0
  0
LINE
  5
14B5
330
A
100
AcDbEntity
  8
本体
  6
Continuous
 62
    84
100
AcDbLine
 10
-166.7485509999998
 20
469.1353780755624
 30
0.0
 11
-190.2485509999997
 21
469.1353780755624
 31
0.0
  0
HATCH
  5
14B6
330
A
100
AcDbEntity
  8
本体
  6
Continuous
 62
    84
100
AcDbHatch
 10
0.0
 20
0.0
 30
0.0
210
0.0
220
0.0
230
1.0
  2
SOLID
 70
     1
 71
     0
 91
        1
 92
        1
 93
        4
 72
     2
 10
-169.248551947393
 20
494.6353786158616
 40
6.599999999999997
 50
402.4233419999998
 51
497.5766580000001
 73
     0
 72
     2
 10
-178.5496271540559
 20
486.1353786158614
 40
6.0
 50
317.576658
 51
402.4233419999998
 73
     0
 72
     2
 10
-169.248551947393
 20
477.6353786158614
 40
6.599999999999997
 50
222.423342
 51
317.576658
 73
     0
 72
     2
 10
-159.94747674073
 20
486.1353786158614
 40
6.0
 50
137.576658
 51
222.423342
 73
     0
 97
        0
 75
     0
 76
     1
 98
        1
 10
-145.7187849999995
 20
292.1197920755623
  0
CIRCLE
  5
14B7
330
A
100
AcDbEntity
  8
本体
  6
Continuous
 62
    84
100
AcDbCircle
 10
-169.2485509999998
 20
477.6353780755624
 30
0.0
 40
6.5
  0
CIRCLE
  5
14B8
330
A
100
AcDbEntity
  8
本体
  6
Continuous
 62
    84
100
AcDbCircle
 10
-169.2485509999998
 20
477.6353780755624
 30
0.0
 40
4.75
  0
CIRCLE
  5
14B9
330
A
100
AcDbEntity
  8
本体
  6
Continuous
 62
    84
100
AcDbCircle
 10
-169.2485509999998
 20
477.6353780755624
 30
0.0
 40
4.549999999999998
  0
CIRCLE
  5
14BA
330
A
100
AcDbEntity
  8
本体
  6
Continuous
 62
    84
100
AcDbCircle
 10
-169.2485509999998
 20
477.6353780755624
 30
0.0
 40
2.5
  0
CIRCLE
  5
14BB
330
A
100
AcDbEntity
  8
本体
  6
Continuous
 62
    84
100
AcDbCircle
 10
-169.2485509999998
 20
494.6353780755623
 30
0.0
 40
6.5
  0
CIRCLE
  5
14BC
330
A
100
AcDbEntity
  8
本体
  6
Continuous
 62
    84
100
AcDbCircle
 10
-169.2485509999998
 20
494.6353780755623
 30
0.0
 40
4.549999999999998
  0
CIRCLE
  5
14BD
330
A
100
AcDbEntity
  8
本体
  6
Continuous
 62
    84
100
AcDbCircle
 10
-169.2485509999998
 20
494.6353780755623
 30
0.0
 40
4.75
  0
CIRCLE
  5
14BE
330
A
100
AcDbEntity
  8
本体
  6
Continuous
 62
    84
100
AcDbCircle
 10
-169.2485509999998
 20
494.6353780755623
 30
0.0
 40
2.5
  0
CIRCLE
  5
14BF
330
A
100
AcDbEntity
  8
本体
  6
Continuous
 62
    84
100
AcDbCircle
 10
-169.2485509999998
 20
494.6353780755623
 30
0.0
 40
6.5
  0
CIRCLE
  5
14C0
330
A
100
AcDbEntity
  8
本体
  6
Continuous
 62
    84
100
AcDbCircle
 10
-169.2485509999998
 20
494.6353780755623
 30
0.0
 40
6.75
  0
CIRCLE
  5
14C1
330
A
100
AcDbEntity
  8
本体
  6
Continuous
 62
    84
100
AcDbCircle
 10
-169.2485509999998
 20
477.6353780755624
 30
0.0
 40
6.75
  0
CIRCLE
  5
14C2
330
A
100
AcDbEntity
  8
本体
  6
Continuous
 62
    84
100
AcDbCircle
 10
-187.2485509999997
 20
477.6353780755624
 30
0.0
 40
6.849999999999997
  0
LINE
  5
14C3
330
A
100
AcDbEntity
  8
本体
  6
Continuous
 62
    84
100
AcDbLine
 10
-205.2485509999997
 20
470.4353780755623
 30
0.0
 11
-205.2485509999997
 21
505.4353780755623
 31
0.0
  0
LINE
  5
14C4
330
A
100
AcDbEntity
  8
本体
  6
Continuous
 62
    84
100
AcDbLine
 10
-196.2485509999997
 20
483.6353780755621
 30
0.0
 11
-196.2485509999997
 21
475.135378075562
 31
0.0
  0
HATCH
  5
14C5
330
A
100
AcDbEntity
  8
本体
  6
Continuous
 62
    84
100
AcDbHatch
 10
0.0
 20
0.0
 30
0.0
210
0.0
220
0.0
230
1.0
  2
SOLID
 70
     1
 71
     0
 91
        1
 92
        1
 93
        4
 72
     2
 10
-187.2485519473931
 20
494.6353786158616
 40
6.599999999999997
 50
402.4233419999998
 51
497.5766580000001
 73
     0
 72
     2
 10
-196.5496271540559
 20
486.1353786158614
 40
6.0
 50
317.576658
 51
402.4233419999998
 73
     0
 72
     2
 10
-187.2485519473931
 20
477.6353786158614
 40
6.599999999999997
 50
222.423342
 51
317.576658
 73
     0
 72
     2
 10
-177.94747674073
 20
486.1353786158614
 40
6.0
 50
137.576658
 51
222.423342
 73
     0
 97
        0
 75
     0
 76
     1
 98
        1
 10
-145.7187849999995
 20
292.1197920755623
  0
CIRCLE
  5
14C6
330
A
100
AcDbEntity
  8
本体
  6
Continuous
 62
    84
100
AcDbCircle
 10
-187.2485509999997
 20
477.6353780755624
 30
0.0
 40
6.5
  0
LINE
  5
14C7
330
A
100
AcDbEntity
  8
本体
  6
Continuous
 62
    84
100
AcDbLine
 10
-206.5485509999998
 20
467.1353780755621
 30
0.0
 11
-206.5485509999998
 21
509.9353780755623
 31
0.0
  0
LINE
  5
14C8
330
A
100
AcDbEntity
  8
本体
  6
Continuous
 62
    84
100
AcDbLine
 10
-207.7485509999997
 20
466.9353780755622
 30
0.0
 11
-207.7485509999997
 21
509.9353780755623
 31
0.0
  0
CIRCLE
  5
14C9
330
A
100
AcDbEntity
  8
本体
  6
Continuous
 62
    84
100
AcDbCircle
 10
-187.2485509999997
 20
477.6353780755624
 30
0.0
 40
6.75
  0
LINE
  5
14CA
330
A
100
AcDbEntity
  8
本体
  6
Continuous
 62
    84
100
AcDbLine
 10
-206.5485509999998
 20
468.1353780755623
 30
0.0
 11
-206.5485509999998
 21
507.7353780755625
 31
0.0
  0
CIRCLE
  5
14CB
330
A
100
AcDbEntity
  8
本体
  6
Continuous
 62
    84
100
AcDbCircle
 10
-187.2485509999997
 20
494.6353780755623
 30
0.0
 40
6.849999999999997
  0
ARC
  5
14CC
330
A
100
AcDbEntity
  8
本体
  6
Continuous
 62
    84
100
AcDbCircle
 10
-190.2485509999997
 20
499.1353780755622
 30
0.0
 40
6.0
100
AcDbArc
 50
89.99999999999998
 51
180.0
  0
CIRCLE
  5
14CD
330
A
100
AcDbEntity
  8
本体
  6
Continuous
 62
    84
100
AcDbCircle
 10
-187.2485509999997
 20
494.6353780755623
 30
0.0
 40
6.5
  0
CIRCLE
  5
14CE
330
A
100
AcDbEntity
  8
本体
  6
Continuous
 62
    84
100
AcDbCircle
 10
-187.2485509999997
 20
494.6353780755623
 30
0.0
 40
6.5
  0
CIRCLE
  5
14CF
330
A
100
AcDbEntity
  8
本体
  6
Continuous
 62
    84
100
AcDbCircle
 10
-187.2485509999997
 20
494.6353780755623
 30
0.0
 40
6.75
  0
ARC
  5
14D1
330
A
100
AcDbEntity
  8
本体
  6
Continuous
 62
    84
100
AcDbCircle
 10
-203.2485509999997
 20
505.4353780755623
 30
0.0
 40
2.0
100
AcDbArc
 50
89.99999999999998
 51
180.0
  0
ARC
  5
14D2
330
A
100
AcDbEntity
  8
本体
  6
Continuous
 62
    84
100
AcDbCircle
 10
-205.5485509999998
 20
507.7353780755625
 30
0.0
 40
1.0
100
AcDbArc
 50
89.99999999999998
 51
180.0
  0
MTEXT
  5
14D6
330
A
100
AcDbEntity
  8
本体
  6
Continuous
 62
    84
100
AcDbMText
 10
-183.9701049999997
 20
502.1353780755624
 30
0.0
 40
2.5
 41
0.0
 71
     1
 72
     1
  1
\T0.930;\W0.938;\A1;OUT
 11
-1.0
 21
0.0000000000000002
 31
0.0
 73
     1
 44
1.0
  0
CIRCLE
  5
14D7
330
A
100
AcDbEntity
  8
本体
  6
Continuous
 62
    84
100
AcDbCircle
 10
-187.2485509999997
 20
494.6353780755623
 30
0.0
 40
4.549999999999998
  0
CIRCLE
  5
14D8
330
A
100
AcDbEntity
  8
本体
  6
Continuous
 62
    84
100
AcDbCircle
 10
-187.2485509999997
 20
494.6353780755623
 30
0.0
 40
4.75
  0
LINE
  5
14D9
330
A
100
AcDbEntity
  8
本体
  6
Continuous
 62
    84
100
AcDbLine
 10
-196.2485509999997
 20
499.1353780755622
 30
0.0
 11
-196.2485509999997
 21
488.6353780755623
 31
0.0
  0
LINE
  5
14DA
330
A
100
AcDbEntity
  8
本体
  6
Continuous
 62
    84
100
AcDbLine
 10
-192.7985509999997
 20
495.6253780755623
 30
0.0
 11
-191.8945509999995
 21
495.6253780755623
 31
0.0
  0
LINE
  5
14DB
330
A
100
AcDbEntity
  8
本体
  6
Continuous
 62
    84
100
AcDbLine
 10
-192.7985509999997
 20
493.6453780755623
 30
0.0
 11
-191.8945509999995
 21
493.6453780755623
 31
0.0
  0
LINE
  5
14DC
330
A
100
AcDbEntity
  8
本体
  6
Continuous
 62
    84
100
AcDbLine
 10
-192.7985509999997
 20
495.6253780755623
 30
0.0
 11
-192.7985509999997
 21
493.6453780755623
 31
0.0
  0
ARC
  5
14DD
330
A
100
AcDbEntity
  8
本体
  6
Continuous
 62
    84
100
AcDbCircle
 10
-201.9485509999995
 20
487.9353780755621
 30
0.0
 40
7.799999999999998
100
AcDbArc
 50
157.3801400000004
 51
202.6198699999998
  0
ARC
  5
14DE
330
A
100
AcDbEntity
  8
本体
  6
Continuous
 62
    84
100
AcDbCircle
 10
-208.4485509999995
 20
489.8103780755623
 30
0.0
 40
1.324999999999999
100
AcDbArc
 50
58.10921000000131
 51
121.8907999999996
  0
ARC
  5
14DF
330
A
100
AcDbEntity
  8
本体
  6
Continuous
 62
    84
100
AcDbCircle
 10
-208.4485509999995
 20
486.0603780755623
 30
0.0
 40
1.324999999999999
100
AcDbArc
 50
238.1092100000012
 51
301.8907920000008
  0
CIRCLE
  5
14E0
330
A
100
AcDbEntity
  8
本体
  6
Continuous
 62
    84
100
AcDbCircle
 10
-194.2485509999997
 20
486.1353780755623
 30
0.0
 40
2.64
  0
ARC
  5
14E1
330
A
100
AcDbEntity
  8
本体
  6
Continuous
 62
    84
100
AcDbCircle
 10
-194.2485509999997
 20
487.5133780755622
 30
0.0
 40
0.6
100
AcDbArc
 50
224.93235
 51
315.0676450000003
  0
LINE
  5
14E2
330
A
100
AcDbEntity
  8
本体
  6
Continuous
 62
    84
100
AcDbLine
 10
-193.4525509999995
 20
487.4613780755622
 30
0.0
 11
-192.9225509999995
 21
486.9313780755622
 31
0.0
  0
LINE
  5
14E3
330
A
100
AcDbEntity
  8
本体
  6
Continuous
 62
    84
100
AcDbLine
 10
-195.0445509999997
 20
487.4613780755622
 30
0.0
 11
-195.5745509999997
 21
486.9313780755622
 31
0.0
  0
LINE
  5
14E4
330
A
100
AcDbEntity
  8
本体
  6
Continuous
 62
    84
100
AcDbLine
 10
-193.4525509999995
 20
487.4613780755622
 30
0.0
 11
-193.8245509999997
 21
487.0903780755623
 31
0.0
  0
LINE
  5
14E5
330
A
100
AcDbEntity
  8
本体
  6
Continuous
 62
    84
100
AcDbLine
 10
-195.0445509999997
 20
487.4613780755622
 30
0.0
 11
-194.6725509999995
 21
487.0903780755623
 31
0.0
  0
ARC
  5
14E6
330
A
100
AcDbEntity
  8
本体
  6
Continuous
 62
    84
100
AcDbCircle
 10
-195.6265509999997
 20
486.1353780755623
 30
0.0
 40
0.6
100
AcDbArc
 50
314.9323539999996
 51
45.06763999999987
  0
ARC
  5
14E7
330
A
100
AcDbEntity
  8
本体
  6
Continuous
 62
    84
100
AcDbCircle
 10
-194.2485509999997
 20
484.7573780755623
 30
0.0
 40
0.6
100
AcDbArc
 50
44.93235000000006
 51
135.0676399999997
  0
ARC
  5
14E8
330
A
100
AcDbEntity
  8
本体
  6
Continuous
 62
    84
100
AcDbCircle
 10
-192.8705509999995
 20
486.1353780755623
 30
0.0
 40
0.6
100
AcDbArc
 50
134.9323500000012
 51
225.0676399999998
  0
CIRCLE
  5
14E9
330
A
100
AcDbEntity
  8
本体
  6
Continuous
 62
    84
100
AcDbCircle
 10
-192.8695509999995
 20
486.1343780755624
 30
0.0
 40
0.3
  0
LINE
  5
14EA
330
A
100
AcDbEntity
  8
本体
  6
Continuous
 62
    84
100
AcDbLine
 10
-195.2035509999993
 20
485.7113780755621
 30
0.0
 11
-195.5745509999997
 21
485.3393780755625
 31
0.0
  0
LINE
  5
14EB
330
A
100
AcDbEntity
  8
本体
  6
Continuous
 62
    84
100
AcDbLine
 10
-195.5745509999997
 20
486.9313780755622
 30
0.0
 11
-195.2035509999993
 21
486.5593780755625
 31
0.0
  0
LINE
  5
14EC
330
A
100
AcDbEntity
  8
本体
  6
Continuous
 62
    84
100
AcDbLine
 10
-193.8245509999997
 20
485.1803780755624
 30
0.0
 11
-193.4525509999995
 21
484.8093780755625
 31
0.0
  0
LINE
  5
14ED
330
A
100
AcDbEntity
  8
本体
  6
Continuous
 62
    84
100
AcDbLine
 10
-194.6725509999995
 20
485.1803780755624
 30
0.0
 11
-195.0445509999997
 21
484.8093780755625
 31
0.0
  0
LINE
  5
14EE
330
A
100
AcDbEntity
  8
本体
  6
Continuous
 62
    84
100
AcDbLine
 10
-192.9225509999995
 20
486.9313780755622
 30
0.0
 11
-193.2935509999993
 21
486.5593780755625
 31
0.0
  0
LINE
  5
14EF
330
A
100
AcDbEntity
  8
本体
  6
Continuous
 62
    84
100
AcDbLine
 10
-193.2935509999993
 20
485.7113780755621
 30
0.0
 11
-192.9225509999995
 21
485.3393780755625
 31
0.0
  0
LINE
  5
14F0
330
A
100
AcDbEntity
  8
本体
  6
Continuous
 62
    84
100
AcDbLine
 10
-195.5745509999997
 20
485.3393780755625
 30
0.0
 11
-195.0445509999997
 21
484.8093780755625
 31
0.0
  0
LINE
  5
14F1
330
A
100
AcDbEntity
  8
本体
  6
Continuous
 62
    84
100
AcDbLine
 10
-192.9225509999995
 20
485.3393780755625
 30
0.0
 11
-193.4525509999995
 21
484.8093780755625
 31
0.0
  0
CIRCLE
  5
14F2
330
A
100
AcDbEntity
  8
本体
  6
Continuous
 62
    84
100
AcDbCircle
 10
-187.2485509999997
 20
494.6353780755623
 30
0.0
 40
2.5
  0
LINE
  5
14F3
330
A
100
AcDbEntity
  8
本体
  6
Continuous
 62
    84
100
AcDbLine
 10
-182.6025509999993
 20
493.6453780755623
 30
0.0
 11
-181.6985509999993
 21
493.6453780755623
 31
0.0
  0
LINE
  5
14F4
330
A
100
AcDbEntity
  8
本体
  6
Continuous
 62
    84
100
AcDbLine
 10
-181.6985509999993
 20
495.6243780755624
 30
0.0
 11
-181.6985509999993
 21
493.6453780755623
 31
0.0
  0
LINE
  5
14F5
330
A
100
AcDbEntity
  8
本体
  6
Continuous
 62
    84
100
AcDbLine
 10
-182.6025509999993
 20
495.6243780755624
 30
0.0
 11
-181.6985509999993
 21
495.6243780755624
 31
0.0
  0
LINE
  5
14F6
330
A
100
AcDbEntity
  8
本体
  6
Continuous
 62
    84
100
AcDbLine
 10
-174.7985509999995
 20
495.6253780755623
 30
0.0
 11
-173.8945509999997
 21
495.6253780755623
 31
0.0
  0
LINE
  5
14F7
330
A
100
AcDbEntity
  8
本体
  6
Continuous
 62
    84
100
AcDbLine
 10
-174.7985509999995
 20
493.6453780755623
 30
0.0
 11
-173.8945509999997
 21
493.6453780755623
 31
0.0
  0
LINE
  5
14F8
330
A
100
AcDbEntity
  8
本体
  6
Continuous
 62
    84
100
AcDbLine
 10
-174.7985509999995
 20
495.6253780755623
 30
0.0
 11
-174.7985509999995
 21
493.6453780755623
 31
0.0
  0
ARC
  5
14F9
330
A
100
AcDbEntity
  8
本体
  6
Continuous
 62
    84
100
AcDbCircle
 10
-190.2485509999998
 20
475.135378075562
 30
0.0
 40
6.0
100
AcDbArc
 50
180.0
 51
270.0
  0
CIRCLE
  5
14FA
330
A
100
AcDbEntity
  8
本体
  6
Continuous
 62
    84
100
AcDbCircle
 10
-187.2485509999997
 20
477.6353780755624
 30
0.0
 40
4.75
  0
CIRCLE
  5
14FB
330
A
100
AcDbEntity
  8
本体
  6
Continuous
 62
    84
100
AcDbCircle
 10
-187.2485509999997
 20
477.6353780755624
 30
0.0
 40
4.549999999999998
  0
LINE
  5
14FC
330
A
100
AcDbEntity
  8
本体
  6
Continuous
 62
    84
100
AcDbLine
 10
-192.7985509999997
 20
478.6253780755624
 30
0.0
 11
-192.7985509999997
 21
476.6453780755623
 31
0.0
  0
LINE
  5
14FD
330
A
100
AcDbEntity
  8
本体
  6
Continuous
 62
    84
100
AcDbLine
 10
-192.7985509999997
 20
478.6253780755624
 30
0.0
 11
-191.8945509999995
 21
478.6253780755624
 31
0.0
  0
LINE
  5
14FE
330
A
100
AcDbEntity
  8
本体
  6
Continuous
 62
    84
100
AcDbLine
 10
-192.7985509999997
 20
476.6453780755623
 30
0.0
 11
-191.8945509999995
 21
476.6453780755623
 31
0.0
  0
ARC
  5
14FF
330
A
100
AcDbEntity
  8
本体
  6
Continuous
 62
    84
100
AcDbCircle
 10
-203.2485509999998
 20
470.4353780755623
 30
0.0
 40
2.0
100
AcDbArc
 50
180.0
 51
270.0
  0
ARC
  5
1500
330
A
100
AcDbEntity
  8
本体
  6
Continuous
 62
    84
100
AcDbCircle
 10
-206.7485509999996
 20
466.9353780755622
 30
0.0
 40
1.0
100
AcDbArc
 50
180.0
 51
270.0
  0
LINE
  5
1501
330
A
100
AcDbEntity
  8
本体
  6
Continuous
 62
    84
100
AcDbLine
 10
-206.5485509999998
 20
468.1353780755623
 30
0.0
 11
-205.5485509999998
 21
467.1353780755621
 31
0.0
  0
ARC
  5
1502
330
A
100
AcDbEntity
  8
本体
  6
Continuous
 62
    84
100
AcDbCircle
 10
-176.2485509999997
 20
473.1853780755622
 30
0.0
 40
0.5
100
AcDbArc
 50
0.0
 51
89.99999999999998
  0
ARC
  5
1503
330
A
100
AcDbEntity
  8
本体
  6
Continuous
 62
    84
100
AcDbCircle
 10
-180.2485509999995
 20
473.1853780755622
 30
0.0
 40
0.5
100
AcDbArc
 50
89.99999999999998
 51
180.0
  0
CIRCLE
  5
1504
330
A
100
AcDbEntity
  8
本体
  6
Continuous
 62
    84
100
AcDbCircle
 10
-187.2485509999997
 20
477.6353780755624
 30
0.0
 40
2.5
  0
LINE
  5
1505
330
A
100
AcDbEntity
  8
本体
  6
Continuous
 62
    84
100
AcDbLine
 10
-181.6985509999993
 20
478.6243780755624
 30
0.0
 11
-181.6985509999993
 21
476.6453780755623
 31
0.0
  0
LINE
  5
1506
330
A
100
AcDbEntity
  8
本体
  6
Continuous
 62
    84
100
AcDbLine
 10
-182.6025509999993
 20
478.6243780755624
 30
0.0
 11
-181.6985509999993
 21
478.6243780755624
 31
0.0
  0
LINE
  5
1507
330
A
100
AcDbEntity
  8
本体
  6
Continuous
 62
    84
100
AcDbLine
 10
-182.6025509999993
 20
476.6453780755623
 30
0.0
 11
-181.6985509999993
 21
476.6453780755623
 31
0.0
  0
LINE
  5
1508
330
A
100
AcDbEntity
  8
本体
  6
Continuous
 62
    84
100
AcDbLine
 10
-174.7985509999995
 20
478.6253780755624
 30
0.0
 11
-174.7985509999995
 21
476.6453780755623
 31
0.0
  0
LINE
  5
1509
330
A
100
AcDbEntity
  8
本体
  6
Continuous
 62
    84
100
AcDbLine
 10
-174.7985509999995
 20
478.6253780755624
 30
0.0
 11
-173.8945509999997
 21
478.6253780755624
 31
0.0
  0
LINE
  5
150A
330
A
100
AcDbEntity
  8
本体
  6
Continuous
 62
    84
100
AcDbLine
 10
-176.2485509999997
 20
473.6853780755621
 30
0.0
 11
-180.2485509999995
 21
473.6853780755621
 31
0.0
  0
LINE
  5
150B
330
A
100
AcDbEntity
  8
本体
  6
Continuous
 62
    84
100
AcDbLine
 10
-174.7985509999995
 20
476.6453780755623
 30
0.0
 11
-173.8945509999997
 21
476.6453780755623
 31
0.0
  0
ARC
  5
150C
330
A
100
AcDbEntity
  8
本体
  6
Continuous
 62
    84
100
AcDbCircle
 10
-180.2485509999995
 20
470.6853780755623
 30
0.0
 40
0.5
100
AcDbArc
 50
180.0
 51
270.0
  0
LINE
  5
150D
330
A
100
AcDbEntity
  8
本体
  6
Continuous
 62
    84
100
AcDbLine
 10
-180.7485509999997
 20
470.6853780755623
 30
0.0
 11
-180.7485509999997
 21
473.1853780755622
 31
0.0
  0
LINE
  5
150E
330
A
100
AcDbEntity
  8
本体
  6
Continuous
 62
    84
100
AcDbLine
 10
-175.7485509999997
 20
470.6853780755623
 30
0.0
 11
-175.7485509999997
 21
473.1853780755622
 31
0.0
  0
LINE
  5
150F
330
A
100
AcDbEntity
  8
本体
  6
Continuous
 62
    84
100
AcDbLine
 10
-176.2485509999997
 20
470.1853780755623
 30
0.0
 11
-180.2485509999995
 21
470.1853780755623
 31
0.0
  0
ARC
  5
1510
330
A
100
AcDbEntity
  8
本体
  6
Continuous
 62
    84
100
AcDbCircle
 10
-176.2485509999997
 20
470.6853780755623
 30
0.0
 40
0.5
100
AcDbArc
 50
270.0
 51
0.0
  0
MTEXT
  5
1511
330
A
100
AcDbEntity
  8
本体
  6
Continuous
 62
    84
100
AcDbMText
 10
-177.4235509999993
 20
470.8353780755622
 30
0.0
 40
2.2
 41
0.0
 71
     1
 72
     1
  1
\T0.851;\A1;4
 11
-1.0
 21
0.0000000000000002
 31
0.0
 73
     1
 44
1.0
  0
CIRCLE
  5
1512
330
A
100
AcDbEntity
  8
本体
  6
Continuous
 62
    84
100
AcDbCircle
 10
-151.2485509999998
 20
477.6353780755624
 30
0.0
 40
6.849999999999997
  0
CIRCLE
  5
1513
330
A
100
AcDbEntity
  8
本体
  6
Continuous
 62
    84
100
AcDbCircle
 10
-115.2485509999995
 20
477.6353780755624
 30
0.0
 40
6.849999999999997
  0
CIRCLE
  5
1514
330
A
100
AcDbEntity
  8
本体
  6
Continuous
 62
    84
100
AcDbCircle
 10
-133.2485509999997
 20
477.6353780755624
 30
0.0
 40
6.849999999999997
  0
LINE
  5
1515
330
A
100
AcDbEntity
  8
本体
  6
Continuous
 62
    84
100
AcDbLine
 10
-160.7485509999998
 20
499.1353780755622
 30
0.0
 11
-160.7485509999998
 21
475.135378075562
 31
0.0
  0
LINE
  5
1516
330
A
100
AcDbEntity
  8
本体
  6
Continuous
 62
    84
100
AcDbLine
 10
-124.7485509999995
 20
499.1353780755622
 30
0.0
 11
-124.7485509999995
 21
475.135378075562
 31
0.0
  0
LINE
  5
1517
330
A
100
AcDbEntity
  8
本体
  6
Continuous
 62
    84
100
AcDbLine
 10
-159.7485509999998
 20
499.1353780755622
 30
0.0
 11
-159.7485509999998
 21
475.135378075562
 31
0.0
  0
LINE
  5
1518
330
A
100
AcDbEntity
  8
本体
  6
Continuous
 62
    84
100
AcDbLine
 10
-123.7485509999997
 20
499.1353780755622
 30
0.0
 11
-123.7485509999997
 21
475.135378075562
 31
0.0
  0
HATCH
  5
1519
330
A
100
AcDbEntity
  8
本体
  6
Continuous
 62
    84
100
AcDbHatch
 10
0.0
 20
0.0
 30
0.0
210
0.0
220
0.0
230
1.0
  2
SOLID
 70
     1
 71
     0
 91
        1
 92
        1
 93
        4
 72
     2
 10
-97.24855194739321
 20
494.6353786158616
 40
6.599999999999997
 50
402.4233419999998
 51
497.5766580000001
 73
     0
 72
     2
 10
-106.5496271540558
 20
486.1353786158614
 40
6.0
 50
317.576658
 51
402.4233419999998
 73
     0
 72
     2
 10
-97.24855194739321
 20
477.6353786158614
 40
6.599999999999997
 50
222.423342
 51
317.576658
 73
     0
 72
     2
 10
-87.9474767407302
 20
486.1353786158614
 40
6.0
 50
137.576658
 51
222.423342
 73
     0
 97
        0
 75
     0
 76
     1
 98
        1
 10
-145.7187849999995
 20
292.1197920755623
  0
HATCH
  5
151A
330
A
100
AcDbEntity
  8
本体
  6
Continuous
 62
    84
100
AcDbHatch
 10
0.0
 20
0.0
 30
0.0
210
0.0
220
0.0
230
1.0
  2
SOLID
 70
     1
 71
     0
 91
        1
 92
        1
 93
        4
 72
     2
 10
-115.2485519473932
 20
494.6353786158616
 40
6.599999999999997
 50
402.4233419999998
 51
497.5766580000001
 73
     0
 72
     2
 10
-124.5496271540559
 20
486.1353786158614
 40
6.0
 50
317.576658
 51
402.4233419999998
 73
     0
 72
     2
 10
-115.2485519473932
 20
477.6353786158614
 40
6.599999999999997
 50
222.423342
 51
317.576658
 73
     0
 72
     2
 10
-105.9474767407302
 20
486.1353786158614
 40
6.0
 50
137.576658
 51
222.423342
 73
     0
 97
        0
 75
     0
 76
     1
 98
        1
 10
-145.7187849999995
 20
292.1197920755623
  0
HATCH
  5
151B
330
A
100
AcDbEntity
  8
本体
  6
Continuous
 62
    84
100
AcDbHatch
 10
0.0
 20
0.0
 30
0.0
210
0.0
220
0.0
230
1.0
  2
SOLID
 70
     1
 71
     0
 91
        1
 92
        1
 93
        4
 72
     2
 10
-133.2485519473932
 20
494.6353786158616
 40
6.599999999999997
 50
402.4233419999998
 51
497.5766580000001
 73
     0
 72
     2
 10
-142.5496271540559
 20
486.1353786158614
 40
6.0
 50
317.576658
 51
402.4233419999998
 73
     0
 72
     2
 10
-133.2485519473932
 20
477.6353786158614
 40
6.599999999999997
 50
222.423342
 51
317.576658
 73
     0
 72
     2
 10
-123.9474767407302
 20
486.1353786158614
 40
6.0
 50
137.576658
 51
222.423342
 73
     0
 97
        0
 75
     0
 76
     1
 98
        1
 10
-145.7187849999995
 20
292.1197920755623
  0
HATCH
  5
151C
330
A
100
AcDbEntity
  8
本体
  6
Continuous
 62
    84
100
AcDbHatch
 10
0.0
 20
0.0
 30
0.0
210
0.0
220
0.0
230
1.0
  2
SOLID
 70
     1
 71
     0
 91
        1
 92
        1
 93
        4
 72
     2
 10
-151.2485519473929
 20
494.6353786158616
 40
6.599999999999997
 50
402.4233419999998
 51
497.5766580000001
 73
     0
 72
     2
 10
-160.5496271540559
 20
486.1353786158614
 40
6.0
 50
317.576658
 51
402.4233419999998
 73
     0
 72
     2
 10
-151.2485519473929
 20
477.6353786158614
 40
6.599999999999997
 50
222.423342
 51
317.576658
 73
     0
 72
     2
 10
-141.9474767407302
 20
486.1353786158614
 40
6.0
 50
137.576658
 51
222.423342
 73
     0
 97
        0
 75
     0
 76
     1
 98
        1
 10
-145.7187849999995
 20
292.1197920755623
  0
CIRCLE
  5
151D
330
A
100
AcDbEntity
  8
本体
  6
Continuous
 62
    84
100
AcDbCircle
 10
-115.2485509999995
 20
477.6353780755624
 30
0.0
 40
6.5
  0
CIRCLE
  5
151E
330
A
100
AcDbEntity
  8
本体
  6
Continuous
 62
    84
100
AcDbCircle
 10
-133.2485509999997
 20
477.6353780755624
 30
0.0
 40
6.5
  0
CIRCLE
  5
151F
330
A
100
AcDbEntity
  8
本体
  6
Continuous
 62
    84
100
AcDbCircle
 10
-151.2485509999998
 20
477.6353780755624
 30
0.0
 40
6.5
  0
CIRCLE
  5
1520
330
A
100
AcDbEntity
  8
本体
  6
Continuous
 62
    84
100
AcDbCircle
 10
-151.2485509999998
 20
477.6353780755624
 30
0.0
 40
6.75
  0
CIRCLE
  5
1521
330
A
100
AcDbEntity
  8
本体
  6
Continuous
 62
    84
100
AcDbCircle
 10
-115.2485509999995
 20
477.6353780755624
 30
0.0
 40
6.75
  0
CIRCLE
  5
1522
330
A
100
AcDbEntity
  8
本体
  6
Continuous
 62
    84
100
AcDbCircle
 10
-133.2485509999997
 20
477.6353780755624
 30
0.0
 40
6.75
  0
CIRCLE
  5
1523
330
A
100
AcDbEntity
  8
本体
  6
Continuous
 62
    84
100
AcDbCircle
 10
-133.2485509999997
 20
494.6353780755623
 30
0.0
 40
6.849999999999997
  0
LINE
  5
1524
330
A
100
AcDbEntity
  8
本体
  6
Continuous
 62
    84
100
AcDbLine
 10
-130.7485509999998
 20
505.1353780755623
 30
0.0
 11
-153.7485509999998
 21
505.1353780755623
 31
0.0
  0
CIRCLE
  5
1525
330
A
100
AcDbEntity
  8
本体
  6
Continuous
 62
    84
100
AcDbCircle
 10
-133.2485509999997
 20
494.6353780755623
 30
0.0
 40
2.5
  0
CIRCLE
  5
1526
330
A
100
AcDbEntity
  8
本体
  6
Continuous
 62
    84
100
AcDbCircle
 10
-133.2485509999997
 20
494.6353780755623
 30
0.0
 40
4.75
  0
CIRCLE
  5
1527
330
A
100
AcDbEntity
  8
本体
  6
Continuous
 62
    84
100
AcDbCircle
 10
-133.2485509999997
 20
494.6353780755623
 30
0.0
 40
4.549999999999998
  0
CIRCLE
  5
1528
330
A
100
AcDbEntity
  8
本体
  6
Continuous
 62
    84
100
AcDbCircle
 10
-133.2485509999997
 20
494.6353780755623
 30
0.0
 40
6.5
  0
CIRCLE
  5
1529
330
A
100
AcDbEntity
  8
本体
  6
Continuous
 62
    84
100
AcDbCircle
 10
-133.2485509999997
 20
494.6353780755623
 30
0.0
 40
6.75
  0
CIRCLE
  5
152A
330
A
100
AcDbEntity
  8
本体
  6
Continuous
 62
    84
100
AcDbCircle
 10
-151.2485509999998
 20
494.6353780755623
 30
0.0
 40
6.849999999999997
  0
ARC
  5
152B
330
A
100
AcDbEntity
  8
本体
  6
Continuous
 62
    84
100
AcDbCircle
 10
-153.7485509999998
 20
499.1353780755622
 30
0.0
 40
6.0
100
AcDbArc
 50
89.99999999999998
 51
180.0
  0
ARC
  5
152C
330
A
100
AcDbEntity
  8
本体
  6
Continuous
 62
    84
100
AcDbCircle
 10
-166.7485509999998
 20
499.1353780755622
 30
0.0
 40
6.0
100
AcDbArc
 50
0.0
 51
89.99999999999998
  0
CIRCLE
  5
152D
330
A
100
AcDbEntity
  8
本体
  6
Continuous
 62
    84
100
AcDbCircle
 10
-151.2485509999998
 20
494.6353780755623
 30
0.0
 40
6.5
  0
CIRCLE
  5
152E
330
A
100
AcDbEntity
  8
本体
  6
Continuous
 62
    84
100
AcDbCircle
 10
-151.2485509999998
 20
494.6353780755623
 30
0.0
 40
6.5
  0
CIRCLE
  5
152F
330
A
100
AcDbEntity
  8
本体
  6
Continuous
 62
    84
100
AcDbCircle
 10
-151.2485509999998
 20
494.6353780755623
 30
0.0
 40
6.75
  0
MTEXT
  5
1530
330
A
100
AcDbEntity
  8
本体
  6
Continuous
 62
    84
100
AcDbMText
 10
-147.9701049999998
 20
502.1353780755624
 30
0.0
 40
2.5
 41
0.0
 71
     1
 72
     1
  1
\T0.930;\W0.938;\A1;OUT
 11
-1.0
 21
0.0000000000000002
 31
0.0
 73
     1
 44
1.0
  0
MTEXT
  5
1533
330
A
100
AcDbEntity
  8
本体
  6
Continuous
 62
    84
100
AcDbMText
 10
-131.5214829999997
 20
502.1353780755624
 30
0.0
 40
2.5
 41
0.0
 71
     1
 72
     1
  1
\T1.019;\W1.028;\A1;IN
 11
-1.0
 21
0.0000000000000002
 31
0.0
 73
     1
 44
1.0
  0
CIRCLE
  5
1534
330
A
100
AcDbEntity
  8
本体
  6
Continuous
 62
    84
100
AcDbCircle
 10
-151.2485509999998
 20
494.6353780755623
 30
0.0
 40
4.549999999999998
  0
CIRCLE
  5
1535
330
A
100
AcDbEntity
  8
本体
  6
Continuous
 62
    84
100
AcDbCircle
 10
-151.2485509999998
 20
494.6353780755623
 30
0.0
 40
4.75
  0
CIRCLE
  5
1536
330
A
100
AcDbEntity
  8
本体
  6
Continuous
 62
    84
100
AcDbCircle
 10
-151.2485509999998
 20
494.6353780755623
 30
0.0
 40
2.5
  0
LINE
  5
1537
330
A
100
AcDbEntity
  8
本体
  6
Continuous
 62
    84
100
AcDbLine
 10
-164.6025509999996
 20
493.6453780755623
 30
0.0
 11
-163.6985509999996
 21
493.6453780755623
 31
0.0
  0
LINE
  5
1538
330
A
100
AcDbEntity
  8
本体
  6
Continuous
 62
    84
100
AcDbLine
 10
-163.6985509999996
 20
495.6243780755624
 30
0.0
 11
-163.6985509999996
 21
493.6453780755623
 31
0.0
  0
LINE
  5
1539
330
A
100
AcDbEntity
  8
本体
  6
Continuous
 62
    84
100
AcDbLine
 10
-164.6025509999996
 20
495.6243780755624
 30
0.0
 11
-163.6985509999996
 21
495.6243780755624
 31
0.0
  0
LINE
  5
153A
330
A
100
AcDbEntity
  8
本体
  6
Continuous
 62
    84
100
AcDbLine
 10
-156.7985509999996
 20
495.6253780755623
 30
0.0
 11
-155.8945509999998
 21
495.6253780755623
 31
0.0
  0
LINE
  5
153B
330
A
100
AcDbEntity
  8
本体
  6
Continuous
 62
    84
100
AcDbLine
 10
-156.7985509999996
 20
493.6453780755623
 30
0.0
 11
-155.8945509999998
 21
493.6453780755623
 31
0.0
  0
LINE
  5
153C
330
A
100
AcDbEntity
  8
本体
  6
Continuous
 62
    84
100
AcDbLine
 10
-156.7985509999996
 20
495.6253780755623
 30
0.0
 11
-156.7985509999996
 21
493.6453780755623
 31
0.0
  0
LINE
  5
153D
330
A
100
AcDbEntity
  8
本体
  6
Continuous
 62
    84
100
AcDbLine
 10
-146.6025509999996
 20
493.6453780755623
 30
0.0
 11
-145.6985509999996
 21
493.6453780755623
 31
0.0
  0
LINE
  5
153E
330
A
100
AcDbEntity
  8
本体
  6
Continuous
 62
    84
100
AcDbLine
 10
-145.6985509999996
 20
495.6243780755624
 30
0.0
 11
-145.6985509999996
 21
493.6453780755623
 31
0.0
  0
LINE
  5
153F
330
A
100
AcDbEntity
  8
本体
  6
Continuous
 62
    84
100
AcDbLine
 10
-146.6025509999996
 20
495.6243780755624
 30
0.0
 11
-145.6985509999996
 21
495.6243780755624
 31
0.0
  0
LINE
  5
1540
330
A
100
AcDbEntity
  8
本体
  6
Continuous
 62
    84
100
AcDbLine
 10
-138.7985509999998
 20
495.6253780755623
 30
0.0
 11
-138.7985509999998
 21
493.6453780755623
 31
0.0
  0
LINE
  5
1541
330
A
100
AcDbEntity
  8
本体
  6
Continuous
 62
    84
100
AcDbLine
 10
-138.7985509999998
 20
493.6453780755623
 30
0.0
 11
-137.8945509999996
 21
493.6453780755623
 31
0.0
  0
LINE
  5
1542
330
A
100
AcDbEntity
  8
本体
  6
Continuous
 62
    84
100
AcDbLine
 10
-138.7985509999998
 20
495.6253780755623
 30
0.0
 11
-137.8945509999996
 21
495.6253780755623
 31
0.0
  0
CIRCLE
  5
1543
330
A
100
AcDbEntity
  8
本体
  6
Continuous
 62
    84
100
AcDbCircle
 10
-140.2485509999998
 20
486.1353780755623
 30
0.0
 40
2.64
  0
LINE
  5
1544
330
A
100
AcDbEntity
  8
本体
  6
Continuous
 62
    84
100
AcDbLine
 10
-140.6725509999998
 20
485.1803780755624
 30
0.0
 11
-141.0445509999996
 21
484.8093780755623
 31
0.0
  0
LINE
  5
1545
330
A
100
AcDbEntity
  8
本体
  6
Continuous
 62
    84
100
AcDbLine
 10
-141.0445509999996
 20
487.4613780755622
 30
0.0
 11
-140.6725509999998
 21
487.0903780755623
 31
0.0
  0
LINE
  5
1546
330
A
100
AcDbEntity
  8
本体
  6
Continuous
 62
    84
100
AcDbLine
 10
-141.0445509999996
 20
487.4613780755622
 30
0.0
 11
-141.5745509999995
 21
486.9313780755622
 31
0.0
  0
ARC
  5
1547
330
A
100
AcDbEntity
  8
本体
  6
Continuous
 62
    84
100
AcDbCircle
 10
-141.6265509999997
 20
486.1353780755623
 30
0.0
 40
0.6
100
AcDbArc
 50
314.9323539999996
 51
45.06763999999987
  0
LINE
  5
1548
330
A
100
AcDbEntity
  8
本体
  6
Continuous
 62
    84
100
AcDbLine
 10
-141.2035509999997
 20
485.7113780755621
 30
0.0
 11
-141.5745509999995
 21
485.3393780755623
 31
0.0
  0
LINE
  5
1549
330
A
100
AcDbEntity
  8
本体
  6
Continuous
 62
    84
100
AcDbLine
 10
-141.5745509999995
 20
486.9313780755622
 30
0.0
 11
-141.2035509999997
 21
486.5593780755623
 31
0.0
  0
LINE
  5
154A
330
A
100
AcDbEntity
  8
本体
  6
Continuous
 62
    84
100
AcDbLine
 10
-141.5745509999995
 20
485.3393780755623
 30
0.0
 11
-141.0445509999996
 21
484.8093780755623
 31
0.0
  0
ARC
  5
154B
330
A
100
AcDbEntity
  8
本体
  6
Continuous
 62
    84
100
AcDbCircle
 10
-140.2485509999998
 20
487.5133780755622
 30
0.0
 40
0.6
100
AcDbArc
 50
224.93235
 51
315.0676450000003
  0
LINE
  5
154C
330
A
100
AcDbEntity
  8
本体
  6
Continuous
 62
    84
100
AcDbLine
 10
-139.4525509999998
 20
487.4613780755622
 30
0.0
 11
-138.9225509999995
 21
486.9313780755622
 31
0.0
  0
LINE
  5
154D
330
A
100
AcDbEntity
  8
本体
  6
Continuous
 62
    84
100
AcDbLine
 10
-139.4525509999998
 20
487.4613780755622
 30
0.0
 11
-139.8245509999995
 21
487.0903780755623
 31
0.0
  0
ARC
  5
154E
330
A
100
AcDbEntity
  8
本体
  6
Continuous
 62
    84
100
AcDbCircle
 10
-140.2485509999998
 20
484.7573780755623
 30
0.0
 40
0.6
100
AcDbArc
 50
44.93235000000006
 51
135.0676399999997
  0
ARC
  5
154F
330
A
100
AcDbEntity
  8
本体
  6
Continuous
 62
    84
100
AcDbCircle
 10
-138.8705509999996
 20
486.1353780755623
 30
0.0
 40
0.6
100
AcDbArc
 50
134.9323500000012
 51
225.0676399999998
  0
CIRCLE
  5
1550
330
A
100
AcDbEntity
  8
本体
  6
Continuous
 62
    84
100
AcDbCircle
 10
-138.8695509999996
 20
486.1343780755624
 30
0.0
 40
0.3
  0
LINE
  5
1551
330
A
100
AcDbEntity
  8
本体
  6
Continuous
 62
    84
100
AcDbLine
 10
-139.8245509999995
 20
485.1803780755624
 30
0.0
 11
-139.4525509999998
 21
484.8093780755623
 31
0.0
  0
LINE
  5
1552
330
A
100
AcDbEntity
  8
本体
  6
Continuous
 62
    84
100
AcDbLine
 10
-138.9225509999995
 20
486.9313780755622
 30
0.0
 11
-139.2935509999996
 21
486.5593780755623
 31
0.0
  0
LINE
  5
1553
330
A
100
AcDbEntity
  8
本体
  6
Continuous
 62
    84
100
AcDbLine
 10
-139.2935509999996
 20
485.7113780755621
 30
0.0
 11
-138.9225509999995
 21
485.3393780755623
 31
0.0
  0
LINE
  5
1554
330
A
100
AcDbEntity
  8
本体
  6
Continuous
 62
    84
100
AcDbLine
 10
-138.9225509999995
 20
485.3393780755623
 30
0.0
 11
-139.4525509999998
 21
484.8093780755623
 31
0.0
  0
CIRCLE
  5
1555
330
A
100
AcDbEntity
  8
本体
  6
Continuous
 62
    84
100
AcDbCircle
 10
-115.2485509999995
 20
494.6353780755623
 30
0.0
 40
6.849999999999997
  0
ARC
  5
1556
330
A
100
AcDbEntity
  8
本体
  6
Continuous
 62
    84
100
AcDbCircle
 10
-130.7485509999998
 20
499.1353780755622
 30
0.0
 40
6.0
100
AcDbArc
 50
0.0
 51
89.99999999999998
  0
ARC
  5
1557
330
A
100
AcDbEntity
  8
本体
  6
Continuous
 62
    84
100
AcDbCircle
 10
-117.7485509999997
 20
499.1353780755622
 30
0.0
 40
6.0
100
AcDbArc
 50
89.99999999999998
 51
180.0
  0
CIRCLE
  5
1558
330
A
100
AcDbEntity
  8
本体
  6
Continuous
 62
    84
100
AcDbCircle
 10
-115.2485509999995
 20
494.6353780755623
 30
0.0
 40
6.5
  0
CIRCLE
  5
1559
330
A
100
AcDbEntity
  8
本体
  6
Continuous
 62
    84
100
AcDbCircle
 10
-115.2485509999995
 20
494.6353780755623
 30
0.0
 40
6.75
  0
LINE
  5
155A
330
A
100
AcDbEntity
  8
本体
  6
Continuous
 62
    84
100
AcDbLine
 10
-94.74855099999984
 20
505.1353780755623
 30
0.0
 11
-117.7485509999997
 21
505.1353780755623
 31
0.0
  0
MTEXT
  5
155B
330
A
100
AcDbEntity
  8
本体
  6
Continuous
 62
    84
100
AcDbMText
 10
-111.9701049999995
 20
502.1353780755624
 30
0.0
 40
2.5
 41
0.0
 71
     1
 72
     1
  1
\T0.930;\W0.938;\A1;OUT
 11
-1.0
 21
0.0000000000000002
 31
0.0
 73
     1
 44
1.0
  0
MTEXT
  5
155C
330
A
100
AcDbEntity
  8
本体
  6
Continuous
 62
    84
100
AcDbMText
 10
-95.52148299999968
 20
502.1353780755624
 30
0.0
 40
2.5
 41
0.0
 71
     1
 72
     1
  1
\T1.019;\W1.028;\A1;IN
 11
-1.0
 21
0.0000000000000002
 31
0.0
 73
     1
 44
1.0
  0
CIRCLE
  5
155D
330
A
100
AcDbEntity
  8
本体
  6
Continuous
 62
    84
100
AcDbCircle
 10
-115.2485509999995
 20
494.6353780755623
 30
0.0
 40
4.75
  0
CIRCLE
  5
155E
330
A
100
AcDbEntity
  8
本体
  6
Continuous
 62
    84
100
AcDbCircle
 10
-115.2485509999995
 20
494.6353780755623
 30
0.0
 40
4.549999999999998
  0
LINE
  5
155F
330
A
100
AcDbEntity
  8
本体
  6
Continuous
 62
    84
100
AcDbLine
 10
-128.6025509999996
 20
495.6243780755624
 30
0.0
 11
-127.6985509999996
 21
495.6243780755624
 31
0.0
  0
LINE
  5
1560
330
A
100
AcDbEntity
  8
本体
  6
Continuous
 62
    84
100
AcDbLine
 10
-127.6985509999996
 20
495.6243780755624
 30
0.0
 11
-127.6985509999996
 21
493.6453780755623
 31
0.0
  0
LINE
  5
1561
330
A
100
AcDbEntity
  8
本体
  6
Continuous
 62
    84
100
AcDbLine
 10
-128.6025509999996
 20
493.6453780755623
 30
0.0
 11
-127.6985509999996
 21
493.6453780755623
 31
0.0
  0
CIRCLE
  5
1562
330
A
100
AcDbEntity
  8
本体
  6
Continuous
 62
    84
100
AcDbCircle
 10
-115.2485509999995
 20
494.6353780755623
 30
0.0
 40
2.5
  0
LINE
  5
1563
330
A
100
AcDbEntity
  8
本体
  6
Continuous
 62
    84
100
AcDbLine
 10
-120.7985509999996
 20
495.6253780755623
 30
0.0
 11
-120.7985509999996
 21
493.6453780755623
 31
0.0
  0
LINE
  5
1564
330
A
100
AcDbEntity
  8
本体
  6
Continuous
 62
    84
100
AcDbLine
 10
-120.7985509999996
 20
493.6453780755623
 30
0.0
 11
-119.8945509999997
 21
493.6453780755623
 31
0.0
  0
LINE
  5
1565
330
A
100
AcDbEntity
  8
本体
  6
Continuous
 62
    84
100
AcDbLine
 10
-120.7985509999996
 20
495.6253780755623
 30
0.0
 11
-119.8945509999997
 21
495.6253780755623
 31
0.0
  0
CIRCLE
  5
1566
330
A
100
AcDbEntity
  8
本体
  6
Continuous
 62
    84
100
AcDbCircle
 10
-97.24855099999986
 20
494.6353780755623
 30
0.0
 40
4.75
  0
CIRCLE
  5
1567
330
A
100
AcDbEntity
  8
本体
  6
Continuous
 62
    84
100
AcDbCircle
 10
-97.24855099999986
 20
494.6353780755623
 30
0.0
 40
4.549999999999998
  0
LINE
  5
1568
330
A
100
AcDbEntity
  8
本体
  6
Continuous
 62
    84
100
AcDbLine
 10
-109.6985509999995
 20
496.8243780755623
 30
0.0
 11
-109.6985509999995
 21
494.8453780755622
 31
0.0
  0
LINE
  5
1569
330
A
100
AcDbEntity
  8
本体
  6
Continuous
 62
    84
100
AcDbLine
 10
-110.6025509999996
 20
496.8243780755623
 30
0.0
 11
-109.6985509999995
 21
496.8243780755623
 31
0.0
  0
LINE
  5
156A
330
A
100
AcDbEntity
  8
本体
  6
Continuous
 62
    84
100
AcDbLine
 10
-102.7985509999996
 20
495.6253780755623
 30
0.0
 11
-102.7985509999996
 21
493.6453780755623
 31
0.0
  0
LINE
  5
156B
330
A
100
AcDbEntity
  8
本体
  6
Continuous
 62
    84
100
AcDbLine
 10
-102.7985509999996
 20
493.6453780755623
 30
0.0
 11
-101.8945509999998
 21
493.6453780755623
 31
0.0
  0
LINE
  5
156C
330
A
100
AcDbEntity
  8
本体
  6
Continuous
 62
    84
100
AcDbLine
 10
-102.7985509999996
 20
495.6253780755623
 30
0.0
 11
-101.8945509999998
 21
495.6253780755623
 31
0.0
  0
LINE
  5
156D
330
A
100
AcDbEntity
  8
本体
  6
Continuous
 62
    84
100
AcDbLine
 10
-110.6025509999996
 20
494.8453780755622
 30
0.0
 11
-109.6985509999995
 21
494.8453780755622
 31
0.0
  0
CIRCLE
  5
156E
330
A
100
AcDbEntity
  8
本体
  6
Continuous
 62
    84
100
AcDbCircle
 10
-97.24855099999986
 20
494.6353780755623
 30
0.0
 40
2.5
  0
LINE
  5
156F
330
A
100
AcDbEntity
  8
本体
  6
Continuous
 62
    84
100
AcDbLine
 10
-92.60255099999964
 20
495.6243780755624
 30
0.0
 11
-91.69855099999969
 21
495.6243780755624
 31
0.0
  0
LINE
  5
1570
330
A
100
AcDbEntity
  8
本体
  6
Continuous
 62
    84
100
AcDbLine
 10
-91.69855099999969
 20
495.6243780755624
 30
0.0
 11
-91.69855099999969
 21
493.6453780755623
 31
0.0
  0
LINE
  5
1571
330
A
100
AcDbEntity
  8
本体
  6
Continuous
 62
    84
100
AcDbLine
 10
-92.60255099999964
 20
493.6453780755623
 30
0.0
 11
-91.69855099999969
 21
493.6453780755623
 31
0.0
  0
CIRCLE
  5
1572
330
A
100
AcDbEntity
  8
本体
  6
Continuous
 62
    84
100
AcDbCircle
 10
-104.2485509999997
 20
486.1353780755623
 30
0.0
 40
2.64
  0
ARC
  5
1573
330
A
100
AcDbEntity
  8
本体
  6
Continuous
 62
    84
100
AcDbCircle
 10
-104.2485509999997
 20
487.5133780755622
 30
0.0
 40
0.6
100
AcDbArc
 50
224.93235
 51
315.0676450000003
  0
LINE
  5
1574
330
A
100
AcDbEntity
  8
本体
  6
Continuous
 62
    84
100
AcDbLine
 10
-103.4525509999997
 20
487.4613780755622
 30
0.0
 11
-102.9225509999996
 21
486.9313780755622
 31
0.0
  0
LINE
  5
1575
330
A
100
AcDbEntity
  8
本体
  6
Continuous
 62
    84
100
AcDbLine
 10
-105.0445509999996
 20
487.4613780755622
 30
0.0
 11
-105.5745509999995
 21
486.9313780755622
 31
0.0
  0
LINE
  5
1576
330
A
100
AcDbEntity
  8
本体
  6
Continuous
 62
    84
100
AcDbLine
 10
-103.4525509999997
 20
487.4613780755622
 30
0.0
 11
-103.8245509999996
 21
487.0903780755623
 31
0.0
  0
LINE
  5
1577
330
A
100
AcDbEntity
  8
本体
  6
Continuous
 62
    84
100
AcDbLine
 10
-105.0445509999996
 20
487.4613780755622
 30
0.0
 11
-104.6725509999997
 21
487.0903780755623
 31
0.0
  0
ARC
  5
1578
330
A
100
AcDbEntity
  8
本体
  6
Continuous
 62
    84
100
AcDbCircle
 10
-105.6265509999998
 20
486.1353780755623
 30
0.0
 40
0.6
100
AcDbArc
 50
314.9323539999996
 51
45.06763999999987
  0
ARC
  5
1579
330
A
100
AcDbEntity
  8
本体
  6
Continuous
 62
    84
100
AcDbCircle
 10
-104.2485509999997
 20
484.7573780755623
 30
0.0
 40
0.6
100
AcDbArc
 50
44.93235000000006
 51
135.0676399999997
  0
ARC
  5
157A
330
A
100
AcDbEntity
  8
本体
  6
Continuous
 62
    84
100
AcDbCircle
 10
-102.8705509999995
 20
486.1353780755623
 30
0.0
 40
0.6
100
AcDbArc
 50
134.9323500000012
 51
225.0676399999998
  0
CIRCLE
  5
157B
330
A
100
AcDbEntity
  8
本体
  6
Continuous
 62
    84
100
AcDbCircle
 10
-102.8695509999996
 20
486.1343780755624
 30
0.0
 40
0.3
  0
LINE
  5
157C
330
A
100
AcDbEntity
  8
本体
  6
Continuous
 62
    84
100
AcDbLine
 10
-105.2035509999995
 20
485.7113780755621
 30
0.0
 11
-105.5745509999995
 21
485.3393780755623
 31
0.0
  0
LINE
  5
157D
330
A
100
AcDbEntity
  8
本体
  6
Continuous
 62
    84
100
AcDbLine
 10
-105.5745509999995
 20
486.9313780755622
 30
0.0
 11
-105.2035509999995
 21
486.5593780755623
 31
0.0
  0
LINE
  5
157E
330
A
100
AcDbEntity
  8
本体
  6
Continuous
 62
    84
100
AcDbLine
 10
-103.8245509999996
 20
485.1803780755624
 30
0.0
 11
-103.4525509999997
 21
484.8093780755623
 31
0.0
  0
LINE
  5
157F
330
A
100
AcDbEntity
  8
本体
  6
Continuous
 62
    84
100
AcDbLine
 10
-104.6725509999997
 20
485.1803780755624
 30
0.0
 11
-105.0445509999996
 21
484.8093780755623
 31
0.0
  0
LINE
  5
1580
330
A
100
AcDbEntity
  8
本体
  6
Continuous
 62
    84
100
AcDbLine
 10
-102.9225509999996
 20
486.9313780755622
 30
0.0
 11
-103.2935509999997
 21
486.5593780755623
 31
0.0
  0
LINE
  5
1581
330
A
100
AcDbEntity
  8
本体
  6
Continuous
 62
    84
100
AcDbLine
 10
-103.2935509999997
 20
485.7113780755621
 30
0.0
 11
-102.9225509999996
 21
485.3393780755623
 31
0.0
  0
LINE
  5
1582
330
A
100
AcDbEntity
  8
本体
  6
Continuous
 62
    84
100
AcDbLine
 10
-105.5745509999995
 20
485.3393780755623
 30
0.0
 11
-105.0445509999996
 21
484.8093780755623
 31
0.0
  0
LINE
  5
1583
330
A
100
AcDbEntity
  8
本体
  6
Continuous
 62
    84
100
AcDbLine
 10
-102.9225509999996
 20
485.3393780755623
 30
0.0
 11
-103.4525509999997
 21
484.8093780755623
 31
0.0
  0
LINE
  5
1584
330
A
100
AcDbEntity
  8
本体
  6
Continuous
 62
    84
100
AcDbLine
 10
-130.7485509999998
 20
469.1353780755624
 30
0.0
 11
-153.7485509999998
 21
469.1353780755624
 31
0.0
  0
CIRCLE
  5
1585
330
A
100
AcDbEntity
  8
本体
  6
Continuous
 62
    84
100
AcDbCircle
 10
-133.2485509999997
 20
477.6353780755624
 30
0.0
 40
2.5
  0
CIRCLE
  5
1586
330
A
100
AcDbEntity
  8
本体
  6
Continuous
 62
    84
100
AcDbCircle
 10
-133.2485509999997
 20
477.6353780755624
 30
0.0
 40
4.549999999999998
  0
CIRCLE
  5
1587
330
A
100
AcDbEntity
  8
本体
  6
Continuous
 62
    84
100
AcDbCircle
 10
-133.2485509999997
 20
477.6353780755624
 30
0.0
 40
4.75
  0
CIRCLE
  5
1588
330
A
100
AcDbEntity
  8
本体
  6
Continuous
 62
    84
100
AcDbCircle
 10
-151.2485509999998
 20
477.6353780755624
 30
0.0
 40
4.75
  0
CIRCLE
  5
1589
330
A
100
AcDbEntity
  8
本体
  6
Continuous
 62
    84
100
AcDbCircle
 10
-151.2485509999998
 20
477.6353780755624
 30
0.0
 40
4.549999999999998
  0
CIRCLE
  5
158A
330
A
100
AcDbEntity
  8
本体
  6
Continuous
 62
    84
100
AcDbCircle
 10
-151.2485509999998
 20
477.6353780755624
 30
0.0
 40
2.5
  0
ARC
  5
158B
330
A
100
AcDbEntity
  8
本体
  6
Continuous
 62
    84
100
AcDbCircle
 10
-153.7485509999999
 20
475.135378075562
 30
0.0
 40
6.0
100
AcDbArc
 50
180.0
 51
270.0
  0
ARC
  5
158C
330
A
100
AcDbEntity
  8
本体
  6
Continuous
 62
    84
100
AcDbCircle
 10
-166.7485509999998
 20
475.135378075562
 30
0.0
 40
6.0
100
AcDbArc
 50
270.0
 51
0.0
  0
LINE
  5
158D
330
A
100
AcDbEntity
  8
本体
  6
Continuous
 62
    84
100
AcDbLine
 10
-163.6985509999996
 20
478.6243780755624
 30
0.0
 11
-163.6985509999996
 21
476.6453780755623
 31
0.0
  0
LINE
  5
158E
330
A
100
AcDbEntity
  8
本体
  6
Continuous
 62
    84
100
AcDbLine
 10
-164.6025509999996
 20
478.6243780755624
 30
0.0
 11
-163.6985509999996
 21
478.6243780755624
 31
0.0
  0
LINE
  5
158F
330
A
100
AcDbEntity
  8
本体
  6
Continuous
 62
    84
100
AcDbLine
 10
-164.6025509999996
 20
476.6453780755623
 30
0.0
 11
-163.6985509999996
 21
476.6453780755623
 31
0.0
  0
LINE
  5
1590
330
A
100
AcDbEntity
  8
本体
  6
Continuous
 62
    84
100
AcDbLine
 10
-156.7985509999996
 20
478.6253780755624
 30
0.0
 11
-156.7985509999996
 21
476.6453780755623
 31
0.0
  0
LINE
  5
1591
330
A
100
AcDbEntity
  8
本体
  6
Continuous
 62
    84
100
AcDbLine
 10
-156.7985509999996
 20
478.6253780755624
 30
0.0
 11
-155.8945509999998
 21
478.6253780755624
 31
0.0
  0
LINE
  5
1592
330
A
100
AcDbEntity
  8
本体
  6
Continuous
 62
    84
100
AcDbLine
 10
-156.7985509999996
 20
476.6453780755623
 30
0.0
 11
-155.8945509999998
 21
476.6453780755623
 31
0.0
  0
ARC
  5
1593
330
A
100
AcDbEntity
  8
本体
  6
Continuous
 62
    84
100
AcDbCircle
 10
-140.2485509999999
 20
473.1853780755622
 30
0.0
 40
0.5
100
AcDbArc
 50
0.0
 51
89.99999999999998
  0
ARC
  5
1594
330
A
100
AcDbEntity
  8
本体
  6
Continuous
 62
    84
100
AcDbCircle
 10
-144.2485509999999
 20
473.1853780755622
 30
0.0
 40
0.5
100
AcDbArc
 50
89.99999999999998
 51
180.0
  0
LINE
  5
1595
330
A
100
AcDbEntity
  8
本体
  6
Continuous
 62
    84
100
AcDbLine
 10
-140.2485509999998
 20
473.6853780755621
 30
0.0
 11
-144.2485509999998
 21
473.6853780755621
 31
0.0
  0
LINE
  5
1596
330
A
100
AcDbEntity
  8
本体
  6
Continuous
 62
    84
100
AcDbLine
 10
-145.6985509999996
 20
478.6243780755624
 30
0.0
 11
-145.6985509999996
 21
476.6453780755623
 31
0.0
  0
LINE
  5
1597
330
A
100
AcDbEntity
  8
本体
  6
Continuous
 62
    84
100
AcDbLine
 10
-146.6025509999996
 20
478.6243780755624
 30
0.0
 11
-145.6985509999996
 21
478.6243780755624
 31
0.0
  0
LINE
  5
1598
330
A
100
AcDbEntity
  8
本体
  6
Continuous
 62
    84
100
AcDbLine
 10
-146.6025509999996
 20
476.6453780755623
 30
0.0
 11
-145.6985509999996
 21
476.6453780755623
 31
0.0
  0
LINE
  5
1599
330
A
100
AcDbEntity
  8
本体
  6
Continuous
 62
    84
100
AcDbLine
 10
-138.7985509999998
 20
478.6253780755624
 30
0.0
 11
-138.7985509999998
 21
476.6453780755623
 31
0.0
  0
LINE
  5
159A
330
A
100
AcDbEntity
  8
本体
  6
Continuous
 62
    84
100
AcDbLine
 10
-138.7985509999998
 20
478.6253780755624
 30
0.0
 11
-137.8945509999996
 21
478.6253780755624
 31
0.0
  0
LINE
  5
159B
330
A
100
AcDbEntity
  8
本体
  6
Continuous
 62
    84
100
AcDbLine
 10
-138.7985509999998
 20
476.6453780755623
 30
0.0
 11
-137.8945509999996
 21
476.6453780755623
 31
0.0
  0
LINE
  5
159C
330
A
100
AcDbEntity
  8
本体
  6
Continuous
 62
    84
100
AcDbLine
 10
-140.2485509999998
 20
470.1853780755623
 30
0.0
 11
-144.2485509999998
 21
470.1853780755623
 31
0.0
  0
LINE
  5
159D
330
A
100
AcDbEntity
  8
本体
  6
Continuous
 62
    84
100
AcDbLine
 10
-144.7485509999998
 20
470.6853780755623
 30
0.0
 11
-144.7485509999998
 21
473.1853780755622
 31
0.0
  0
ARC
  5
159E
330
A
100
AcDbEntity
  8
本体
  6
Continuous
 62
    84
100
AcDbCircle
 10
-144.2485509999999
 20
470.6853780755623
 30
0.0
 40
0.5
100
AcDbArc
 50
180.0
 51
270.0
  0
MTEXT
  5
159F
330
A
100
AcDbEntity
  8
本体
  6
Continuous
 62
    84
100
AcDbMText
 10
-141.4235509999998
 20
470.8353780755622
 30
0.0
 40
2.2
 41
0.0
 71
     1
 72
     1
  1
\T0.851;\A1;3
 11
-1.0
 21
0.0000000000000002
 31
0.0
 73
     1
 44
1.0
  0
LINE
  5
15A0
330
A
100
AcDbEntity
  8
本体
  6
Continuous
 62
    84
100
AcDbLine
 10
-139.7485509999997
 20
470.6853780755623
 30
0.0
 11
-139.7485509999997
 21
473.1853780755622
 31
0.0
  0
ARC
  5
15A1
330
A
100
AcDbEntity
  8
本体
  6
Continuous
 62
    84
100
AcDbCircle
 10
-140.2485509999999
 20
470.6853780755623
 30
0.0
 40
0.5
100
AcDbArc
 50
270.0
 51
0.0
  0
LINE
  5
15A2
330
A
100
AcDbEntity
  8
本体
  6
Continuous
 62
    84
100
AcDbLine
 10
-94.74855099999984
 20
469.1353780755624
 30
0.0
 11
-117.7485509999997
 21
469.1353780755624
 31
0.0
  0
CIRCLE
  5
15A3
330
A
100
AcDbEntity
  8
本体
  6
Continuous
 62
    84
100
AcDbCircle
 10
-115.2485509999995
 20
477.6353780755624
 30
0.0
 40
4.549999999999998
  0
CIRCLE
  5
15A4
330
A
100
AcDbEntity
  8
本体
  6
Continuous
 62
    84
100
AcDbCircle
 10
-115.2485509999995
 20
477.6353780755624
 30
0.0
 40
4.75
  0
ARC
  5
15A5
330
A
100
AcDbEntity
  8
本体
  6
Continuous
 62
    84
100
AcDbCircle
 10
-117.7485509999997
 20
475.135378075562
 30
0.0
 40
6.0
100
AcDbArc
 50
180.0
 51
270.0
  0
ARC
  5
15A6
330
A
100
AcDbEntity
  8
本体
  6
Continuous
 62
    84
100
AcDbCircle
 10
-130.7485509999999
 20
475.135378075562
 30
0.0
 40
6.0
100
AcDbArc
 50
270.0
 51
0.0
  0
LINE
  5
15A7
330
A
100
AcDbEntity
  8
本体
  6
Continuous
 62
    84
100
AcDbLine
 10
-127.6985509999996
 20
478.6243780755624
 30
0.0
 11
-127.6985509999996
 21
476.6453780755623
 31
0.0
  0
LINE
  5
15A8
330
A
100
AcDbEntity
  8
本体
  6
Continuous
 62
    84
100
AcDbLine
 10
-128.6025509999996
 20
478.6243780755624
 30
0.0
 11
-127.6985509999996
 21
478.6243780755624
 31
0.0
  0
LINE
  5
15A9
330
A
100
AcDbEntity
  8
本体
  6
Continuous
 62
    84
100
AcDbLine
 10
-128.6025509999996
 20
476.6453780755623
 30
0.0
 11
-127.6985509999996
 21
476.6453780755623
 31
0.0
  0
LINE
  5
15AA
330
A
100
AcDbEntity
  8
本体
  6
Continuous
 62
    84
100
AcDbLine
 10
-120.7985509999996
 20
478.6253780755624
 30
0.0
 11
-120.7985509999996
 21
476.6453780755623
 31
0.0
  0
CIRCLE
  5
15AB
330
A
100
AcDbEntity
  8
本体
  6
Continuous
 62
    84
100
AcDbCircle
 10
-115.2485509999995
 20
477.6353780755624
 30
0.0
 40
2.5
  0
LINE
  5
15AC
330
A
100
AcDbEntity
  8
本体
  6
Continuous
 62
    84
100
AcDbLine
 10
-120.7985509999996
 20
478.6253780755624
 30
0.0
 11
-119.8945509999997
 21
478.6253780755624
 31
0.0
  0
LINE
  5
15AD
330
A
100
AcDbEntity
  8
本体
  6
Continuous
 62
    84
100
AcDbLine
 10
-120.7985509999996
 20
476.6453780755623
 30
0.0
 11
-119.8945509999997
 21
476.6453780755623
 31
0.0
  0
ARC
  5
15AE
330
A
100
AcDbEntity
  8
本体
  6
Continuous
 62
    84
100
AcDbCircle
 10
-104.2485509999997
 20
473.1853780755622
 30
0.0
 40
0.5
100
AcDbArc
 50
0.0
 51
89.99999999999998
  0
ARC
  5
15AF
330
A
100
AcDbEntity
  8
本体
  6
Continuous
 62
    84
100
AcDbCircle
 10
-108.2485509999997
 20
473.1853780755622
 30
0.0
 40
0.5
100
AcDbArc
 50
89.99999999999998
 51
180.0
  0
CIRCLE
  5
15B0
330
A
100
AcDbEntity
  8
本体
  6
Continuous
 62
    84
100
AcDbCircle
 10
-97.24855099999986
 20
477.6353780755624
 30
0.0
 40
4.549999999999998
  0
CIRCLE
  5
15B1
330
A
100
AcDbEntity
  8
本体
  6
Continuous
 62
    84
100
AcDbCircle
 10
-97.24855099999986
 20
477.6353780755624
 30
0.0
 40
4.75
  0
LINE
  5
15B2
330
A
100
AcDbEntity
  8
本体
  6
Continuous
 62
    84
100
AcDbLine
 10
-102.7985509999996
 20
478.6253780755624
 30
0.0
 11
-102.7985509999996
 21
476.6453780755623
 31
0.0
  0
LINE
  5
15B3
330
A
100
AcDbEntity
  8
本体
  6
Continuous
 62
    84
100
AcDbLine
 10
-109.6985509999995
 20
478.6243780755624
 30
0.0
 11
-109.6985509999995
 21
476.6453780755623
 31
0.0
  0
LINE
  5
15B4
330
A
100
AcDbEntity
  8
本体
  6
Continuous
 62
    84
100
AcDbLine
 10
-102.7985509999996
 20
478.6253780755624
 30
0.0
 11
-101.8945509999998
 21
478.6253780755624
 31
0.0
  0
LINE
  5
15B5
330
A
100
AcDbEntity
  8
本体
  6
Continuous
 62
    84
100
AcDbLine
 10
-110.6025509999996
 20
478.6243780755624
 30
0.0
 11
-109.6985509999995
 21
478.6243780755624
 31
0.0
  0
LINE
  5
15B6
330
A
100
AcDbEntity
  8
本体
  6
Continuous
 62
    84
100
AcDbLine
 10
-104.2485509999997
 20
473.6853780755621
 30
0.0
 11
-108.2485509999997
 21
473.6853780755621
 31
0.0
  0
LINE
  5
15B7
330
A
100
AcDbEntity
  8
本体
  6
Continuous
 62
    84
100
AcDbLine
 10
-102.7985509999996
 20
476.6453780755623
 30
0.0
 11
-101.8945509999998
 21
476.6453780755623
 31
0.0
  0
LINE
  5
15B8
330
A
100
AcDbEntity
  8
本体
  6
Continuous
 62
    84
100
AcDbLine
 10
-110.6025509999996
 20
476.6453780755623
 30
0.0
 11
-109.6985509999995
 21
476.6453780755623
 31
0.0
  0
LINE
  5
15B9
330
A
100
AcDbEntity
  8
本体
  6
Continuous
 62
    84
100
AcDbLine
 10
-91.69855099999969
 20
478.6243780755624
 30
0.0
 11
-91.69855099999969
 21
476.6453780755623
 31
0.0
  0
CIRCLE
  5
15BA
330
A
100
AcDbEntity
  8
本体
  6
Continuous
 62
    84
100
AcDbCircle
 10
-97.24855099999986
 20
477.6353780755624
 30
0.0
 40
2.5
  0
LINE
  5
15BB
330
A
100
AcDbEntity
  8
本体
  6
Continuous
 62
    84
100
AcDbLine
 10
-92.60255099999964
 20
478.6243780755624
 30
0.0
 11
-91.69855099999969
 21
478.6243780755624
 31
0.0
  0
LINE
  5
15BC
330
A
100
AcDbEntity
  8
本体
  6
Continuous
 62
    84
100
AcDbLine
 10
-92.60255099999964
 20
476.6453780755623
 30
0.0
 11
-91.69855099999969
 21
476.6453780755623
 31
0.0
  0
LINE
  5
15BD
330
A
100
AcDbEntity
  8
本体
  6
Continuous
 62
    84
100
AcDbLine
 10
-103.7485509999998
 20
470.6853780755623
 30
0.0
 11
-103.7485509999998
 21
473.1853780755622
 31
0.0
  0
LINE
  5
15BE
330
A
100
AcDbEntity
  8
本体
  6
Continuous
 62
    84
100
AcDbLine
 10
-104.2485509999997
 20
470.1853780755623
 30
0.0
 11
-108.2485509999997
 21
470.1853780755623
 31
0.0
  0
ARC
  5
15BF
330
A
100
AcDbEntity
  8
本体
  6
Continuous
 62
    84
100
AcDbCircle
 10
-104.2485509999997
 20
470.6853780755623
 30
0.0
 40
0.5
100
AcDbArc
 50
270.0
 51
0.0
  0
LINE
  5
15C0
330
A
100
AcDbEntity
  8
本体
  6
Continuous
 62
    84
100
AcDbLine
 10
-108.7485509999998
 20
470.6853780755623
 30
0.0
 11
-108.7485509999998
 21
473.1853780755622
 31
0.0
  0
ARC
  5
15C1
330
A
100
AcDbEntity
  8
本体
  6
Continuous
 62
    84
100
AcDbCircle
 10
-108.2485509999997
 20
470.6853780755623
 30
0.0
 40
0.5
100
AcDbArc
 50
180.0
 51
270.0
  0
MTEXT
  5
15C2
330
A
100
AcDbEntity
  8
本体
  6
Continuous
 62
    84
100
AcDbMText
 10
-105.4235509999996
 20
470.8353780755622
 30
0.0
 40
2.2
 41
0.0
 71
     1
 72
     1
  1
\T0.851;\A1;2
 11
-1.0
 21
0.0000000000000002
 31
0.0
 73
     1
 44
1.0
  0
ARC
  5
15C3
330
A
100
AcDbEntity
  8
本体
  6
Continuous
 62
    84
100
AcDbCircle
 10
-15.74355099999976
 20
492.7353780755622
 30
0.0
 40
5.5
100
AcDbArc
 50
210.2726410000002
 51
329.7273589999996
  0
MTEXT
  5
15C5
330
A
100
AcDbEntity
  8
本体
  6
Continuous
 62
    84
100
AcDbMText
 10
-17.01222499999966
 20
482.5603780755622
 30
0.0
 40
2.25
 41
0.0
 71
     8
 72
     1
  1
\T0.750;\W1.241;\A1;AC100-120V\P～50/60Hz
 11
-1.0
 21
0.0000000000000002
 31
0.0
 73
     1
 44
1.0
  0
CIRCLE
  5
15CA
330
A
100
AcDbEntity
  8
本体
  6
Continuous
 62
    84
100
AcDbCircle
 10
-61.24855099999988
 20
477.6353780755624
 30
0.0
 40
6.849999999999997
  0
CIRCLE
  5
15CB
330
A
100
AcDbEntity
  8
本体
  6
Continuous
 62
    84
100
AcDbCircle
 10
-79.24855099999987
 20
477.6353780755624
 30
0.0
 40
6.849999999999997
  0
LINE
  5
15CC
330
A
100
AcDbEntity
  8
本体
  6
Continuous
 62
    84
100
AcDbLine
 10
-88.74855099999985
 20
499.1353780755622
 30
0.0
 11
-88.74855099999985
 21
475.135378075562
 31
0.0
  0
LINE
  5
15CD
330
A
100
AcDbEntity
  8
本体
  6
Continuous
 62
    84
100
AcDbLine
 10
-87.74855099999985
 20
499.1353780755622
 30
0.0
 11
-87.74855099999985
 21
475.135378075562
 31
0.0
  0
LINE
  5
15CE
330
A
100
AcDbEntity
  8
本体
  6
Continuous
 62
    84
100
AcDbLine
 10
-52.24855099999984
 20
499.1353780755622
 30
0.0
 11
-52.24855099999984
 21
475.135378075562
 31
0.0
  0
ARC
  5
15CF
330
A
100
AcDbEntity
  8
本体
  6
Continuous
 62
    84
100
AcDbCircle
 10
-70.54962699999984
 20
486.1353780755623
 30
0.0
 40
6.0
100
AcDbArc
 50
317.5766580000008
 51
42.42334199999914
  0
ARC
  5
15D0
330
A
100
AcDbEntity
  8
本体
  6
Continuous
 62
    84
100
AcDbCircle
 10
-51.94747699999989
 20
486.1353780755623
 30
0.0
 40
6.0
100
AcDbArc
 50
137.5766580000008
 51
222.4233419999988
  0
HATCH
  5
15D1
330
A
100
AcDbEntity
  8
本体
  6
Continuous
 62
    84
100
AcDbHatch
 10
0.0
 20
0.0
 30
0.0
210
0.0
220
0.0
230
1.0
  2
SOLID
 70
     1
 71
     0
 91
        1
 92
        1
 93
        4
 72
     2
 10
-61.24855194739319
 20
494.6353786158616
 40
6.599999999999997
 50
402.4233419999998
 51
497.5766580000001
 73
     0
 72
     2
 10
-70.54962715405594
 20
486.1353786158614
 40
6.0
 50
317.576658
 51
402.4233419999998
 73
     0
 72
     2
 10
-61.24855194739319
 20
477.6353786158614
 40
6.599999999999997
 50
222.423342
 51
317.576658
 73
     0
 72
     2
 10
-51.9474767407302
 20
486.1353786158614
 40
6.0
 50
137.576658
 51
222.423342
 73
     0
 97
        0
 75
     0
 76
     1
 98
        1
 10
-145.7187849999995
 20
292.1197920755623
  0
HATCH
  5
15D2
330
A
100
AcDbEntity
  8
本体
  6
Continuous
 62
    84
100
AcDbHatch
 10
0.0
 20
0.0
 30
0.0
210
0.0
220
0.0
230
1.0
  2
SOLID
 70
     1
 71
     0
 91
        1
 92
        1
 93
        4
 72
     2
 10
-79.24855194739318
 20
494.6353786158616
 40
6.599999999999997
 50
402.4233419999998
 51
497.5766580000001
 73
     0
 72
     2
 10
-88.54962715405594
 20
486.1353786158614
 40
6.0
 50
317.576658
 51
402.4233419999998
 73
     0
 72
     2
 10
-79.24855194739318
 20
477.6353786158614
 40
6.599999999999997
 50
222.423342
 51
317.576658
 73
     0
 72
     2
 10
-69.94747674073022
 20
486.1353786158614
 40
6.0
 50
137.576658
 51
222.423342
 73
     0
 97
        0
 75
     0
 76
     1
 98
        1
 10
-145.7187849999995
 20
292.1197920755623
  0
CIRCLE
  5
15D3
330
A
100
AcDbEntity
  8
本体
  6
Continuous
 62
    84
100
AcDbCircle
 10
-61.24855099999988
 20
477.6353780755624
 30
0.0
 40
6.5
  0
CIRCLE
  5
15D4
330
A
100
AcDbEntity
  8
本体
  6
Continuous
 62
    84
100
AcDbCircle
 10
-79.24855099999987
 20
477.6353780755624
 30
0.0
 40
6.5
  0
CIRCLE
  5
15D5
330
A
100
AcDbEntity
  8
本体
  6
Continuous
 62
    84
100
AcDbCircle
 10
-61.24855099999988
 20
477.6353780755624
 30
0.0
 40
6.75
  0
CIRCLE
  5
15D6
330
A
100
AcDbEntity
  8
本体
  6
Continuous
 62
    84
100
AcDbCircle
 10
-79.24855099999987
 20
477.6353780755624
 30
0.0
 40
6.75
  0
ARC
  5
15D7
330
A
100
AcDbEntity
  8
本体
  6
Continuous
 62
    84
100
AcDbCircle
 10
-58.24855099999989
 20
499.1353780755622
 30
0.0
 40
6.0
100
AcDbArc
 50
0.0
 51
89.99999999999998
  0
CIRCLE
  5
15D8
330
A
100
AcDbEntity
  8
本体
  6
Continuous
 62
    84
100
AcDbCircle
 10
-61.24855099999988
 20
494.6353780755623
 30
0.0
 40
6.849999999999997
  0
CIRCLE
  5
15D9
330
A
100
AcDbEntity
  8
本体
  6
Continuous
 62
    84
100
AcDbCircle
 10
-79.24855099999987
 20
494.6353780755623
 30
0.0
 40
6.849999999999997
  0
ARC
  5
15DA
330
A
100
AcDbEntity
  8
本体
  6
Continuous
 62
    84
100
AcDbCircle
 10
-81.74855099999987
 20
499.1353780755622
 30
0.0
 40
6.0
100
AcDbArc
 50
89.99999999999998
 51
180.0
  0
CIRCLE
  5
15DB
330
A
100
AcDbEntity
  8
本体
  6
Continuous
 62
    84
100
AcDbCircle
 10
-61.24855099999988
 20
494.6353780755623
 30
0.0
 40
6.5
  0
CIRCLE
  5
15DC
330
A
100
AcDbEntity
  8
本体
  6
Continuous
 62
    84
100
AcDbCircle
 10
-79.24855099999987
 20
494.6353780755623
 30
0.0
 40
6.5
  0
CIRCLE
  5
15DD
330
A
100
AcDbEntity
  8
本体
  6
Continuous
 62
    84
100
AcDbCircle
 10
-61.24855099999988
 20
494.6353780755623
 30
0.0
 40
6.75
  0
CIRCLE
  5
15DE
330
A
100
AcDbEntity
  8
本体
  6
Continuous
 62
    84
100
AcDbCircle
 10
-79.24855099999987
 20
494.6353780755623
 30
0.0
 40
6.75
  0
LINE
  5
15DF
330
A
100
AcDbEntity
  8
本体
  6
Continuous
 62
    84
100
AcDbLine
 10
-81.74855099999986
 20
505.1353780755623
 30
0.0
 11
-58.24855099999985
 21
505.1353780755623
 31
0.0
  0
MTEXT
  5
15E0
330
A
100
AcDbEntity
  8
本体
  6
Continuous
 62
    84
100
AcDbMText
 10
-75.97010499999981
 20
502.1353780755624
 30
0.0
 40
2.5
 41
0.0
 71
     1
 72
     1
  1
\T0.930;\W0.938;\A1;OUT
 11
-1.0
 21
0.0000000000000002
 31
0.0
 73
     1
 44
1.0
  0
MTEXT
  5
15E1
330
A
100
AcDbEntity
  8
本体
  6
Continuous
 62
    84
100
AcDbMText
 10
-59.5214829999997
 20
502.1353780755624
 30
0.0
 40
2.5
 41
0.0
 71
     1
 72
     1
  1
\T1.019;\W1.028;\A1;IN
 11
-1.0
 21
0.0000000000000002
 31
0.0
 73
     1
 44
1.0
  0
CIRCLE
  5
15E2
330
A
100
AcDbEntity
  8
本体
  6
Continuous
 62
    84
100
AcDbCircle
 10
-79.24855099999987
 20
494.6353780755623
 30
0.0
 40
4.75
  0
CIRCLE
  5
15E3
330
A
100
AcDbEntity
  8
本体
  6
Continuous
 62
    84
100
AcDbCircle
 10
-79.24855099999987
 20
494.6353780755623
 30
0.0
 40
4.549999999999998
  0
CIRCLE
  5
15E4
330
A
100
AcDbEntity
  8
本体
  6
Continuous
 62
    84
100
AcDbCircle
 10
-79.24855099999987
 20
494.6353780755623
 30
0.0
 40
2.5
  0
LINE
  5
15E5
330
A
100
AcDbEntity
  8
本体
  6
Continuous
 62
    84
100
AcDbLine
 10
-84.7985509999998
 20
495.6253780755623
 30
0.0
 11
-84.7985509999998
 21
493.6453780755623
 31
0.0
  0
LINE
  5
15E6
330
A
100
AcDbEntity
  8
本体
  6
Continuous
 62
    84
100
AcDbLine
 10
-84.7985509999998
 20
493.6453780755623
 30
0.0
 11
-83.89455099999981
 21
493.6453780755623
 31
0.0
  0
LINE
  5
15E7
330
A
100
AcDbEntity
  8
本体
  6
Continuous
 62
    84
100
AcDbLine
 10
-84.7985509999998
 20
495.6253780755623
 30
0.0
 11
-83.89455099999981
 21
495.6253780755623
 31
0.0
  0
LINE
  5
15E8
330
A
100
AcDbEntity
  8
本体
  6
Continuous
 62
    84
100
AcDbLine
 10
-74.60255099999965
 20
495.6243780755624
 30
0.0
 11
-73.69855099999965
 21
495.6243780755624
 31
0.0
  0
LINE
  5
15E9
330
A
100
AcDbEntity
  8
本体
  6
Continuous
 62
    84
100
AcDbLine
 10
-73.69855099999965
 20
495.6243780755624
 30
0.0
 11
-73.69855099999965
 21
493.6453780755623
 31
0.0
  0
LINE
  5
15EA
330
A
100
AcDbEntity
  8
本体
  6
Continuous
 62
    84
100
AcDbLine
 10
-74.60255099999965
 20
493.6453780755623
 30
0.0
 11
-73.69855099999965
 21
493.6453780755623
 31
0.0
  0
CIRCLE
  5
15EB
330
A
100
AcDbEntity
  8
本体
  6
Continuous
 62
    84
100
AcDbCircle
 10
-61.24855099999988
 20
494.6353780755623
 30
0.0
 40
4.549999999999998
  0
CIRCLE
  5
15EC
330
A
100
AcDbEntity
  8
本体
  6
Continuous
 62
    84
100
AcDbCircle
 10
-61.24855099999988
 20
494.6353780755623
 30
0.0
 40
4.75
  0
CIRCLE
  5
15ED
330
A
100
AcDbEntity
  8
本体
  6
Continuous
 62
    84
100
AcDbCircle
 10
-61.24855099999988
 20
494.6353780755623
 30
0.0
 40
2.5
  0
LINE
  5
15EE
330
A
100
AcDbEntity
  8
本体
  6
Continuous
 62
    84
100
AcDbLine
 10
-66.7985509999998
 20
495.6253780755623
 30
0.0
 11
-65.89455099999979
 21
495.6253780755623
 31
0.0
  0
LINE
  5
15EF
330
A
100
AcDbEntity
  8
本体
  6
Continuous
 62
    84
100
AcDbLine
 10
-66.7985509999998
 20
493.6453780755623
 30
0.0
 11
-65.89455099999979
 21
493.6453780755623
 31
0.0
  0
LINE
  5
15F0
330
A
100
AcDbEntity
  8
本体
  6
Continuous
 62
    84
100
AcDbLine
 10
-66.7985509999998
 20
495.6253780755623
 30
0.0
 11
-66.7985509999998
 21
493.6453780755623
 31
0.0
  0
LINE
  5
15F1
330
A
100
AcDbEntity
  8
本体
  6
Continuous
 62
    84
100
AcDbLine
 10
-56.60255099999965
 20
493.6453780755623
 30
0.0
 11
-55.69855099999966
 21
493.6453780755623
 31
0.0
  0
LINE
  5
15F2
330
A
100
AcDbEntity
  8
本体
  6
Continuous
 62
    84
100
AcDbLine
 10
-55.69855099999966
 20
495.6243780755624
 30
0.0
 11
-55.69855099999966
 21
493.6453780755623
 31
0.0
  0
LINE
  5
15F3
330
A
100
AcDbEntity
  8
本体
  6
Continuous
 62
    84
100
AcDbLine
 10
-56.60255099999965
 20
495.6243780755624
 30
0.0
 11
-55.69855099999966
 21
495.6243780755624
 31
0.0
  0
CIRCLE
  5
15F4
330
A
100
AcDbEntity
  8
本体
  6
Continuous
 62
    84
100
AcDbCircle
 10
-68.24855099999989
 20
486.1353780755623
 30
0.0
 40
2.64
  0
ARC
  5
15F5
330
A
100
AcDbEntity
  8
本体
  6
Continuous
 62
    84
100
AcDbCircle
 10
-68.24855099999989
 20
487.5133780755622
 30
0.0
 40
0.6
100
AcDbArc
 50
224.93235
 51
315.0676450000003
  0
LINE
  5
15F6
330
A
100
AcDbEntity
  8
本体
  6
Continuous
 62
    84
100
AcDbLine
 10
-67.4525509999998
 20
487.4613780755622
 30
0.0
 11
-66.92255099999981
 21
486.9313780755622
 31
0.0
  0
LINE
  5
15F7
330
A
100
AcDbEntity
  8
本体
  6
Continuous
 62
    84
100
AcDbLine
 10
-69.04455099999967
 20
487.4613780755622
 30
0.0
 11
-69.57455099999987
 21
486.9313780755622
 31
0.0
  0
LINE
  5
15F8
330
A
100
AcDbEntity
  8
本体
  6
Continuous
 62
    84
100
AcDbLine
 10
-67.4525509999998
 20
487.4613780755622
 30
0.0
 11
-67.82455099999987
 21
487.0903780755623
 31
0.0
  0
LINE
  5
15F9
330
A
100
AcDbEntity
  8
本体
  6
Continuous
 62
    84
100
AcDbLine
 10
-69.04455099999967
 20
487.4613780755622
 30
0.0
 11
-68.67255099999983
 21
487.0903780755623
 31
0.0
  0
ARC
  5
15FA
330
A
100
AcDbEntity
  8
本体
  6
Continuous
 62
    84
100
AcDbCircle
 10
-69.62655099999981
 20
486.1353780755623
 30
0.0
 40
0.6
100
AcDbArc
 50
314.9323539999996
 51
45.06763999999987
  0
ARC
  5
15FB
330
A
100
AcDbEntity
  8
本体
  6
Continuous
 62
    84
100
AcDbCircle
 10
-68.24855099999989
 20
484.7573780755623
 30
0.0
 40
0.6
100
AcDbArc
 50
44.93235000000006
 51
135.0676399999997
  0
ARC
  5
15FC
330
A
100
AcDbEntity
  8
本体
  6
Continuous
 62
    84
100
AcDbCircle
 10
-66.87055099999972
 20
486.1353780755623
 30
0.0
 40
0.6
100
AcDbArc
 50
134.9323500000012
 51
225.0676399999998
  0
CIRCLE
  5
15FD
330
A
100
AcDbEntity
  8
本体
  6
Continuous
 62
    84
100
AcDbCircle
 10
-66.86955099999974
 20
486.1343780755624
 30
0.0
 40
0.3
  0
LINE
  5
15FE
330
A
100
AcDbEntity
  8
本体
  6
Continuous
 62
    84
100
AcDbLine
 10
-69.20355099999977
 20
485.7113780755621
 30
0.0
 11
-69.57455099999987
 21
485.3393780755623
 31
0.0
  0
LINE
  5
15FF
330
A
100
AcDbEntity
  8
本体
  6
Continuous
 62
    84
100
AcDbLine
 10
-69.57455099999987
 20
486.9313780755622
 30
0.0
 11
-69.20355099999977
 21
486.5593780755623
 31
0.0
  0
LINE
  5
1600
330
A
100
AcDbEntity
  8
本体
  6
Continuous
 62
    84
100
AcDbLine
 10
-67.82455099999987
 20
485.1803780755624
 30
0.0
 11
-67.4525509999998
 21
484.8093780755623
 31
0.0
  0
LINE
  5
1601
330
A
100
AcDbEntity
  8
本体
  6
Continuous
 62
    84
100
AcDbLine
 10
-68.67255099999983
 20
485.1803780755624
 30
0.0
 11
-69.04455099999967
 21
484.8093780755623
 31
0.0
  0
LINE
  5
1602
330
A
100
AcDbEntity
  8
本体
  6
Continuous
 62
    84
100
AcDbLine
 10
-66.92255099999981
 20
486.9313780755622
 30
0.0
 11
-67.2935509999997
 21
486.5593780755623
 31
0.0
  0
LINE
  5
1603
330
A
100
AcDbEntity
  8
本体
  6
Continuous
 62
    84
100
AcDbLine
 10
-67.2935509999997
 20
485.7113780755621
 30
0.0
 11
-66.92255099999981
 21
485.3393780755623
 31
0.0
  0
LINE
  5
1604
330
A
100
AcDbEntity
  8
本体
  6
Continuous
 62
    84
100
AcDbLine
 10
-69.57455099999987
 20
485.3393780755623
 30
0.0
 11
-69.04455099999967
 21
484.8093780755623
 31
0.0
  0
LINE
  5
1605
330
A
100
AcDbEntity
  8
本体
  6
Continuous
 62
    84
100
AcDbLine
 10
-66.92255099999981
 20
485.3393780755623
 30
0.0
 11
-67.4525509999998
 21
484.8093780755623
 31
0.0
  0
LINE
  5
1606
330
A
100
AcDbEntity
  8
本体
  6
Continuous
 62
    84
100
AcDbLine
 10
-38.99855099999985
 20
493.0353780755623
 30
0.0
 11
-38.99855099999985
 21
501.0353780755623
 31
0.0
  0
LINE
  5
1607
330
A
100
AcDbEntity
  8
本体
  6
Continuous
 62
    84
100
AcDbLine
 10
-47.49855099999985
 20
493.0353780755623
 30
0.0
 11
-47.49855099999985
 21
501.0353780755623
 31
0.0
  0
LINE
  5
1608
330
A
100
AcDbEntity
  8
本体
  6
Continuous
 62
    84
100
AcDbLine
 10
-46.77855099999979
 20
501.0353780755623
 30
0.0
 11
-46.77855099999979
 21
494.3853780755623
 31
0.0
  0
LINE
  5
1609
330
A
100
AcDbEntity
  8
本体
  6
Continuous
 62
    84
100
AcDbLine
 10
-39.71855099999965
 20
501.0353780755623
 30
0.0
 11
-39.71855099999965
 21
494.3853780755623
 31
0.0
  0
LINE
  5
160A
330
A
100
AcDbEntity
  8
本体
  6
Continuous
 62
    84
100
AcDbLine
 10
-47.24855099999984
 20
493.2853780755622
 30
0.0
 11
-47.24855099999984
 21
500.7853780755622
 31
0.0
  0
LINE
  5
160B
330
A
100
AcDbEntity
  8
本体
  6
Continuous
 62
    84
100
AcDbLine
 10
-39.24855099999985
 20
493.2853780755622
 30
0.0
 11
-39.24855099999985
 21
500.7853780755622
 31
0.0
  0
MTEXT
  5
160D
330
A
100
AcDbEntity
  8
本体
  6
Continuous
 62
    84
100
AcDbMText
 10
-13.24855099999985
 20
504.4353780755622
 30
0.0
 40
2.0
 41
0.0
 71
     1
 72
     1
  1
\T0.974;\W1.145;\A1;     IN JAPAN
 11
-1.0
 21
0.0000000000000002
 31
0.0
 73
     1
 44
1.0
  0
LINE
  5
1611
330
A
100
AcDbEntity
  8
本体
  6
Continuous
 62
    84
100
AcDbLine
 10
-38.99855099999985
 20
501.0353780755623
 30
0.0
 11
-47.49855099999985
 21
501.0353780755623
 31
0.0
  0
MTEXT
  5
1612
330
A
100
AcDbEntity
  8
本体
  6
Continuous
 62
    84
100
AcDbMText
 10
-38.11855099999974
 20
501.6353780755623
 30
0.0
 40
1.8
 41
0.0
 71
     1
 72
     1
  1
\T0.776;\W0.852;\A1;IN-2
 11
-1.0
 21
0.0000000000000002
 31
0.0
 73
     1
 44
1.0
  0
LINE
  5
1613
330
A
100
AcDbEntity
  8
本体
  6
Continuous
 62
    84
100
AcDbLine
 10
-39.24855099999985
 20
500.7853780755622
 30
0.0
 11
-47.24855099999984
 21
500.7853780755622
 31
0.0
  0
MTEXT
  5
1614
330
A
100
AcDbEntity
  8
本体
  6
Continuous
 62
    84
100
AcDbMText
 10
-44.11855099999974
 20
501.6353780755623
 30
0.0
 40
1.8
 41
0.0
 71
     1
 72
     1
  1
\T0.776;\W0.852;\A1;IN-4
 11
-1.0
 21
0.0000000000000002
 31
0.0
 73
     1
 44
1.0
  0
MTEXT
  5
1615
330
A
100
AcDbEntity
  8
本体
  6
Continuous
 62
    84
100
AcDbMText
 10
-38.11855099999974
 20
490.6353780755623
 30
0.0
 40
1.8
 41
0.0
 71
     1
 72
     1
  1
\T0.814;\W0.894;\A1;IN-1
 11
-1.0
 21
0.0000000000000002
 31
0.0
 73
     1
 44
1.0
  0
MTEXT
  5
1616
330
A
100
AcDbEntity
  8
本体
  6
Continuous
 62
    84
100
AcDbMText
 10
-44.11855099999974
 20
490.6353780755623
 30
0.0
 40
1.8
 41
0.0
 71
     1
 72
     1
  1
\T0.776;\W0.852;\A1;IN-3
 11
-1.0
 21
0.0000000000000002
 31
0.0
 73
     1
 44
1.0
  0
LINE
  5
1617
330
A
100
AcDbEntity
  8
本体
  6
Continuous
 62
    84
100
AcDbLine
 10
-38.99855099999985
 20
493.0353780755623
 30
0.0
 11
-47.49855099999985
 21
493.0353780755623
 31
0.0
  0
LINE
  5
1618
330
A
100
AcDbEntity
  8
本体
  6
Continuous
 62
    84
100
AcDbLine
 10
-39.71855099999965
 20
500.135378075562
 30
0.0
 11
-46.77855099999979
 21
500.135378075562
 31
0.0
  0
LINE
  5
1619
330
A
100
AcDbEntity
  8
本体
  6
Continuous
 62
    84
100
AcDbLine
 10
-39.71855099999965
 20
494.3853780755623
 30
0.0
 11
-46.77855099999979
 21
494.3853780755623
 31
0.0
  0
LINE
  5
161A
330
A
100
AcDbEntity
  8
本体
  6
Continuous
 62
    84
100
AcDbLine
 10
-39.24855099999985
 20
493.2853780755622
 30
0.0
 11
-47.24855099999984
 21
493.2853780755622
 31
0.0
  0
LINE
  5
161B
330
A
100
AcDbEntity
  8
本体
  6
Continuous
 62
    84
100
AcDbLine
 10
-39.24855099999985
 20
493.2853780755622
 30
0.0
 11
-47.24855099999984
 21
493.2853780755622
 31
0.0
  0
LINE
  5
161C
330
A
100
AcDbEntity
  8
本体
  6
Continuous
 62
    84
100
AcDbLine
 10
-43.71855099999963
 20
495.0853780755623
 30
0.0
 11
-43.71855099999963
 21
498.6353780755623
 31
0.0
  0
LINE
  5
161D
330
A
100
AcDbEntity
  8
本体
  6
Continuous
 62
    84
100
AcDbLine
 10
-45.31855099999979
 20
495.0853780755623
 30
0.0
 11
-45.31855099999979
 21
498.6353780755623
 31
0.0
  0
LINE
  5
161E
330
A
100
AcDbEntity
  8
本体
  6
Continuous
 62
    84
100
AcDbLine
 10
-41.17855099999967
 20
495.0853780755623
 30
0.0
 11
-41.17855099999967
 21
498.6353780755623
 31
0.0
  0
LINE
  5
161F
330
A
100
AcDbEntity
  8
本体
  6
Continuous
 62
    84
100
AcDbLine
 10
-42.77855099999981
 20
495.0853780755623
 30
0.0
 11
-42.77855099999981
 21
498.6353780755623
 31
0.0
  0
LINE
  5
1620
330
A
100
AcDbEntity
  8
本体
  6
Continuous
 62
    84
100
AcDbLine
 10
-43.71855099999963
 20
496.0853780755622
 30
0.0
 11
-45.31855099999979
 21
496.0853780755622
 31
0.0
  0
LINE
  5
1621
330
A
100
AcDbEntity
  8
本体
  6
Continuous
 62
    84
100
AcDbLine
 10
-43.71855099999963
 20
498.6353780755623
 30
0.0
 11
-45.31855099999979
 21
498.6353780755623
 31
0.0
  0
LINE
  5
1622
330
A
100
AcDbEntity
  8
本体
  6
Continuous
 62
    84
100
AcDbLine
 10
-41.17855099999967
 20
496.0853780755622
 30
0.0
 11
-42.77855099999981
 21
496.0853780755622
 31
0.0
  0
LINE
  5
1623
330
A
100
AcDbEntity
  8
本体
  6
Continuous
 62
    84
100
AcDbLine
 10
-41.17855099999967
 20
498.6353780755623
 30
0.0
 11
-42.77855099999981
 21
498.6353780755623
 31
0.0
  0
LINE
  5
1624
330
A
100
AcDbEntity
  8
本体
  6
Continuous
 62
    84
100
AcDbLine
 10
-43.71855099999963
 20
495.0853780755623
 30
0.0
 11
-45.31855099999979
 21
495.0853780755623
 31
0.0
  0
LINE
  5
1625
330
A
100
AcDbEntity
  8
本体
  6
Continuous
 62
    84
100
AcDbLine
 10
-41.17855099999967
 20
495.0853780755623
 30
0.0
 11
-42.77855099999981
 21
495.0853780755623
 31
0.0
  0
MTEXT
  5
1626
330
A
100
AcDbEntity
  8
本体
  6
Continuous
 62
    84
100
AcDbMText
 10
-43.24855099999985
 20
485.8853780755621
 30
0.0
 40
2.0
 41
0.0
 71
     5
 72
     1
  1
\T0.786;\W0.868;\A1;SELECT
 11
-1.0
 21
0.0000000000000002
 31
0.0
 73
     1
 44
1.0
  0
MTEXT
  5
1627
330
A
100
AcDbEntity
  8
本体
  6
Continuous
 62
    84
100
AcDbMText
 10
-43.24855099999985
 20
483.5853780755622
 30
0.0
 40
2.0
 41
0.0
 71
     5
 72
     1
  1
\T0.786;\W0.868;\A1;OUTPUT
 11
-1.0
 21
0.0000000000000002
 31
0.0
 73
     1
 44
1.0
  0
LINE
  5
1628
330
A
100
AcDbEntity
  8
本体
  6
Continuous
 62
    84
100
AcDbLine
 10
-38.99855099999985
 20
487.5353780755623
 30
0.0
 11
-41.49855099999984
 21
487.5353780755623
 31
0.0
  0
LINE
  5
1629
330
A
100
AcDbEntity
  8
本体
  6
Continuous
 62
    84
100
AcDbLine
 10
-38.99855099999985
 20
490.0353780755621
 30
0.0
 11
-41.49855099999984
 21
490.0353780755621
 31
0.0
  0
LINE
  5
162A
330
A
100
AcDbEntity
  8
本体
  6
Continuous
 62
    84
100
AcDbLine
 10
-44.99855099999985
 20
490.0353780755621
 30
0.0
 11
-47.49855099999985
 21
490.0353780755621
 31
0.0
  0
LINE
  5
162B
330
A
100
AcDbEntity
  8
本体
  6
Continuous
 62
    84
100
AcDbLine
 10
-44.49855099999985
 20
488.0353780755623
 30
0.0
 11
-44.49855099999985
 21
489.5353780755621
 31
0.0
  0
ARC
  5
162C
330
A
100
AcDbEntity
  8
本体
  6
Continuous
 62
    84
100
AcDbCircle
 10
-44.99855099999988
 20
489.5353780755621
 30
0.0
 40
0.5
100
AcDbArc
 50
0.0
 51
89.99999999999998
  0
LINE
  5
162D
330
A
100
AcDbEntity
  8
本体
  6
Continuous
 62
    84
100
AcDbLine
 10
-47.99855099999985
 20
488.0353780755623
 30
0.0
 11
-47.99855099999985
 21
489.5353780755621
 31
0.0
  0
LINE
  5
162E
330
A
100
AcDbEntity
  8
本体
  6
Continuous
 62
    84
100
AcDbLine
 10
-44.99855099999985
 20
487.5353780755623
 30
0.0
 11
-47.49855099999985
 21
487.5353780755623
 31
0.0
  0
ARC
  5
162F
330
A
100
AcDbEntity
  8
本体
  6
Continuous
 62
    84
100
AcDbCircle
 10
-47.49855099999988
 20
488.0353780755623
 30
0.0
 40
0.5
100
AcDbArc
 50
180.0
 51
270.0
  0
ARC
  5
1630
330
A
100
AcDbEntity
  8
本体
  6
Continuous
 62
    84
100
AcDbCircle
 10
-47.49855099999988
 20
489.5353780755621
 30
0.0
 40
0.5
100
AcDbArc
 50
89.99999999999998
 51
180.0
  0
ARC
  5
1631
330
A
100
AcDbEntity
  8
本体
  6
Continuous
 62
    84
100
AcDbCircle
 10
-44.99855099999988
 20
488.0353780755623
 30
0.0
 40
0.5
100
AcDbArc
 50
270.0
 51
0.0
  0
ARC
  5
1632
330
A
100
AcDbEntity
  8
本体
  6
Continuous
 62
    84
100
AcDbCircle
 10
-41.49855099999988
 20
489.5353780755621
 30
0.0
 40
0.5
100
AcDbArc
 50
89.99999999999998
 51
180.0
  0
ARC
  5
1633
330
A
100
AcDbEntity
  8
本体
  6
Continuous
 62
    84
100
AcDbCircle
 10
-41.49855099999988
 20
488.0353780755623
 30
0.0
 40
0.5
100
AcDbArc
 50
180.0
 51
270.0
  0
LINE
  5
1634
330
A
100
AcDbEntity
  8
本体
  6
Continuous
 62
    84
100
AcDbLine
 10
-41.99855099999985
 20
488.0353780755623
 30
0.0
 11
-41.99855099999985
 21
489.5353780755621
 31
0.0
  0
MTEXT
  5
1635
330
A
100
AcDbEntity
  8
本体
  6
Continuous
 62
    84
100
AcDbMText
 10
-45.64855099999971
 20
487.9853780755625
 30
0.0
 40
1.6
 41
0.0
 71
     1
 72
     1
  1
\T0.851;\A1;4
 11
-1.0
 21
0.0000000000000002
 31
0.0
 73
     1
 44
1.0
  0
ARC
  5
1636
330
A
100
AcDbEntity
  8
本体
  6
Continuous
 62
    84
100
AcDbCircle
 10
-38.99855099999986
 20
488.0353780755623
 30
0.0
 40
0.5
100
AcDbArc
 50
270.0
 51
0.0
  0
ARC
  5
1637
330
A
100
AcDbEntity
  8
本体
  6
Continuous
 62
    84
100
AcDbCircle
 10
-38.99855099999986
 20
489.5353780755621
 30
0.0
 40
0.5
100
AcDbArc
 50
0.0
 51
89.99999999999998
  0
LINE
  5
1638
330
A
100
AcDbEntity
  8
本体
  6
Continuous
 62
    84
100
AcDbLine
 10
-38.49855099999984
 20
488.0353780755623
 30
0.0
 11
-38.49855099999984
 21
489.5353780755621
 31
0.0
  0
MTEXT
  5
1639
330
A
100
AcDbEntity
  8
本体
  6
Continuous
 62
    84
100
AcDbMText
 10
-39.6485509999997
 20
487.9853780755625
 30
0.0
 40
1.6
 41
0.0
 71
     1
 72
     1
  1
\T0.851;\A1;2
 11
-1.0
 21
0.0000000000000002
 31
0.0
 73
     1
 44
1.0
  0
LINE
  5
163C
330
A
100
AcDbEntity
  8
本体
  6
Continuous
 62
    84
100
AcDbLine
 10
-20.49355099999973
 20
489.9627440755621
 30
0.0
 11
-20.49355099999973
 21
495.5080120755622
 31
0.0
  0
ARC
  5
163E
330
A
100
AcDbEntity
  8
本体
  6
Continuous
 62
    84
100
AcDbCircle
 10
-58.24855099999989
 20
475.135378075562
 30
0.0
 40
6.0
100
AcDbArc
 50
270.0
 51
0.0
  0
LINE
  5
163F
330
A
100
AcDbEntity
  8
本体
  6
Continuous
 62
    84
100
AcDbLine
 10
-81.74855099999986
 20
469.1353780755624
 30
0.0
 11
-58.24855099999985
 21
469.1353780755624
 31
0.0
  0
LINE
  5
1640
330
A
100
AcDbEntity
  8
本体
  6
Continuous
 62
    84
100
AcDbLine
 10
-68.24855099999985
 20
473.6853780755621
 30
0.0
 11
-72.24855099999984
 21
473.6853780755621
 31
0.0
  0
LINE
  5
1641
330
A
100
AcDbEntity
  8
本体
  6
Continuous
 62
    84
100
AcDbLine
 10
-68.24855099999985
 20
470.1853780755623
 30
0.0
 11
-72.24855099999984
 21
470.1853780755623
 31
0.0
  0
ARC
  5
1642
330
A
100
AcDbEntity
  8
本体
  6
Continuous
 62
    84
100
AcDbCircle
 10
-81.74855099999987
 20
475.135378075562
 30
0.0
 40
6.0
100
AcDbArc
 50
180.0
 51
270.0
  0
ARC
  5
1643
330
A
100
AcDbEntity
  8
本体
  6
Continuous
 62
    84
100
AcDbCircle
 10
-72.24855099999988
 20
473.1853780755622
 30
0.0
 40
0.5
100
AcDbArc
 50
89.99999999999998
 51
180.0
  0
CIRCLE
  5
1644
330
A
100
AcDbEntity
  8
本体
  6
Continuous
 62
    84
100
AcDbCircle
 10
-79.24855099999987
 20
477.6353780755624
 30
0.0
 40
4.549999999999998
  0
CIRCLE
  5
1645
330
A
100
AcDbEntity
  8
本体
  6
Continuous
 62
    84
100
AcDbCircle
 10
-79.24855099999987
 20
477.6353780755624
 30
0.0
 40
4.75
  0
CIRCLE
  5
1646
330
A
100
AcDbEntity
  8
本体
  6
Continuous
 62
    84
100
AcDbCircle
 10
-79.24855099999987
 20
477.6353780755624
 30
0.0
 40
2.5
  0
LINE
  5
1647
330
A
100
AcDbEntity
  8
本体
  6
Continuous
 62
    84
100
AcDbLine
 10
-84.7985509999998
 20
478.6253780755624
 30
0.0
 11
-84.7985509999998
 21
476.6453780755623
 31
0.0
  0
LINE
  5
1648
330
A
100
AcDbEntity
  8
本体
  6
Continuous
 62
    84
100
AcDbLine
 10
-84.7985509999998
 20
478.6253780755624
 30
0.0
 11
-83.89455099999981
 21
478.6253780755624
 31
0.0
  0
LINE
  5
1649
330
A
100
AcDbEntity
  8
本体
  6
Continuous
 62
    84
100
AcDbLine
 10
-84.7985509999998
 20
476.6453780755623
 30
0.0
 11
-83.89455099999981
 21
476.6453780755623
 31
0.0
  0
LINE
  5
164A
330
A
100
AcDbEntity
  8
本体
  6
Continuous
 62
    84
100
AcDbLine
 10
-73.69855099999965
 20
478.6243780755624
 30
0.0
 11
-73.69855099999965
 21
476.6453780755623
 31
0.0
  0
LINE
  5
164B
330
A
100
AcDbEntity
  8
本体
  6
Continuous
 62
    84
100
AcDbLine
 10
-74.60255099999965
 20
478.6243780755624
 30
0.0
 11
-73.69855099999965
 21
478.6243780755624
 31
0.0
  0
LINE
  5
164C
330
A
100
AcDbEntity
  8
本体
  6
Continuous
 62
    84
100
AcDbLine
 10
-74.60255099999965
 20
476.6453780755623
 30
0.0
 11
-73.69855099999965
 21
476.6453780755623
 31
0.0
  0
LINE
  5
164D
330
A
100
AcDbEntity
  8
本体
  6
Continuous
 62
    84
100
AcDbLine
 10
-72.74855099999985
 20
470.6853780755623
 30
0.0
 11
-72.74855099999985
 21
473.1853780755622
 31
0.0
  0
ARC
  5
164E
330
A
100
AcDbEntity
  8
本体
  6
Continuous
 62
    84
100
AcDbCircle
 10
-72.24855099999988
 20
470.6853780755623
 30
0.0
 40
0.5
100
AcDbArc
 50
180.0
 51
270.0
  0
ARC
  5
164F
330
A
100
AcDbEntity
  8
本体
  6
Continuous
 62
    84
100
AcDbCircle
 10
-68.24855099999989
 20
473.1853780755622
 30
0.0
 40
0.5
100
AcDbArc
 50
0.0
 51
89.99999999999998
  0
CIRCLE
  5
1650
330
A
100
AcDbEntity
  8
本体
  6
Continuous
 62
    84
100
AcDbCircle
 10
-61.24855099999988
 20
477.6353780755624
 30
0.0
 40
4.75
  0
CIRCLE
  5
1651
330
A
100
AcDbEntity
  8
本体
  6
Continuous
 62
    84
100
AcDbCircle
 10
-61.24855099999988
 20
477.6353780755624
 30
0.0
 40
4.549999999999998
  0
CIRCLE
  5
1652
330
A
100
AcDbEntity
  8
本体
  6
Continuous
 62
    84
100
AcDbCircle
 10
-61.24855099999988
 20
477.6353780755624
 30
0.0
 40
2.5
  0
LINE
  5
1653
330
A
100
AcDbEntity
  8
本体
  6
Continuous
 62
    84
100
AcDbLine
 10
-66.7985509999998
 20
478.6253780755624
 30
0.0
 11
-66.7985509999998
 21
476.6453780755623
 31
0.0
  0
LINE
  5
1654
330
A
100
AcDbEntity
  8
本体
  6
Continuous
 62
    84
100
AcDbLine
 10
-66.7985509999998
 20
478.6253780755624
 30
0.0
 11
-65.89455099999979
 21
478.6253780755624
 31
0.0
  0
LINE
  5
1655
330
A
100
AcDbEntity
  8
本体
  6
Continuous
 62
    84
100
AcDbLine
 10
-66.7985509999998
 20
476.6453780755623
 30
0.0
 11
-65.89455099999979
 21
476.6453780755623
 31
0.0
  0
LINE
  5
1656
330
A
100
AcDbEntity
  8
本体
  6
Continuous
 62
    84
100
AcDbLine
 10
-55.69855099999966
 20
478.6243780755624
 30
0.0
 11
-55.69855099999966
 21
476.6453780755623
 31
0.0
  0
LINE
  5
1657
330
A
100
AcDbEntity
  8
本体
  6
Continuous
 62
    84
100
AcDbLine
 10
-56.60255099999965
 20
478.6243780755624
 30
0.0
 11
-55.69855099999966
 21
478.6243780755624
 31
0.0
  0
LINE
  5
1658
330
A
100
AcDbEntity
  8
本体
  6
Continuous
 62
    84
100
AcDbLine
 10
-56.60255099999965
 20
476.6453780755623
 30
0.0
 11
-55.69855099999966
 21
476.6453780755623
 31
0.0
  0
LINE
  5
1659
330
A
100
AcDbEntity
  8
本体
  6
Continuous
 62
    84
100
AcDbLine
 10
-67.74855099999985
 20
470.6853780755623
 30
0.0
 11
-67.74855099999985
 21
473.1853780755622
 31
0.0
  0
ARC
  5
165A
330
A
100
AcDbEntity
  8
本体
  6
Continuous
 62
    84
100
AcDbCircle
 10
-68.24855099999989
 20
470.6853780755623
 30
0.0
 40
0.5
100
AcDbArc
 50
270.0
 51
0.0
  0
MTEXT
  5
165B
330
A
100
AcDbEntity
  8
本体
  6
Continuous
 62
    84
100
AcDbMText
 10
-69.75355099999972
 20
470.8353780755622
 30
0.0
 40
2.2
 41
0.0
 71
     1
 72
     1
  1
\T1.043;\W1.226;\A1;1
 11
-1.0
 21
0.0000000000000002
 31
0.0
 73
     1
 44
1.0
  0
MTEXT
  5
165C
330
A
100
AcDbEntity
  8
本体
  6
Continuous
 62
    84
100
AcDbMText
 10
-18.06105099999983
 20
469.9853780755621
 30
0.0
 40
2.5
 41
0.0
 71
     1
 72
     1
  1
\T0.887;\W0.834;\A1;SIGNAL GND
 11
-1.0
 21
0.0000000000000002
 31
0.0
 73
     1
 44
1.0
  0
LINE
  5
165D
330
A
100
AcDbEntity
  8
本体
  6
Continuous
 62
    84
100
AcDbLine
 10
-43.81055099999975
 20
472.9673780755622
 30
0.0
 11
-44.51655099999988
 21
473.6753780755623
 31
0.0
  0
ARC
  5
165E
330
A
100
AcDbEntity
  8
本体
  6
Continuous
 62
    84
100
AcDbCircle
 10
-42.74855099999988
 20
472.8973780755621
 30
0.0
 40
0.8
100
AcDbArc
 50
44.99999999999999
 51
135.0
  0
LINE
  5
165F
330
A
100
AcDbEntity
  8
本体
  6
Continuous
 62
    84
100
AcDbLine
 10
-40.98055099999982
 20
473.6753780755623
 30
0.0
 11
-41.68855099999968
 21
472.9673780755622
 31
0.0
  0
CIRCLE
  5
1660
330
A
100
AcDbEntity
  8
本体
  6
Continuous
 62
    84
100
AcDbCircle
 10
-42.74855099999988
 20
474.7353780755624
 30
0.0
 40
4.0
  0
CIRCLE
  5
1661
330
A
100
AcDbEntity
  8
本体
  6
Continuous
 62
    84
100
AcDbCircle
 10
-42.74855099999988
 20
474.7353780755624
 30
0.0
 40
3.6
  0
CIRCLE
  5
1662
330
A
100
AcDbEntity
  8
本体
  6
Continuous
 62
    84
100
AcDbCircle
 10
-42.74855099999988
 20
474.7353780755624
 30
0.0
 40
4.5
  0
LINE
  5
1663
330
A
100
AcDbEntity
  8
本体
  6
Continuous
 62
    84
100
AcDbLine
 10
-40.98055099999982
 20
475.7973780755622
 30
0.0
 11
-41.68855099999968
 21
476.5033780755625
 31
0.0
  0
LINE
  5
1664
330
A
100
AcDbEntity
  8
本体
  6
Continuous
 62
    84
100
AcDbLine
 10
-40.98055099999982
 20
475.7973780755622
 30
0.0
 11
-41.47655099999968
 21
475.3013780755622
 31
0.0
  0
LINE
  5
1665
330
A
100
AcDbEntity
  8
本体
  6
Continuous
 62
    84
100
AcDbLine
 10
-40.98055099999982
 20
473.6753780755623
 30
0.0
 11
-41.47655099999968
 21
474.1693780755623
 31
0.0
  0
CIRCLE
  5
1666
330
A
100
AcDbEntity
  8
本体
  6
Continuous
 62
    84
100
AcDbCircle
 10
-40.91055099999969
 20
474.7373780755624
 30
0.0
 40
0.4
  0
LINE
  5
1667
330
A
100
AcDbEntity
  8
本体
  6
Continuous
 62
    84
100
AcDbLine
 10
-43.81055099999975
 20
476.5033780755625
 30
0.0
 11
-44.51655099999988
 21
475.7973780755622
 31
0.0
  0
LINE
  5
1668
330
A
100
AcDbEntity
  8
本体
  6
Continuous
 62
    84
100
AcDbLine
 10
-43.31455099999963
 20
476.0093780755624
 30
0.0
 11
-43.81055099999975
 21
476.5033780755625
 31
0.0
  0
LINE
  5
1669
330
A
100
AcDbEntity
  8
本体
  6
Continuous
 62
    84
100
AcDbLine
 10
-44.02255099999972
 20
475.3013780755622
 30
0.0
 11
-44.51655099999988
 21
475.7973780755622
 31
0.0
  0
LINE
  5
166A
330
A
100
AcDbEntity
  8
本体
  6
Continuous
 62
    84
100
AcDbLine
 10
-41.68855099999968
 20
476.5033780755625
 30
0.0
 11
-42.18255099999981
 21
476.0093780755624
 31
0.0
  0
ARC
  5
166B
330
A
100
AcDbEntity
  8
本体
  6
Continuous
 62
    84
100
AcDbCircle
 10
-42.74855099999988
 20
476.5733780755622
 30
0.0
 40
0.8
100
AcDbArc
 50
224.8985910000004
 51
315.1014000000007
  0
LINE
  5
166C
330
A
100
AcDbEntity
  8
本体
  6
Continuous
 62
    84
100
AcDbLine
 10
-44.02255099999972
 20
474.1693780755623
 30
0.0
 11
-44.51655099999988
 21
473.6753780755623
 31
0.0
  0
ARC
  5
166D
330
A
100
AcDbEntity
  8
本体
  6
Continuous
 62
    84
100
AcDbCircle
 10
-44.58655099999985
 20
474.7353780755624
 30
0.0
 40
0.8
100
AcDbArc
 50
314.8985899999996
 51
45.10140000000077
  0
ARC
  5
166E
330
A
100
AcDbEntity
  8
本体
  6
Continuous
 62
    84
100
AcDbCircle
 10
-40.91055099999969
 20
474.7353780755624
 30
0.0
 40
0.8
100
AcDbArc
 50
135.0
 51
225.0
  0
LINE
  5
166F
330
A
100
AcDbEntity
  8
本体
  6
Continuous
 62
    84
100
AcDbLine
 10
-35.07855099999977
 20
480.2353780755622
 30
0.0
 11
-35.74855099999985
 21
477.7353780755625
 31
0.0
  0
LINE
  5
1670
330
A
100
AcDbEntity
  8
本体
  6
Continuous
 62
    84
100
AcDbLine
 10
-37.07855099999977
 20
480.2353780755622
 30
0.0
 11
-37.74855099999985
 21
477.7353780755625
 31
0.0
  0
LINE
  5
1671
330
A
100
AcDbEntity
  8
本体
  6
Continuous
 62
    84
100
AcDbLine
 10
-33.07855099999978
 20
480.2353780755622
 30
0.0
 11
-33.74855099999985
 21
477.7353780755625
 31
0.0
  0
LINE
  5
1672
330
A
100
AcDbEntity
  8
本体
  6
Continuous
 62
    84
100
AcDbLine
 10
-37.74855099999985
 20
477.7353780755625
 30
0.0
 11
-33.74855099999985
 21
477.7353780755625
 31
0.0
  0
LINE
  5
1673
330
A
100
AcDbEntity
  8
本体
  6
Continuous
 62
    84
100
AcDbLine
 10
-38.24855099999984
 20
474.7353780755624
 30
0.0
 11
-35.74855099999985
 21
474.7353780755624
 31
0.0
  0
LINE
  5
1674
330
A
100
AcDbEntity
  8
本体
  6
Continuous
 62
    84
100
AcDbLine
 10
-35.74855099999985
 20
477.7353780755625
 30
0.0
 11
-35.74855099999985
 21
474.7353780755624
 31
0.0
  0
LINE
  5
1675
330
A
100
AcDbEntity
  8
本体
  6
Continuous
 62
    84
100
AcDbLine
 10
-43.31455099999963
 20
473.4633780755622
 30
0.0
 11
-43.81055099999975
 21
472.9673780755622
 31
0.0
  0
LINE
  5
1676
330
A
100
AcDbEntity
  8
本体
  6
Continuous
 62
    84
100
AcDbLine
 10
-41.68855099999968
 20
472.9673780755622
 30
0.0
 11
-42.18255099999981
 21
473.4633780755622
 31
0.0
  0
LINE
  5
1677
330
A
100
AcDbEntity
  8
本体
  6
Continuous
 62
    84
100
AcDbLine
 10
-0.2485509999998499
 20
470.4353780755623
 30
0.0
 11
-0.2485509999998499
 21
505.4353780755623
 31
0.0
  0
LINE
  5
1678
330
A
100
AcDbEntity
  8
本体
  6
Continuous
 62
    84
100
AcDbLine
 10
2.251449000000147
 20
466.9353780755622
 30
0.0
 11
2.251449000000147
 21
509.9353780755623
 31
0.0
  0
LINE
  5
1679
330
A
100
AcDbEntity
  8
本体
  6
Continuous
 62
    84
100
AcDbLine
 10
1.051449000000332
 20
467.1353780755621
 30
0.0
 11
1.051449000000332
 21
509.9353780755623
 31
0.0
  0
LINE
  5
167A
330
A
100
AcDbEntity
  8
本体
  6
Continuous
 62
    84
100
AcDbLine
 10
1.051449000000332
 20
468.1353780755623
 30
0.0
 11
1.051449000000332
 21
507.7353780755625
 31
0.0
  0
ARC
  5
167B
330
A
100
AcDbEntity
  8
本体
  6
Continuous
 62
    84
100
AcDbCircle
 10
-2.248550999999876
 20
505.4353780755623
 30
0.0
 40
2.0
100
AcDbArc
 50
0.0
 51
89.99999999999998
  0
ARC
  5
167C
330
A
100
AcDbEntity
  8
本体
  6
Continuous
 62
    84
100
AcDbCircle
 10
0.0514490000003036
 20
507.7353780755625
 30
0.0
 40
1.0
100
AcDbArc
 50
0.0
 51
89.99999999999998
  0
LINE
  5
167D
330
A
100
AcDbEntity
  8
本体
  6
Continuous
 62
    84
100
AcDbLine
 10
-10.99355099999974
 20
489.9627440755621
 30
0.0
 11
-10.99355099999974
 21
495.5080120755622
 31
0.0
  0
ARC
  5
1681
330
A
100
AcDbEntity
  8
本体
  6
Continuous
 62
    84
100
AcDbCircle
 10
-2.248550999999876
 20
470.4353780755623
 30
0.0
 40
2.0
100
AcDbArc
 50
270.0
 51
0.0
  0
ARC
  5
1682
330
A
100
AcDbEntity
  8
本体
  6
Continuous
 62
    84
100
AcDbCircle
 10
1.25144900000012
 20
466.9353780755622
 30
0.0
 40
1.0
100
AcDbArc
 50
270.0
 51
0.0
  0
LINE
  5
1683
330
A
100
AcDbEntity
  8
本体
  6
Continuous
 62
    84
100
AcDbLine
 10
0.051449000000332
 20
467.1353780755621
 30
0.0
 11
1.051449000000332
 21
468.1353780755623
 31
0.0
  0
ARC
  5
1684
330
A
100
AcDbEntity
  8
本体
  6
Continuous
 62
    84
100
AcDbCircle
 10
-15.74355099999976
 20
492.7353780755622
 30
0.0
 40
5.5
100
AcDbArc
 50
30.27264100000035
 51
149.7273589999996
  0
DIMENSION
  5
187B
330
A
100
AcDbEntity
  8
寸法
  6
Continuous
100
AcDbDimension
  2
*D10
 10
323.9542674794396
 20
269.2687594576344
 30
0.0
 11
323.9542674794396
 21
277.7654111480801
 31
0.0
 70
   160
 71
     5
 42
16.99999997905591
  3
ARTICS
100
AcDbAlignedDimension
 13
268.095449
 23
286.2687594366903
 33
0.0
 14
304.351449
 24
269.2687594576344
 34
0.0
 50
90.0
100
AcDbRotatedDimension
1001
ACAD
1000
DSTYLE
1002
{
1070
   340
1005
3E4
1070
   140
1040
8.0
1070
   271
1070
     0
1002
}
  0
ARC
  5
1928
330
A
100
AcDbEntity
  8
ear
  6
Continuous
100
AcDbCircle
 10
-232.7485509999998
 20
503.8103780755623
 30
0.0
 40
3.5
100
AcDbArc
 50
90.00000000000005
 51
270.0
  0
ARC
  5
1929
330
A
100
AcDbEntity
  8
ear
  6
Continuous
100
AcDbCircle
 10
-228.7485509999999
 20
503.8103780755623
 30
0.0
 40
3.5
100
AcDbArc
 50
270.0
 51
90.00000000000005
  0
LINE
  5
192A
330
A
100
AcDbEntity
  8
ear
  6
CENTER
 48
0.5
100
AcDbLine
 10
-230.7485509999998
 20
467.5603780755623
 30
0.0
 11
-230.7485509999998
 21
508.3103780755623
 31
0.0
  0
LINE
  5
192B
330
A
100
AcDbEntity
  8
ear
  6
Continuous
100
AcDbLine
 10
-238.7485509999998
 20
467.9353780755623
 30
0.0
 11
-238.7485509999998
 21
507.9353780755623
 31
0.0
  0
LINE
  5
192C
330
A
100
AcDbEntity
  8
ear
  6
Continuous
100
AcDbLine
 10
-207.7488377258708
 20
509.8596520218665
 30
0.0
 11
-207.7485509999998
 21
465.9353780755623
 31
0.0
  0
LINE
  5
192D
330
A
100
AcDbEntity
  8
ear
  6
Continuous
100
AcDbLine
 10
-207.7485509999998
 20
509.9353780755623
 30
0.0
 11
-236.7485509999998
 21
509.9353780755623
 31
0.0
  0
LINE
  5
192E
330
A
100
AcDbEntity
  8
ear
  6
CENTER
 48
0.2
100
AcDbLine
 10
-237.2485509999999
 20
503.8103780755623
 30
0.0
 11
-224.2485509999998
 21
503.8103780755623
 31
0.0
  0
LINE
  5
192F
330
A
100
AcDbEntity
  8
ear
  6
Continuous
100
AcDbLine
 10
-238.7485509999998
 20
507.9353780755623
 30
0.0
 11
-236.7485509999998
 21
509.9353780755623
 31
0.0
  0
LINE
  5
1930
330
A
100
AcDbEntity
  8
ear
  6
Continuous
100
AcDbLine
 10
-228.7485509999999
 20
507.3103780755623
 30
0.0
 11
-232.7485509999998
 21
507.3103780755623
 31
0.0
  0
LINE
  5
1931
330
A
100
AcDbEntity
  8
ear
  6
Continuous
100
AcDbLine
 10
-207.7485509999998
 20
465.9353780755623
 30
0.0
 11
-236.7485509999998
 21
465.9353780755623
 31
0.0
  0
LINE
  5
1932
330
A
100
AcDbEntity
  8
ear
  6
Continuous
100
AcDbLine
 10
-228.7485509999999
 20
500.3103780755623
 30
0.0
 11
-232.7485509999998
 21
500.3103780755623
 31
0.0
  0
LINE
  5
1933
330
A
100
AcDbEntity
  8
ear
  6
CENTER
 48
0.2
100
AcDbLine
 10
-237.2485509999999
 20
472.0603780755623
 30
0.0
 11
-224.2485509999998
 21
472.0603780755623
 31
0.0
  0
ARC
  5
1934
330
A
100
AcDbEntity
  8
ear
  6
Continuous
100
AcDbCircle
 10
-232.7485509999998
 20
472.0603780755623
 30
0.0
 40
3.5
100
AcDbArc
 50
90.00000000000005
 51
270.0
  0
LINE
  5
1935
330
A
100
AcDbEntity
  8
ear
  6
Continuous
100
AcDbLine
 10
-236.7485509999998
 20
465.9353780755623
 30
0.0
 11
-238.7485509999998
 21
467.9353780755623
 31
0.0
  0
ARC
  5
1936
330
A
100
AcDbEntity
  8
ear
  6
Continuous
100
AcDbCircle
 10
-228.7485509999999
 20
472.0603780755623
 30
0.0
 40
3.5
100
AcDbArc
 50
270.0
 51
90.00000000000005
  0
LINE
  5
1937
330
A
100
AcDbEntity
  8
ear
  6
Continuous
100
AcDbLine
 10
-228.7485509999999
 20
468.5603780755623
 30
0.0
 11
-232.7485509999998
 21
468.5603780755623
 31
0.0
  0
LINE
  5
1938
330
A
100
AcDbEntity
  8
ear
  6
Continuous
100
AcDbLine
 10
-228.7485509999999
 20
475.5603780755623
 30
0.0
 11
-232.7485509999998
 21
475.5603780755623
 31
0.0
  0
LINE
  5
194A
330
A
100
AcDbEntity
  8
ear
  6
Continuous
100
AcDbLine
 10
-209.7488377258708
 20
509.8596520218665
 30
0.0
 11
-209.7485509999998
 21
465.9353780755623
 31
0.0
  0
LINE
  5
1950
330
A
100
AcDbEntity
  8
ear
  6
Continuous
100
AcDbLine
 10
-209.7488377258708
 20
497.2416180218665
 30
0.0
 11
-209.7488377258708
 21
504.4776860218665
 31
0.0
  0
ARC
  5
1951
330
A
100
AcDbEntity
  8
ear
  6
Continuous
100
AcDbCircle
 10
-204.2488377258708
 20
500.8596520218666
 30
0.0
 40
8.0
100
AcDbArc
 50
150.626961
 51
209.3730389999999
  0
ARC
  5
1952
330
A
100
AcDbEntity
  8
ear
  6
Continuous
100
AcDbCircle
 10
-210.7488377258708
 20
498.3596520218664
 30
0.0
 40
1.5
100
AcDbArc
 50
251.677105
 51
311.810315
  0
ARC
  5
1953
330
A
100
AcDbEntity
  8
ear
  6
Continuous
100
AcDbCircle
 10
-210.7488377258708
 20
503.3596520218662
 30
0.0
 40
1.5
100
AcDbArc
 50
48.189685
 51
108.3228949999996
  0
LINE
  5
1954
330
A
100
AcDbEntity
  8
ear
  6
Continuous
100
AcDbLine
 10
-209.7485509999998
 20
471.3173440755623
 30
0.0
 11
-209.7485509999998
 21
478.5534120755622
 31
0.0
  0
ARC
  5
1955
330
A
100
AcDbEntity
  8
ear
  6
Continuous
100
AcDbCircle
 10
-204.2485509999998
 20
474.9353780755622
 30
0.0
 40
8.0
100
AcDbArc
 50
150.626961
 51
209.3730389999999
  0
ARC
  5
1956
330
A
100
AcDbEntity
  8
ear
  6
Continuous
100
AcDbCircle
 10
-210.7485509999998
 20
472.4353780755623
 30
0.0
 40
1.5
100
AcDbArc
 50
251.677105
 51
311.810315
  0
ARC
  5
1957
330
A
100
AcDbEntity
  8
ear
  6
Continuous
100
AcDbCircle
 10
-210.7485509999998
 20
477.4353780755624
 30
0.0
 40
1.5
100
AcDbArc
 50
48.189685
 51
108.3228949999996
  0
LINE
  5
19D1
330
A
100
AcDbEntity
  8
本体
  6
Continuous
 62
    84
100
AcDbLine
 10
-255.8485509999997
 20
389.2667594576345
 30
0.0
 11
-255.8485509999997
 21
369.2667594576345
 31
0.0
  0
LINE
  5
19D2
330
A
100
AcDbEntity
  8
本体
  6
Continuous
 62
    84
100
AcDbLine
 10
-255.8485509999997
 20
296.2687594576344
 30
0.0
 11
-255.8485509999997
 21
408.0687594576343
 31
0.0
  0
LINE
  5
19D3
330
A
100
AcDbEntity
  8
本体
  6
Continuous
 62
    84
100
AcDbLine
 10
-255.8485509999997
 20
408.2687594576346
 30
0.0
 11
-255.8485509999997
 21
294.2687594576345
 31
0.0
  0
LINE
  5
19D4
330
A
100
AcDbEntity
  8
本体
  6
Continuous
 62
    84
100
AcDbLine
 10
-298.6485509999996
 20
295.5880456145589
 30
0.0
 11
-298.6485509999996
 21
409.2687594576346
 31
0.0
  0
LINE
  5
1A0C
330
A
100
AcDbEntity
  8
本体
  6
Continuous
 62
    84
100
AcDbLine
 10
-298.6485509999996
 20
409.2687594576346
 30
0.0
 11
-256.8485509999997
 21
409.2687594576346
 31
0.0
  0
ARC
  5
1A0D
330
A
100
AcDbEntity
  8
本体
  6
Continuous
 62
    84
100
AcDbCircle
 10
-256.8485509999997
 20
408.0687594576343
 30
0.0
 40
1.0
100
AcDbArc
 50
0.000000000000007
 51
89.99999999999996
  0
LINE
  5
1A0E
330
A
100
AcDbEntity
  8
本体
  6
Continuous
 62
    84
100
AcDbLine
 10
-256.8485509999997
 20
409.2687594576346
 30
0.0
 11
-255.8485509999997
 21
408.2687594576346
 31
0.0
  0
CIRCLE
  5
1A0F
330
A
100
AcDbEntity
  8
本体
  6
Continuous
 62
    84
100
AcDbCircle
 10
-276.6485509999993
 20
394.0687594576345
 30
0.0
 40
2.64
  0
ARC
  5
1A10
330
A
100
AcDbEntity
  8
本体
  6
Continuous
 62
    84
100
AcDbCircle
 10
-275.2705509999993
 20
394.0687594576345
 30
0.0
 40
0.6
100
AcDbArc
 50
134.9323500000012
 51
225.0676399999999
  0
LINE
  5
1A11
330
A
100
AcDbEntity
  8
本体
  6
Continuous
 62
    84
100
AcDbLine
 10
-275.8525509999996
 20
395.3947594576345
 30
0.0
 11
-276.2245509999995
 21
395.0237594576345
 31
0.0
  0
LINE
  5
1A12
330
A
100
AcDbEntity
  8
本体
  6
Continuous
 62
    84
100
AcDbLine
 10
-277.4445509999996
 20
395.3947594576345
 30
0.0
 11
-277.9745509999995
 21
394.8647594576342
 31
0.0
  0
LINE
  5
1A13
330
A
100
AcDbEntity
  8
本体
  6
Continuous
 62
    84
100
AcDbLine
 10
-277.4445509999996
 20
395.3947594576345
 30
0.0
 11
-277.0725509999995
 21
395.0237594576345
 31
0.0
  0
ARC
  5
1A14
330
A
100
AcDbEntity
  8
本体
  6
Continuous
 62
    84
100
AcDbCircle
 10
-276.6485509999993
 20
395.4467594576346
 30
0.0
 40
0.6
100
AcDbArc
 50
224.9323500000012
 51
315.0676450000016
  0
ARC
  5
1A15
330
A
100
AcDbEntity
  8
本体
  6
Continuous
 62
    84
100
AcDbCircle
 10
-276.6485509999993
 20
392.6907594576345
 30
0.0
 40
0.6
100
AcDbArc
 50
44.93235000000129
 51
135.0676399999997
  0
LINE
  5
1A16
330
A
100
AcDbEntity
  8
本体
  6
Continuous
 62
    84
100
AcDbLine
 10
-277.9745509999995
 20
394.8647594576342
 30
0.0
 11
-277.6035509999998
 21
394.4927594576345
 31
0.0
  0
ARC
  5
1A17
330
A
100
AcDbEntity
  8
本体
  6
Continuous
 62
    84
100
AcDbCircle
 10
-278.0265509999995
 20
394.0687594576345
 30
0.0
 40
0.6
100
AcDbArc
 50
314.9323540000008
 51
45.06763999999989
  0
LINE
  5
1A18
330
A
100
AcDbEntity
  8
本体
  6
Continuous
 62
    84
100
AcDbLine
 10
-277.6035509999998
 20
393.6447594576345
 30
0.0
 11
-277.9745509999995
 21
393.2727594576346
 31
0.0
  0
LINE
  5
1A19
330
A
100
AcDbEntity
  8
本体
  6
Continuous
 62
    84
100
AcDbLine
 10
-276.2245509999995
 20
393.1137594576345
 30
0.0
 11
-275.8525509999996
 21
392.7427594576345
 31
0.0
  0
LINE
  5
1A1A
330
A
100
AcDbEntity
  8
本体
  6
Continuous
 62
    84
100
AcDbLine
 10
-277.9745509999995
 20
393.2727594576346
 30
0.0
 11
-277.4445509999996
 21
392.7427594576345
 31
0.0
  0
LINE
  5
1A1B
330
A
100
AcDbEntity
  8
本体
  6
Continuous
 62
    84
100
AcDbLine
 10
-277.0725509999995
 20
393.1137594576345
 30
0.0
 11
-277.4445509999996
 21
392.7427594576345
 31
0.0
  0
LINE
  5
1A1C
330
A
100
AcDbEntity
  8
本体
  6
Continuous
 62
    84
100
AcDbLine
 10
-275.8525509999996
 20
395.3947594576345
 30
0.0
 11
-275.3225509999996
 21
394.8647594576342
 31
0.0
  0
LINE
  5
1A1D
330
A
100
AcDbEntity
  8
本体
  6
Continuous
 62
    84
100
AcDbLine
 10
-275.3225509999996
 20
393.2727594576346
 30
0.0
 11
-275.8525509999996
 21
392.7427594576345
 31
0.0
  0
LINE
  5
1A1E
330
A
100
AcDbEntity
  8
本体
  6
Continuous
 62
    84
100
AcDbLine
 10
-275.3225509999996
 20
394.8647594576342
 30
0.0
 11
-275.6935509999995
 21
394.4927594576345
 31
0.0
  0
LINE
  5
1A1F
330
A
100
AcDbEntity
  8
本体
  6
Continuous
 62
    84
100
AcDbLine
 10
-275.6935509999995
 20
393.6447594576345
 30
0.0
 11
-275.3225509999996
 21
393.2727594576346
 31
0.0
  0
CIRCLE
  5
1A20
330
A
100
AcDbEntity
  8
本体
  6
Continuous
 62
    84
100
AcDbCircle
 10
-275.2695509999995
 20
394.0677594576346
 30
0.0
 40
0.3
  0
LINE
  5
1A85
330
A
100
AcDbEntity
  8
ear
  6
Continuous
100
AcDbLine
 10
-207.7485509999999
 20
467.9353780755623
 30
0.0
 11
-209.7485509999999
 21
467.9353780755623
 31
0.0
  0
LINE
  5
1A86
330
A
100
AcDbEntity
  8
ear
  6
Continuous
100
AcDbLine
 10
-207.7485509999999
 20
507.9353780755623
 30
0.0
 11
-209.7485509999999
 21
507.9353780755623
 31
0.0
  0
LINE
  5
1AE2
330
A
100
AcDbEntity
  8
ear
  6
Continuous
100
AcDbLine
 10
-257.8485509999997
 20
296.2687594576345
 30
0.0
 11
-297.8485509999996
 21
296.2687594576345
 31
0.0
  0
LINE
  5
1AE3
330
A
100
AcDbEntity
  8
ear
  6
Continuous
100
AcDbLine
 10
-299.8485509999996
 20
271.2687594576345
 30
0.0
 11
-255.8485509999997
 21
271.2687594576345
 31
0.0
  0
LINE
  5
1AE4
330
A
100
AcDbEntity
  8
ear
  6
Continuous
100
AcDbLine
 10
-299.8485509999996
 20
269.2687594576345
 30
0.0
 11
-255.8485509999997
 21
269.2687594576345
 31
0.0
  0
ARC
  5
1AE5
330
A
100
AcDbEntity
  8
ear
  6
Continuous
100
AcDbCircle
 10
-293.1925509999997
 20
286.2687594576345
 30
0.0
 40
0.6
100
AcDbArc
 50
315.0674859999988
 51
44.93251000000153
  0
ARC
  5
1AE6
330
A
100
AcDbEntity
  8
ear
  6
Continuous
100
AcDbCircle
 10
-290.5045509999998
 20
286.2687594576345
 30
0.0
 40
0.6
100
AcDbArc
 50
135.0674799999995
 51
224.9325100000013
  0
CIRCLE
  5
1AE7
330
A
100
AcDbEntity
  8
ear
  6
Continuous
100
AcDbCircle
 10
-293.2625509999997
 20
286.2687594576345
 30
0.0
 40
0.3
  0
LINE
  5
1AE8
330
A
100
AcDbEntity
  8
ear
  6
Continuous
100
AcDbLine
 10
-299.8485509999996
 20
294.2687594576345
 30
0.0
 11
-299.8485509999996
 21
269.2687594576345
 31
0.0
  0
CIRCLE
  5
1AE9
330
A
100
AcDbEntity
  8
ear
  6
Continuous
100
AcDbCircle
 10
-291.8485509999996
 20
286.2687594576345
 30
0.0
 40
3.5
  0
CIRCLE
  5
1AEA
330
A
100
AcDbEntity
  8
ear
  6
Continuous
100
AcDbCircle
 10
-291.8485509999996
 20
286.2687594576345
 30
0.0
 40
4.0
  0
LINE
  5
1AEB
330
A
100
AcDbEntity
  8
ear
  6
Continuous
100
AcDbLine
 10
-297.8485509999996
 20
269.2687594576345
 30
0.0
 11
-297.8485509999996
 21
271.2687594576345
 31
0.0
  0
LINE
  5
1AEC
330
A
100
AcDbEntity
  8
ear
  6
Continuous
100
AcDbLine
 10
-290.929551
 20
285.8447594576346
 30
0.0
 11
-290.1867089999998
 21
285.1019174576343
 31
0.0
  0
LINE
  5
1AED
330
A
100
AcDbEntity
  8
ear
  6
Continuous
100
AcDbLine
 10
-290.1867089999998
 20
285.1019174576343
 30
0.0
 11
-290.6817089999999
 21
284.6069174576344
 31
0.0
  0
ARC
  5
1AEE
330
A
100
AcDbEntity
  8
ear
  6
Continuous
100
AcDbCircle
 10
-291.8485509999996
 20
284.9247594576343
 30
0.0
 40
0.6
100
AcDbArc
 50
45.06747999999961
 51
134.9325100000015
  0
LINE
  5
1AEF
330
A
100
AcDbEntity
  8
ear
  6
Continuous
100
AcDbLine
 10
-291.4245509999996
 20
285.3497594576343
 30
0.0
 11
-290.6817089999999
 21
284.6069174576344
 31
0.0
  0
LINE
  5
1AF0
330
A
100
AcDbEntity
  8
ear
  6
Continuous
100
AcDbLine
 10
-293.5103930000001
 20
285.1019174576343
 30
0.0
 11
-293.0153929999999
 21
284.6069174576344
 31
0.0
  0
LINE
  5
1AF1
330
A
100
AcDbEntity
  8
ear
  6
Continuous
100
AcDbLine
 10
-292.2725510000001
 20
285.3497594576343
 30
0.0
 11
-293.0153929999999
 21
284.6069174576344
 31
0.0
  0
LINE
  5
1AF2
330
A
100
AcDbEntity
  8
ear
  6
Continuous
100
AcDbLine
 10
-292.7675509999999
 20
285.8447594576346
 30
0.0
 11
-293.5103930000001
 21
285.1019174576343
 31
0.0
  0
LINE
  5
1AF3
330
A
100
AcDbEntity
  8
ear
  6
Continuous
100
AcDbLine
 10
-299.8485509999996
 20
294.2687594576345
 30
0.0
 11
-297.8485509999996
 21
296.2687594576345
 31
0.0
  0
LINE
  5
1AF4
330
A
100
AcDbEntity
  8
ear
  6
Continuous
100
AcDbLine
 10
-290.6817089999999
 20
287.9306034576346
 30
0.0
 11
-290.1867089999998
 21
287.4356034576343
 31
0.0
  0
LINE
  5
1AF5
330
A
100
AcDbEntity
  8
ear
  6
Continuous
100
AcDbLine
 10
-290.1867089999998
 20
287.4356034576343
 30
0.0
 11
-290.929551
 21
286.6927594576345
 31
0.0
  0
ARC
  5
1AF6
330
A
100
AcDbEntity
  8
ear
  6
Continuous
100
AcDbCircle
 10
-291.8485509999996
 20
287.6127594576345
 30
0.0
 40
0.6
100
AcDbArc
 50
225.0674799999996
 51
314.9325130000011
  0
LINE
  5
1AF7
330
A
100
AcDbEntity
  8
ear
  6
Continuous
100
AcDbLine
 10
-290.6817089999999
 20
287.9306034576346
 30
0.0
 11
-291.4245509999996
 21
287.1877594576345
 31
0.0
  0
LINE
  5
1AF8
330
A
100
AcDbEntity
  8
ear
  6
Continuous
100
AcDbLine
 10
-293.0153929999999
 20
287.9306034576346
 30
0.0
 11
-293.5103930000001
 21
287.4356034576343
 31
0.0
  0
LINE
  5
1AF9
330
A
100
AcDbEntity
  8
ear
  6
Continuous
100
AcDbLine
 10
-293.0153929999999
 20
287.9306034576346
 30
0.0
 11
-292.2725510000001
 21
287.1877594576345
 31
0.0
  0
LINE
  5
1AFA
330
A
100
AcDbEntity
  8
ear
  6
Continuous
100
AcDbLine
 10
-293.5103930000001
 20
287.4356034576343
 30
0.0
 11
-292.7675509999999
 21
286.6927594576345
 31
0.0
  0
LINE
  5
1AFB
330
A
100
AcDbEntity
  8
ear
  6
Continuous
100
AcDbLine
 10
-255.8485509999997
 20
269.2687594576345
 30
0.0
 11
-255.8485509999997
 21
294.2687594576345
 31
0.0
  0
ARC
  5
1AFC
330
A
100
AcDbEntity
  8
ear
  6
Continuous
100
AcDbCircle
 10
-262.504551
 20
286.2687594576345
 30
0.0
 40
0.6
100
AcDbArc
 50
135.0674799999995
 51
224.9325100000013
  0
ARC
  5
1AFD
330
A
100
AcDbEntity
  8
ear
  6
Continuous
100
AcDbCircle
 10
-265.1925509999997
 20
286.2687594576345
 30
0.0
 40
0.6
100
AcDbArc
 50
315.0674859999988
 51
44.93251000000153
  0
CIRCLE
  5
1AFE
330
A
100
AcDbEntity
  8
ear
  6
Continuous
100
AcDbCircle
 10
-265.2625509999998
 20
286.2687594576345
 30
0.0
 40
0.3
  0
CIRCLE
  5
1AFF
330
A
100
AcDbEntity
  8
ear
  6
Continuous
100
AcDbCircle
 10
-263.8485509999997
 20
286.2687594576345
 30
0.0
 40
4.0
  0
CIRCLE
  5
1B00
330
A
100
AcDbEntity
  8
ear
  6
Continuous
100
AcDbCircle
 10
-263.8485509999997
 20
286.2687594576345
 30
0.0
 40
3.5
  0
LINE
  5
1B01
330
A
100
AcDbEntity
  8
ear
  6
Continuous
100
AcDbLine
 10
-209.7485509999994
 20
296.2687594576345
 30
0.0
 11
-209.7485509999994
 21
271.2687594576345
 31
0.0
  0
LINE
  5
1B02
330
A
100
AcDbEntity
  8
ear
  6
Continuous
100
AcDbLine
 10
-207.7485509999994
 20
296.2687594576345
 30
0.0
 11
-207.7485509999994
 21
271.2687594576345
 31
0.0
  0
LINE
  5
1B03
330
A
100
AcDbEntity
  8
ear
  6
Continuous
100
AcDbLine
 10
-209.7492033317644
 20
289.8867933988266
 30
0.0
 11
-209.7478986682348
 21
282.6507255164423
 31
0.0
  0
ARC
  5
1B04
330
A
100
AcDbEntity
  8
ear
  6
Continuous
100
AcDbCircle
 10
-204.2485510893967
 20
286.2697511079911
 30
0.0
 40
8.0
100
AcDbArc
 50
150.6372914328179
 51
209.383369432816
  0
LINE
  5
1B05
330
A
100
AcDbEntity
  8
ear
  6
Continuous
100
AcDbLine
 10
-209.7485509999994
 20
271.2687594576345
 30
0.0
 11
-238.7485509999994
 21
271.2687594576345
 31
0.0
  0
LINE
  5
1B06
330
A
100
AcDbEntity
  8
ear
  6
Continuous
100
AcDbLine
 10
-209.7485509999994
 20
269.2687594576345
 30
0.0
 11
-238.7485509999994
 21
269.2687594576345
 31
0.0
  0
LINE
  5
1B07
330
A
100
AcDbEntity
  8
ear
  6
Continuous
100
AcDbLine
 10
-264.2725509999999
 20
285.3497594576343
 30
0.0
 11
-265.0153929999999
 21
284.6069174576344
 31
0.0
  0
LINE
  5
1B08
330
A
100
AcDbEntity
  8
ear
  6
Continuous
100
AcDbLine
 10
-264.7675509999999
 20
285.8447594576346
 30
0.0
 11
-265.5103930000001
 21
285.1019174576343
 31
0.0
  0
LINE
  5
1B09
330
A
100
AcDbEntity
  8
ear
  6
Continuous
100
AcDbLine
 10
-265.5103930000001
 20
285.1019174576343
 30
0.0
 11
-265.0153929999999
 21
284.6069174576344
 31
0.0
  0
LINE
  5
1B0A
330
A
100
AcDbEntity
  8
ear
  6
Continuous
100
AcDbLine
 10
-257.8485509999997
 20
271.2687594576345
 30
0.0
 11
-257.8485509999997
 21
269.2687594576345
 31
0.0
  0
LINE
  5
1B0B
330
A
100
AcDbEntity
  8
ear
  6
Continuous
100
AcDbLine
 10
-262.9295509999999
 20
285.8447594576346
 30
0.0
 11
-262.1867089999998
 21
285.1019174576343
 31
0.0
  0
LINE
  5
1B0C
330
A
100
AcDbEntity
  8
ear
  6
Continuous
100
AcDbLine
 10
-263.4245509999995
 20
285.3497594576343
 30
0.0
 11
-262.6817089999998
 21
284.6069174576344
 31
0.0
  0
ARC
  5
1B0D
330
A
100
AcDbEntity
  8
ear
  6
Continuous
100
AcDbCircle
 10
-263.8485509999997
 20
284.9247594576343
 30
0.0
 40
0.6
100
AcDbArc
 50
45.06747999999961
 51
134.9325100000015
  0
LINE
  5
1B0E
330
A
100
AcDbEntity
  8
ear
  6
Continuous
100
AcDbLine
 10
-262.1867089999998
 20
285.1019174576343
 30
0.0
 11
-262.6817089999998
 21
284.6069174576344
 31
0.0
  0
LINE
  5
1B0F
330
A
100
AcDbEntity
  8
ear
  6
Continuous
100
AcDbLine
 10
-236.7485509999994
 20
271.2687594576345
 30
0.0
 11
-236.7485509999994
 21
269.2687594576345
 31
0.0
  0
LINE
  5
1B10
330
A
100
AcDbEntity
  8
ear
  6
Continuous
100
AcDbLine
 10
-238.7485509999994
 20
271.2687594576345
 30
0.0
 11
-238.7485509999994
 21
269.2687594576345
 31
0.0
  0
ARC
  5
1B11
330
A
100
AcDbEntity
  8
ear
  6
Continuous
100
AcDbCircle
 10
-209.7485509999994
 20
271.2687594576345
 30
0.0
 40
2.0
100
AcDbArc
 50
270.0
 51
0.0
  0
ARC
  5
1B12
330
A
100
AcDbEntity
  8
ear
  6
Continuous
100
AcDbCircle
 10
-210.7481002335833
 20
283.7685791982046
 30
0.0
 40
1.5
100
AcDbArc
 50
251.6874354328156
 51
311.8206454328157
  0
LINE
  5
1B13
330
A
100
AcDbEntity
  8
ear
  6
Continuous
100
AcDbLine
 10
-265.0153929999999
 20
287.9306034576346
 30
0.0
 11
-264.2725509999999
 21
287.1877594576345
 31
0.0
  0
LINE
  5
1B14
330
A
100
AcDbEntity
  8
ear
  6
Continuous
100
AcDbLine
 10
-265.0153929999999
 20
287.9306034576346
 30
0.0
 11
-265.5103930000001
 21
287.4356034576343
 31
0.0
  0
LINE
  5
1B15
330
A
100
AcDbEntity
  8
ear
  6
Continuous
100
AcDbLine
 10
-265.5103930000001
 20
287.4356034576343
 30
0.0
 11
-264.7675509999999
 21
286.6927594576345
 31
0.0
  0
LINE
  5
1B16
330
A
100
AcDbEntity
  8
ear
  6
Continuous
100
AcDbLine
 10
-262.6817089999998
 20
287.9306034576346
 30
0.0
 11
-263.4245509999995
 21
287.1877594576345
 31
0.0
  0
ARC
  5
1B17
330
A
100
AcDbEntity
  8
ear
  6
Continuous
100
AcDbCircle
 10
-263.8485509999997
 20
287.6127594576345
 30
0.0
 40
0.6
100
AcDbArc
 50
225.0674799999996
 51
314.9325130000011
  0
LINE
  5
1B18
330
A
100
AcDbEntity
  8
ear
  6
Continuous
100
AcDbLine
 10
-262.1867089999998
 20
287.4356034576343
 30
0.0
 11
-262.9295509999999
 21
286.6927594576345
 31
0.0
  0
LINE
  5
1B19
330
A
100
AcDbEntity
  8
ear
  6
Continuous
100
AcDbLine
 10
-262.6817089999998
 20
287.9306034576346
 30
0.0
 11
-262.1867089999998
 21
287.4356034576343
 31
0.0
  0
LINE
  5
1B1A
330
A
100
AcDbEntity
  8
ear
  6
Continuous
100
AcDbLine
 10
-257.8485509999997
 20
296.2687594576345
 30
0.0
 11
-255.8485509999997
 21
294.2687594576345
 31
0.0
  0
ARC
  5
1B1B
330
A
100
AcDbEntity
  8
ear
  6
Continuous
100
AcDbCircle
 10
-210.7490017339077
 20
288.7685791169345
 30
0.0
 40
1.5
100
AcDbArc
 50
48.20001543281581
 51
108.3332254328159
  0
LINE
  5
1B1C
330
A
100
AcDbEntity
  8
ear
  6
Continuous
100
AcDbLine
 10
-207.7485509999994
 20
294.2687594576345
 30
0.0
 11
-209.7485509999994
 21
294.2687594576345
 31
0.0
  0
LINE
  5
1B1D
330
A
100
AcDbEntity
  8
ear
  6
Continuous
100
AcDbLine
 10
-207.7485509999994
 20
296.2687594576345
 30
0.0
 11
-209.7485509999994
 21
296.2687594576345
 31
0.0
  0
LINE
  5
1B66
330
A
100
AcDbEntity
  8
本体
  6
Continuous
 62
    84
100
AcDbLine
 10
260.351449
 20
408.2687594576346
 30
0.0
 11
260.351449
 21
294.2687594576345
 31
0.0
  0
LINE
  5
1B67
330
A
100
AcDbEntity
  8
本体
  6
Continuous
 62
    84
100
AcDbLine
 10
303.1514489999999
 20
295.5880456145589
 30
0.0
 11
303.1514489999999
 21
409.2687594576346
 31
0.0
  0
LINE
  5
1B68
330
A
100
AcDbEntity
  8
本体
  6
Continuous
 62
    84
100
AcDbLine
 10
260.351449
 20
296.2687594576344
 30
0.0
 11
260.351449
 21
408.0687594576343
 31
0.0
  0
LINE
  5
1B69
330
A
100
AcDbEntity
  8
本体
  6
Continuous
 62
    84
100
AcDbLine
 10
260.351449
 20
389.2667594576345
 30
0.0
 11
260.351449
 21
369.2667594576345
 31
0.0
  0
LINE
  5
1B6A
330
A
100
AcDbEntity
  8
ear
  6
Continuous
100
AcDbLine
 10
262.351449
 20
296.2687594576345
 30
0.0
 11
302.351449
 21
296.2687594576345
 31
0.0
  0
LINE
  5
1B6B
330
A
100
AcDbEntity
  8
ear
  6
Continuous
100
AcDbLine
 10
304.351449
 20
271.2687594576345
 30
0.0
 11
260.351449
 21
271.2687594576345
 31
0.0
  0
LINE
  5
1B6C
330
A
100
AcDbEntity
  8
ear
  6
Continuous
100
AcDbLine
 10
304.351449
 20
269.2687594576345
 30
0.0
 11
260.351449
 21
269.2687594576345
 31
0.0
  0
ARC
  5
1B6D
330
A
100
AcDbEntity
  8
ear
  6
Continuous
100
AcDbCircle
 10
297.695449
 20
286.2687594576345
 30
0.0
 40
0.6
100
AcDbArc
 50
135.0674899999984
 51
224.932514000001
  0
ARC
  5
1B6E
330
A
100
AcDbEntity
  8
ear
  6
Continuous
100
AcDbCircle
 10
295.0074490000003
 20
286.2687594576345
 30
0.0
 40
0.6
100
AcDbArc
 50
315.0674899999983
 51
44.93252000000038
  0
CIRCLE
  5
1B6F
330
A
100
AcDbEntity
  8
ear
  6
Continuous
100
AcDbCircle
 10
297.7654490000001
 20
286.2687594576345
 30
0.0
 40
0.3
  0
CIRCLE
  5
1B70
330
A
100
AcDbEntity
  8
ear
  6
Continuous
100
AcDbCircle
 10
296.351449
 20
286.2687594576345
 30
0.0
 40
3.5
  0
CIRCLE
  5
1B71
330
A
100
AcDbEntity
  8
ear
  6
Continuous
100
AcDbCircle
 10
296.351449
 20
286.2687594576345
 30
0.0
 40
4.0
  0
LINE
  5
1B72
330
A
100
AcDbEntity
  8
ear
  6
Continuous
100
AcDbLine
 10
304.351449
 20
294.2687594576345
 30
0.0
 11
304.351449
 21
269.2687594576345
 31
0.0
  0
LINE
  5
1B73
330
A
100
AcDbEntity
  8
ear
  6
Continuous
100
AcDbLine
 10
296.7754490000003
 20
285.3497594576343
 30
0.0
 11
297.5182910000002
 21
284.6069174576344
 31
0.0
  0
LINE
  5
1B74
330
A
100
AcDbEntity
  8
ear
  6
Continuous
100
AcDbLine
 10
302.351449
 20
269.2687594576345
 30
0.0
 11
302.351449
 21
271.2687594576345
 31
0.0
  0
LINE
  5
1B75
330
A
100
AcDbEntity
  8
ear
  6
Continuous
100
AcDbLine
 10
298.0132910000003
 20
285.1019174576343
 30
0.0
 11
297.5182910000002
 21
284.6069174576344
 31
0.0
  0
LINE
  5
1B76
330
A
100
AcDbEntity
  8
ear
  6
Continuous
100
AcDbLine
 10
297.2704490000003
 20
285.8447594576346
 30
0.0
 11
298.0132910000003
 21
285.1019174576343
 31
0.0
  0
LINE
  5
1B77
330
A
100
AcDbEntity
  8
ear
  6
Continuous
100
AcDbLine
 10
294.6896070000001
 20
285.1019174576343
 30
0.0
 11
295.1846070000001
 21
284.6069174576344
 31
0.0
  0
LINE
  5
1B78
330
A
100
AcDbEntity
  8
ear
  6
Continuous
100
AcDbLine
 10
295.927449
 20
285.3497594576343
 30
0.0
 11
295.1846070000001
 21
284.6069174576344
 31
0.0
  0
LINE
  5
1B79
330
A
100
AcDbEntity
  8
ear
  6
Continuous
100
AcDbLine
 10
295.4324490000002
 20
285.8447594576346
 30
0.0
 11
294.6896070000001
 21
285.1019174576343
 31
0.0
  0
ARC
  5
1B7A
330
A
100
AcDbEntity
  8
ear
  6
Continuous
100
AcDbCircle
 10
296.351449
 20
284.9247594576343
 30
0.0
 40
0.6
100
AcDbArc
 50
45.06748999999846
 51
134.9325200000002
  0
LINE
  5
1B7B
330
A
100
AcDbEntity
  8
ear
  6
Continuous
100
AcDbLine
 10
297.5182910000002
 20
287.9306034576346
 30
0.0
 11
296.7754490000003
 21
287.1877594576345
 31
0.0
  0
LINE
  5
1B7C
330
A
100
AcDbEntity
  8
ear
  6
Continuous
100
AcDbLine
 10
304.351449
 20
294.2687594576345
 30
0.0
 11
302.351449
 21
296.2687594576345
 31
0.0
  0
LINE
  5
1B7D
330
A
100
AcDbEntity
  8
ear
  6
Continuous
100
AcDbLine
 10
297.5182910000002
 20
287.9306034576346
 30
0.0
 11
298.0132910000003
 21
287.4356034576343
 31
0.0
  0
LINE
  5
1B7E
330
A
100
AcDbEntity
  8
ear
  6
Continuous
100
AcDbLine
 10
298.0132910000003
 20
287.4356034576343
 30
0.0
 11
297.2704490000003
 21
286.6927594576345
 31
0.0
  0
LINE
  5
1B7F
330
A
100
AcDbEntity
  8
ear
  6
Continuous
100
AcDbLine
 10
295.1846070000001
 20
287.9306034576346
 30
0.0
 11
294.6896070000001
 21
287.4356034576343
 31
0.0
  0
LINE
  5
1B80
330
A
100
AcDbEntity
  8
ear
  6
Continuous
100
AcDbLine
 10
294.6896070000001
 20
287.4356034576343
 30
0.0
 11
295.4324490000002
 21
286.6927594576345
 31
0.0
  0
ARC
  5
1B81
330
A
100
AcDbEntity
  8
ear
  6
Continuous
100
AcDbCircle
 10
296.351449
 20
287.6127594576345
 30
0.0
 40
0.6
100
AcDbArc
 50
225.0674869999988
 51
314.9325200000002
  0
LINE
  5
1B82
330
A
100
AcDbEntity
  8
ear
  6
Continuous
100
AcDbLine
 10
295.1846070000001
 20
287.9306034576346
 30
0.0
 11
295.927449
 21
287.1877594576345
 31
0.0
  0
ARC
  5
1B83
330
A
100
AcDbEntity
  8
ear
  6
Continuous
100
AcDbCircle
 10
267.007449
 20
286.2687594576345
 30
0.0
 40
0.6
100
AcDbArc
 50
315.0674899999983
 51
44.93252000000038
  0
ARC
  5
1B84
330
A
100
AcDbEntity
  8
ear
  6
Continuous
100
AcDbCircle
 10
269.6954489999999
 20
286.2687594576345
 30
0.0
 40
0.6
100
AcDbArc
 50
135.0674899999984
 51
224.932514000001
  0
CIRCLE
  5
1B85
330
A
100
AcDbEntity
  8
ear
  6
Continuous
100
AcDbCircle
 10
269.7654490000001
 20
286.2687594576345
 30
0.0
 40
0.3
  0
CIRCLE
  5
1B86
330
A
100
AcDbEntity
  8
ear
  6
Continuous
100
AcDbCircle
 10
268.3514489999999
 20
286.2687594576345
 30
0.0
 40
4.0
  0
CIRCLE
  5
1B87
330
A
100
AcDbEntity
  8
ear
  6
Continuous
100
AcDbCircle
 10
268.3514489999999
 20
286.2687594576345
 30
0.0
 40
3.5
  0
LINE
  5
1B88
330
A
100
AcDbEntity
  8
ear
  6
Continuous
100
AcDbLine
 10
260.351449
 20
269.2687594576345
 30
0.0
 11
260.351449
 21
294.2687594576345
 31
0.0
  0
LINE
  5
1B89
330
A
100
AcDbEntity
  8
ear
  6
Continuous
100
AcDbLine
 10
262.351449
 20
271.2687594576345
 30
0.0
 11
262.351449
 21
269.2687594576345
 31
0.0
  0
LINE
  5
1B8A
330
A
100
AcDbEntity
  8
ear
  6
Continuous
100
AcDbLine
 10
267.927449
 20
285.3497594576343
 30
0.0
 11
267.1846070000002
 21
284.6069174576344
 31
0.0
  0
LINE
  5
1B8B
330
A
100
AcDbEntity
  8
ear
  6
Continuous
100
AcDbLine
 10
266.6896069999999
 20
285.1019174576343
 30
0.0
 11
267.1846070000002
 21
284.6069174576344
 31
0.0
  0
LINE
  5
1B8C
330
A
100
AcDbEntity
  8
ear
  6
Continuous
100
AcDbLine
 10
267.4324490000003
 20
285.8447594576346
 30
0.0
 11
266.6896069999999
 21
285.1019174576343
 31
0.0
  0
ARC
  5
1B8D
330
A
100
AcDbEntity
  8
ear
  6
Continuous
100
AcDbCircle
 10
268.3514489999999
 20
284.9247594576343
 30
0.0
 40
0.6
100
AcDbArc
 50
45.06748999999846
 51
134.9325200000002
  0
LINE
  5
1B8E
330
A
100
AcDbEntity
  8
ear
  6
Continuous
100
AcDbLine
 10
270.0132910000004
 20
285.1019174576343
 30
0.0
 11
269.5182910000001
 21
284.6069174576344
 31
0.0
  0
LINE
  5
1B8F
330
A
100
AcDbEntity
  8
ear
  6
Continuous
100
AcDbLine
 10
269.2704490000003
 20
285.8447594576346
 30
0.0
 11
270.0132910000004
 21
285.1019174576343
 31
0.0
  0
LINE
  5
1B90
330
A
100
AcDbEntity
  8
ear
  6
Continuous
100
AcDbLine
 10
268.7754490000004
 20
285.3497594576343
 30
0.0
 11
269.5182910000001
 21
284.6069174576344
 31
0.0
  0
LINE
  5
1B91
330
A
100
AcDbEntity
  8
ear
  6
Continuous
100
AcDbLine
 10
267.1846070000002
 20
287.9306034576346
 30
0.0
 11
267.927449
 21
287.1877594576345
 31
0.0
  0
ARC
  5
1B92
330
A
100
AcDbEntity
  8
ear
  6
Continuous
100
AcDbCircle
 10
268.3514489999999
 20
287.6127594576345
 30
0.0
 40
0.6
100
AcDbArc
 50
225.0674869999988
 51
314.9325200000002
  0
LINE
  5
1B93
330
A
100
AcDbEntity
  8
ear
  6
Continuous
100
AcDbLine
 10
266.6896069999999
 20
287.4356034576343
 30
0.0
 11
267.4324490000003
 21
286.6927594576345
 31
0.0
  0
LINE
  5
1B94
330
A
100
AcDbEntity
  8
ear
  6
Continuous
100
AcDbLine
 10
267.1846070000002
 20
287.9306034576346
 30
0.0
 11
266.6896069999999
 21
287.4356034576343
 31
0.0
  0
LINE
  5
1B95
330
A
100
AcDbEntity
  8
ear
  6
Continuous
100
AcDbLine
 10
269.5182910000001
 20
287.9306034576346
 30
0.0
 11
270.0132910000004
 21
287.4356034576343
 31
0.0
  0
LINE
  5
1B96
330
A
100
AcDbEntity
  8
ear
  6
Continuous
100
AcDbLine
 10
270.0132910000004
 20
287.4356034576343
 30
0.0
 11
269.2704490000003
 21
286.6927594576345
 31
0.0
  0
LINE
  5
1B97
330
A
100
AcDbEntity
  8
ear
  6
Continuous
100
AcDbLine
 10
269.5182910000001
 20
287.9306034576346
 30
0.0
 11
268.7754490000004
 21
287.1877594576345
 31
0.0
  0
LINE
  5
1B98
330
A
100
AcDbEntity
  8
ear
  6
Continuous
100
AcDbLine
 10
262.351449
 20
296.2687594576345
 30
0.0
 11
260.351449
 21
294.2687594576345
 31
0.0
  0
LINE
  5
1B99
330
A
100
AcDbEntity
  8
本体
  6
Continuous
 62
    84
100
AcDbLine
 10
303.1514489999999
 20
409.2687594576346
 30
0.0
 11
261.351449
 21
409.2687594576346
 31
0.0
  0
CIRCLE
  5
1B9A
330
A
100
AcDbEntity
  8
本体
  6
Continuous
 62
    84
100
AcDbCircle
 10
279.7724489999998
 20
394.0677594576346
 30
0.0
 40
0.3
  0
LINE
  5
1B9B
330
A
100
AcDbEntity
  8
本体
  6
Continuous
 62
    84
100
AcDbLine
 10
280.1964489999998
 20
393.6447594576345
 30
0.0
 11
279.8254489999998
 21
393.2727594576346
 31
0.0
  0
LINE
  5
1B9C
330
A
100
AcDbEntity
  8
本体
  6
Continuous
 62
    84
100
AcDbLine
 10
279.8254489999998
 20
394.8647594576342
 30
0.0
 11
280.1964489999998
 21
394.4927594576345
 31
0.0
  0
LINE
  5
1B9D
330
A
100
AcDbEntity
  8
本体
  6
Continuous
 62
    84
100
AcDbLine
 10
279.8254489999998
 20
393.2727594576346
 30
0.0
 11
280.3554489999999
 21
392.7427594576345
 31
0.0
  0
LINE
  5
1B9E
330
A
100
AcDbEntity
  8
本体
  6
Continuous
 62
    84
100
AcDbLine
 10
280.3554489999999
 20
395.3947594576345
 30
0.0
 11
279.8254489999998
 21
394.8647594576342
 31
0.0
  0
LINE
  5
1B9F
330
A
100
AcDbEntity
  8
本体
  6
Continuous
 62
    84
100
AcDbLine
 10
281.5754489999998
 20
393.1137594576345
 30
0.0
 11
281.9474489999998
 21
392.7427594576345
 31
0.0
  0
LINE
  5
1BA0
330
A
100
AcDbEntity
  8
本体
  6
Continuous
 62
    84
100
AcDbLine
 10
282.4774489999997
 20
393.2727594576346
 30
0.0
 11
281.9474489999998
 21
392.7427594576345
 31
0.0
  0
LINE
  5
1BA1
330
A
100
AcDbEntity
  8
本体
  6
Continuous
 62
    84
100
AcDbLine
 10
280.7274489999997
 20
393.1137594576345
 30
0.0
 11
280.3554489999999
 21
392.7427594576345
 31
0.0
  0
LINE
  5
1BA2
330
A
100
AcDbEntity
  8
本体
  6
Continuous
 62
    84
100
AcDbLine
 10
282.1064490000001
 20
393.6447594576345
 30
0.0
 11
282.4774489999997
 21
393.2727594576346
 31
0.0
  0
ARC
  5
1BA3
330
A
100
AcDbEntity
  8
本体
  6
Continuous
 62
    84
100
AcDbCircle
 10
282.5294489999998
 20
394.0687594576345
 30
0.0
 40
0.6
100
AcDbArc
 50
134.9323600000001
 51
225.0676459999989
  0
LINE
  5
1BA4
330
A
100
AcDbEntity
  8
本体
  6
Continuous
 62
    84
100
AcDbLine
 10
282.4774489999997
 20
394.8647594576342
 30
0.0
 11
282.1064490000001
 21
394.4927594576345
 31
0.0
  0
ARC
  5
1BA5
330
A
100
AcDbEntity
  8
本体
  6
Continuous
 62
    84
100
AcDbCircle
 10
281.1514489999995
 20
392.6907594576345
 30
0.0
 40
0.6
100
AcDbArc
 50
44.93236000000028
 51
135.0676499999987
  0
ARC
  5
1BA6
330
A
100
AcDbEntity
  8
本体
  6
Continuous
 62
    84
100
AcDbCircle
 10
281.1514489999995
 20
395.4467594576346
 30
0.0
 40
0.6
100
AcDbArc
 50
224.9323549999983
 51
315.0676499999988
  0
LINE
  5
1BA7
330
A
100
AcDbEntity
  8
本体
  6
Continuous
 62
    84
100
AcDbLine
 10
281.9474489999998
 20
395.3947594576345
 30
0.0
 11
281.5754489999998
 21
395.0237594576345
 31
0.0
  0
LINE
  5
1BA8
330
A
100
AcDbEntity
  8
本体
  6
Continuous
 62
    84
100
AcDbLine
 10
281.9474489999998
 20
395.3947594576345
 30
0.0
 11
282.4774489999997
 21
394.8647594576342
 31
0.0
  0
LINE
  5
1BA9
330
A
100
AcDbEntity
  8
本体
  6
Continuous
 62
    84
100
AcDbLine
 10
280.3554489999999
 20
395.3947594576345
 30
0.0
 11
280.7274489999997
 21
395.0237594576345
 31
0.0
  0
ARC
  5
1BAA
330
A
100
AcDbEntity
  8
本体
  6
Continuous
 62
    84
100
AcDbCircle
 10
279.7734489999995
 20
394.0687594576345
 30
0.0
 40
0.6
100
AcDbArc
 50
314.93236
 51
45.06764999999878
  0
CIRCLE
  5
1BAB
330
A
100
AcDbEntity
  8
本体
  6
Continuous
 62
    84
100
AcDbCircle
 10
281.1514489999995
 20
394.0687594576345
 30
0.0
 40
2.64
  0
LINE
  5
1BAC
330
A
100
AcDbEntity
  8
本体
  6
Continuous
 62
    84
100
AcDbLine
 10
261.351449
 20
409.2687594576346
 30
0.0
 11
260.351449
 21
408.2687594576346
 31
0.0
  0
ARC
  5
1BAD
330
A
100
AcDbEntity
  8
本体
  6
Continuous
 62
    84
100
AcDbCircle
 10
261.351449
 20
408.0687594576343
 30
0.0
 40
1.0
100
AcDbArc
 50
90.00000000000005
 51
180.0
  0
LINE
  5
1CA5
102
{ACAD_REACTORS
330
1D05
102
}
330
A
100
AcDbEntity
  8
ear
  6
Continuous
100
AcDbLine
 10
2.251449000000206
 20
465.9353780755624
 30
0.0
 11
241.2514489999999
 21
465.9353780755624
 31
0.0
  0
LINE
  5
1CA6
102
{ACAD_REACTORS
330
1D05
102
}
330
A
100
AcDbEntity
  8
ear
  6
Continuous
100
AcDbLine
 10
2.251449000000206
 20
509.9353780755623
 30
0.0
 11
241.2514489999999
 21
509.9353780755623
 31
0.0
  0
ARC
  5
1CA7
102
{ACAD_REACTORS
330
1D05
102
}
330
A
100
AcDbEntity
  8
ear
  6
Continuous
100
AcDbCircle
 10
5.251449000000206
 20
477.4353780755622
 30
0.0
 40
1.5
100
AcDbArc
 50
71.67710500000123
 51
131.8103149999994
  0
ARC
  5
1CA8
102
{ACAD_REACTORS
330
1D05
102
}
330
A
100
AcDbEntity
  8
ear
  6
Continuous
100
AcDbCircle
 10
-1.248550999999906
 20
474.9353780755622
 30
0.0
 40
8.0
100
AcDbArc
 50
330.6269609999989
 51
29.37303900000097
  0
LINE
  5
1CA9
102
{ACAD_REACTORS
330
1D05
102
}
330
A
100
AcDbEntity
  8
ear
  6
Continuous
100
AcDbLine
 10
4.251449000000206
 20
465.9353780755624
 30
0.0
 11
4.251449000000206
 21
509.9353780755623
 31
0.0
  0
LINE
  5
1CAA
102
{ACAD_REACTORS
330
1D05
102
}
330
A
100
AcDbEntity
  8
ear
  6
Continuous
100
AcDbLine
 10
2.251449000000206
 20
509.9353780755623
 30
0.0
 11
2.251449000000206
 21
465.9353780755624
 31
0.0
  0
ARC
  5
1CAB
102
{ACAD_REACTORS
330
1D05
102
}
330
A
100
AcDbEntity
  8
ear
  6
Continuous
100
AcDbCircle
 10
5.251449000000206
 20
472.4353780755621
 30
0.0
 40
1.5
100
AcDbArc
 50
228.1896850000005
 51
288.3228949999987
  0
LINE
  5
1CAC
102
{ACAD_REACTORS
330
1D05
102
}
330
A
100
AcDbEntity
  8
ear
  6
Continuous
100
AcDbLine
 10
4.251449000000206
 20
467.9353780755623
 30
0.0
 11
2.251449000000206
 21
467.9353780755623
 31
0.0
  0
LINE
  5
1CAD
102
{ACAD_REACTORS
330
1D05
102
}
330
A
100
AcDbEntity
  8
ear
  6
Continuous
100
AcDbLine
 10
4.251449000000206
 20
471.3173440755623
 30
0.0
 11
4.251449000000206
 21
478.5534120755619
 31
0.0
  0
LINE
  5
1CAE
102
{ACAD_REACTORS
330
1D05
102
}
330
A
100
AcDbEntity
  8
ear
  6
Continuous
100
AcDbLine
 10
4.251162274129113
 20
497.2416180218663
 30
0.0
 11
4.251162274129113
 21
504.4776860218664
 31
0.0
  0
ARC
  5
1CAF
102
{ACAD_REACTORS
330
1D05
102
}
330
A
100
AcDbEntity
  8
ear
  6
Continuous
100
AcDbCircle
 10
-1.248837725870771
 20
500.8596520218664
 30
0.0
 40
8.0
100
AcDbArc
 50
330.6269609999989
 51
29.37303900000097
  0
ARC
  5
1CB0
102
{ACAD_REACTORS
330
1D05
102
}
330
A
100
AcDbEntity
  8
ear
  6
Continuous
100
AcDbCircle
 10
5.251162274129228
 20
498.3596520218661
 30
0.0
 40
1.5
100
AcDbArc
 50
228.1896850000005
 51
288.3228949999987
  0
ARC
  5
1CB1
102
{ACAD_REACTORS
330
1D05
102
}
330
A
100
AcDbEntity
  8
ear
  6
Continuous
100
AcDbCircle
 10
5.251162274129228
 20
503.3596520218662
 30
0.0
 40
1.5
100
AcDbArc
 50
71.67710500000123
 51
131.8103149999994
  0
LINE
  5
1CB2
102
{ACAD_REACTORS
330
1D05
102
}
330
A
100
AcDbEntity
  8
ear
  6
Continuous
100
AcDbLine
 10
4.251449000000206
 20
507.9353780755623
 30
0.0
 11
2.251449000000206
 21
507.9353780755623
 31
0.0
  0
LINE
  5
1CB3
102
{ACAD_REACTORS
330
1D05
102
}
330
A
100
AcDbEntity
  8
ear
  6
Continuous
100
AcDbLine
 10
243.2514489999999
 20
507.9353780755623
 30
0.0
 11
243.2514489999999
 21
467.9353780755623
 31
0.0
  0
LINE
  5
1CB4
102
{ACAD_REACTORS
330
1D05
102
}
330
A
100
AcDbEntity
  8
ear
  6
CENTER
 48
0.5
100
AcDbLine
 10
235.2514489999999
 20
508.3103780755623
 30
0.0
 11
235.2514489999999
 21
467.5603780755621
 31
0.0
  0
LINE
  5
1CB5
102
{ACAD_REACTORS
330
1D05
102
}
330
A
100
AcDbEntity
  8
ear
  6
Continuous
100
AcDbLine
 10
233.2514489999999
 20
475.5603780755621
 30
0.0
 11
237.2514489999999
 21
475.5603780755621
 31
0.0
  0
LINE
  5
1CB6
102
{ACAD_REACTORS
330
1D05
102
}
330
A
100
AcDbEntity
  8
ear
  6
Continuous
100
AcDbLine
 10
233.2514489999999
 20
468.5603780755624
 30
0.0
 11
237.2514489999999
 21
468.5603780755624
 31
0.0
  0
LINE
  5
1CB7
102
{ACAD_REACTORS
330
1D05
102
}
330
A
100
AcDbEntity
  8
ear
  6
CENTER
 48
0.2
100
AcDbLine
 10
241.7514489999999
 20
472.0603780755622
 30
0.0
 11
228.7514489999999
 21
472.0603780755622
 31
0.0
  0
ARC
  5
1CB8
102
{ACAD_REACTORS
330
1D05
102
}
330
A
100
AcDbEntity
  8
ear
  6
Continuous
100
AcDbCircle
 10
233.2514489999999
 20
472.0603780755622
 30
0.0
 40
3.5
100
AcDbArc
 50
90.0
 51
270.0
  0
ARC
  5
1CB9
102
{ACAD_REACTORS
330
1D05
102
}
330
A
100
AcDbEntity
  8
ear
  6
Continuous
100
AcDbCircle
 10
237.2514489999999
 20
472.0603780755622
 30
0.0
 40
3.5
100
AcDbArc
 50
270.0
 51
90.0
  0
LINE
  5
1CBA
102
{ACAD_REACTORS
330
1D05
102
}
330
A
100
AcDbEntity
  8
ear
  6
Continuous
100
AcDbLine
 10
243.2514489999999
 20
467.9353780755623
 30
0.0
 11
241.2514489999999
 21
465.9353780755624
 31
0.0
  0
LINE
  5
1CBB
102
{ACAD_REACTORS
330
1D05
102
}
330
A
100
AcDbEntity
  8
ear
  6
Continuous
100
AcDbLine
 10
233.2514489999999
 20
507.3103780755623
 30
0.0
 11
237.2514489999999
 21
507.3103780755623
 31
0.0
  0
LINE
  5
1CBC
102
{ACAD_REACTORS
330
1D05
102
}
330
A
100
AcDbEntity
  8
ear
  6
CENTER
 48
0.2
100
AcDbLine
 10
241.7514489999999
 20
503.8103780755623
 30
0.0
 11
228.7514489999999
 21
503.8103780755623
 31
0.0
  0
LINE
  5
1CBD
102
{ACAD_REACTORS
330
1D05
102
}
330
A
100
AcDbEntity
  8
ear
  6
Continuous
100
AcDbLine
 10
233.2514489999999
 20
500.3103780755623
 30
0.0
 11
237.2514489999999
 21
500.3103780755623
 31
0.0
  0
ARC
  5
1CBE
102
{ACAD_REACTORS
330
1D05
102
}
330
A
100
AcDbEntity
  8
ear
  6
Continuous
100
AcDbCircle
 10
233.2514489999999
 20
503.8103780755623
 30
0.0
 40
3.5
100
AcDbArc
 50
90.0
 51
270.0
  0
ARC
  5
1CBF
102
{ACAD_REACTORS
330
1D05
102
}
330
A
100
AcDbEntity
  8
ear
  6
Continuous
100
AcDbCircle
 10
237.2514489999999
 20
503.8103780755623
 30
0.0
 40
3.5
100
AcDbArc
 50
270.0
 51
90.0
  0
LINE
  5
1CC0
102
{ACAD_REACTORS
330
1D05
102
}
330
A
100
AcDbEntity
  8
ear
  6
Continuous
100
AcDbLine
 10
241.2514489999999
 20
509.9353780755623
 30
0.0
 11
243.2514489999999
 21
507.9353780755623
 31
0.0
  0
LINE
  5
1CC1
102
{ACAD_REACTORS
330
1D06
102
}
330
A
100
AcDbEntity
  8
ear
  6
Continuous
100
AcDbLine
 10
4.251448999999978
 20
271.2657594576346
 30
0.0
 11
243.2514489999999
 21
271.2657594576346
 31
0.0
  0
LINE
  5
1CC2
102
{ACAD_REACTORS
330
1D06
102
}
330
A
100
AcDbEntity
  8
ear
  6
Continuous
100
AcDbLine
 10
4.251448999999978
 20
269.2657594576346
 30
0.0
 11
243.2514489999999
 21
269.2657594576346
 31
0.0
  0
LINE
  5
1CC3
102
{ACAD_REACTORS
330
1D06
102
}
330
A
100
AcDbEntity
  8
ear
  6
Continuous
100
AcDbLine
 10
4.251448999999978
 20
296.2657594576345
 30
0.0
 11
4.251448999999978
 21
271.2657594576346
 31
0.0
  0
LINE
  5
1CC4
102
{ACAD_REACTORS
330
1D06
102
}
330
A
100
AcDbEntity
  8
ear
  6
Continuous
100
AcDbLine
 10
2.251448999999979
 20
296.2657594576345
 30
0.0
 11
2.251448999999979
 21
271.2657594576346
 31
0.0
  0
ARC
  5
1CC5
102
{ACAD_REACTORS
330
1D06
102
}
330
A
100
AcDbEntity
  8
ear
  6
Continuous
100
AcDbCircle
 10
4.251448999999978
 20
271.2657594576346
 30
0.0
 40
2.0
100
AcDbArc
 50
180.0
 51
270.0
  0
ARC
  5
1CC6
102
{ACAD_REACTORS
330
1D06
102
}
330
A
100
AcDbEntity
  8
ear
  6
Continuous
100
AcDbCircle
 10
-1.248550910602715
 20
286.2667511079911
 30
0.0
 40
8.0
100
AcDbArc
 50
330.6166305671823
 51
29.36270856718326
  0
ARC
  5
1CC7
102
{ACAD_REACTORS
330
1D06
102
}
330
A
100
AcDbEntity
  8
ear
  6
Continuous
100
AcDbCircle
 10
5.251899733907976
 20
288.7655791169346
 30
0.0
 40
1.5
100
AcDbArc
 50
71.66677456718097
 51
131.799984567183
  0
ARC
  5
1CC8
102
{ACAD_REACTORS
330
1D06
102
}
330
A
100
AcDbEntity
  8
ear
  6
Continuous
100
AcDbCircle
 10
5.250998233583686
 20
283.7655791982043
 30
0.0
 40
1.5
100
AcDbArc
 50
228.1793545671841
 51
288.3125645671806
  0
LINE
  5
1CC9
102
{ACAD_REACTORS
330
1D06
102
}
330
A
100
AcDbEntity
  8
ear
  6
Continuous
100
AcDbLine
 10
4.252101331764606
 20
289.8837933988263
 30
0.0
 11
4.250796668235238
 21
282.6477255164421
 31
0.0
  0
LINE
  5
1CCA
102
{ACAD_REACTORS
330
1D06
102
}
330
A
100
AcDbEntity
  8
ear
  6
Continuous
100
AcDbLine
 10
2.251448999999979
 20
294.2657594576346
 30
0.0
 11
4.251448999999978
 21
294.2657594576346
 31
0.0
  0
LINE
  5
1CCB
102
{ACAD_REACTORS
330
1D06
102
}
330
A
100
AcDbEntity
  8
ear
  6
Continuous
100
AcDbLine
 10
2.251448999999979
 20
296.2657594576345
 30
0.0
 11
4.251448999999978
 21
296.2657594576345
 31
0.0
  0
LINE
  5
1CCC
102
{ACAD_REACTORS
330
1D06
102
}
330
A
100
AcDbEntity
  8
ear
  6
Continuous
100
AcDbLine
 10
241.2514489999999
 20
271.2657594576346
 30
0.0
 11
241.2514489999999
 21
269.2657594576346
 31
0.0
  0
LINE
  5
1CCD
102
{ACAD_REACTORS
330
1D06
102
}
330
A
100
AcDbEntity
  8
ear
  6
Continuous
100
AcDbLine
 10
243.2514489999999
 20
271.2657594576346
 30
0.0
 11
243.2514489999999
 21
269.2657594576346
 31
0.0
  0
LINE
  5
1CCE
102
{ACAD_REACTORS
330
1D07
102
}
330
A
100
AcDbEntity
  8
ear
  6
CENTER
 48
0.5
100
AcDbLine
 10
235.2514489999999
 20
226.6382674483009
 30
0.0
 11
235.2514489999999
 21
185.8882674483006
 31
0.0
  0
ARC
  5
1CCF
102
{ACAD_REACTORS
330
1D07
102
}
330
A
100
AcDbEntity
  8
ear
  6
Continuous
100
AcDbCircle
 10
237.2514489999999
 20
190.3882674483007
 30
0.0
 40
3.5
100
AcDbArc
 50
270.0
 51
90.0
  0
ARC
  5
1CD0
102
{ACAD_REACTORS
330
1D07
102
}
330
A
100
AcDbEntity
  8
ear
  6
Continuous
100
AcDbCircle
 10
233.2514489999999
 20
190.3882674483007
 30
0.0
 40
3.5
100
AcDbArc
 50
90.0
 51
270.0
  0
LINE
  5
1CD1
102
{ACAD_REACTORS
330
1D07
102
}
330
A
100
AcDbEntity
  8
ear
  6
Continuous
100
AcDbLine
 10
243.2514489999999
 20
226.2632674483007
 30
0.0
 11
243.2514489999999
 21
186.2632674483007
 31
0.0
  0
LINE
  5
1CD2
102
{ACAD_REACTORS
330
1D07
102
}
330
A
100
AcDbEntity
  8
ear
  6
Continuous
100
AcDbLine
 10
2.251448999999979
 20
228.2632674483007
 30
0.0
 11
2.251448999999979
 21
184.2632674483009
 31
0.0
  0
LINE
  5
1CD3
102
{ACAD_REACTORS
330
1D07
102
}
330
A
100
AcDbEntity
  8
ear
  6
Continuous
100
AcDbLine
 10
2.251448999999979
 20
184.2632674483009
 30
0.0
 11
241.2514489999999
 21
184.2632674483009
 31
0.0
  0
LINE
  5
1CD4
102
{ACAD_REACTORS
330
1D07
102
}
330
A
100
AcDbEntity
  8
ear
  6
Continuous
100
AcDbLine
 10
233.2514489999999
 20
186.8882674483007
 30
0.0
 11
237.2514489999999
 21
186.8882674483007
 31
0.0
  0
LINE
  5
1CD5
102
{ACAD_REACTORS
330
1D07
102
}
330
A
100
AcDbEntity
  8
ear
  6
Continuous
100
AcDbLine
 10
243.2514489999999
 20
186.2632674483007
 30
0.0
 11
241.2514489999999
 21
184.2632674483009
 31
0.0
  0
LINE
  5
1CD6
102
{ACAD_REACTORS
330
1D07
102
}
330
A
100
AcDbEntity
  8
ear
  6
Continuous
100
AcDbLine
 10
2.251448999999979
 20
228.2632674483007
 30
0.0
 11
241.2514489999999
 21
228.2632674483007
 31
0.0
  0
LINE
  5
1CD7
102
{ACAD_REACTORS
330
1D07
102
}
330
A
100
AcDbEntity
  8
ear
  6
CENTER
 48
0.2
100
AcDbLine
 10
241.7514489999999
 20
222.1382674483009
 30
0.0
 11
228.7514489999999
 21
222.1382674483009
 31
0.0
  0
LINE
  5
1CD8
102
{ACAD_REACTORS
330
1D07
102
}
330
A
100
AcDbEntity
  8
ear
  6
Continuous
100
AcDbLine
 10
233.2514489999999
 20
218.6382674483006
 30
0.0
 11
237.2514489999999
 21
218.6382674483006
 31
0.0
  0
LINE
  5
1CD9
102
{ACAD_REACTORS
330
1D07
102
}
330
A
100
AcDbEntity
  8
ear
  6
Continuous
100
AcDbLine
 10
233.2514489999999
 20
225.6382674483005
 30
0.0
 11
237.2514489999999
 21
225.6382674483005
 31
0.0
  0
LINE
  5
1CDA
102
{ACAD_REACTORS
330
1D07
102
}
330
A
100
AcDbEntity
  8
ear
  6
CENTER
 48
0.2
100
AcDbLine
 10
241.7514489999999
 20
190.3882674483007
 30
0.0
 11
228.7514489999999
 21
190.3882674483007
 31
0.0
  0
LINE
  5
1CDB
102
{ACAD_REACTORS
330
1D07
102
}
330
A
100
AcDbEntity
  8
ear
  6
Continuous
100
AcDbLine
 10
233.2514489999999
 20
193.8882674483006
 30
0.0
 11
237.2514489999999
 21
193.8882674483006
 31
0.0
  0
ARC
  5
1CDC
102
{ACAD_REACTORS
330
1D07
102
}
330
A
100
AcDbEntity
  8
ear
  6
Continuous
100
AcDbCircle
 10
233.2514489999999
 20
222.1382674483009
 30
0.0
 40
3.5
100
AcDbArc
 50
90.0
 51
270.0
  0
LINE
  5
1CDD
102
{ACAD_REACTORS
330
1D07
102
}
330
A
100
AcDbEntity
  8
ear
  6
Continuous
100
AcDbLine
 10
241.2514489999999
 20
228.2632674483007
 30
0.0
 11
243.2514489999999
 21
226.2632674483007
 31
0.0
  0
ARC
  5
1CDE
102
{ACAD_REACTORS
330
1D07
102
}
330
A
100
AcDbEntity
  8
ear
  6
Continuous
100
AcDbCircle
 10
237.2514489999999
 20
222.1382674483009
 30
0.0
 40
3.5
100
AcDbArc
 50
270.0
 51
90.0
  0
DIMENSION
  5
1CDF
102
{ACAD_REACTORS
330
1D07
102
}
330
A
100
AcDbEntity
  8
寸法
  6
Continuous
100
AcDbDimension
  2
*D14
 10
234.656908719147
 20
192.7373865876871
 30
0.0
 11
286.5808841052601
 21
165.6768095051889
 31
0.0
 70
   163
  1
4-10×<>(長丸)
 71
     5
 42
7.000000000000027
  3
ARTICS
100
AcDbDiametricDimension
 15
239.8459892808528
 25
188.0391483089143
 35
0.0
 40
0.0
1001
ACAD
1000
DSTYLE
1002
{
1070
   141
1040
0.0
1070
   172
1070
     0
1002
}
  0
DIMENSION
  5
1CE0
330
A
100
AcDbEntity
  8
寸法
  6
Continuous
100
AcDbDimension
  2
*D15
 10
243.2514489999999
 20
164.7895167399098
 30
0.0
 11
122.7514489999999
 21
170.3599289710074
 31
0.0
 70
   160
  1
<>
 71
     5
 42
241.0
  3
ARTICS
100
AcDbAlignedDimension
 13
2.251448999999979
 23
184.2632674483009
 33
0.0
 14
243.2514489999999
 24
184.955815718669
 34
0.0
100
AcDbRotatedDimension
1001
ACAD
1000
DSTYLE
1002
{
1070
   140
1040
8.0
1070
   279
1070
     2
1070
   340
1005
3E4
1002
}
  0
ARC
  5
1D21
330
A
100
AcDbEntity
  8
本体
  6
Continuous
 62
    84
100
AcDbCircle
 10
-3.548550999999946
 20
487.9353780755621
 30
0.0
 40
7.799999999999998
100
AcDbArc
 50
337.3801300000002
 51
22.61985999999959
  0
ARC
  5
1D22
330
A
100
AcDbEntity
  8
本体
  6
Continuous
 62
    84
100
AcDbCircle
 10
2.951449000000053
 20
486.0603780755623
 30
0.0
 40
1.324999999999999
100
AcDbArc
 50
238.1092079999992
 51
301.8907899999987
  0
ARC
  5
1D23
330
A
100
AcDbEntity
  8
本体
  6
Continuous
 62
    84
100
AcDbCircle
 10
2.951449000000053
 20
489.8103780755623
 30
0.0
 40
1.324999999999999
100
AcDbArc
 50
58.10920000000042
 51
121.8907899999986
  0
ARC
  5
1D24
330
A
100
AcDbEntity
  8
本体
  6
Continuous
 62
    84
100
AcDbCircle
 10
2.946449000000143
 20
392.3937594576345
 30
0.0
 40
1.324999999999999
100
AcDbArc
 50
238.1092079999992
 51
301.8907899999987
  0
ARC
  5
1D25
330
A
100
AcDbEntity
  8
本体
  6
Continuous
 62
    84
100
AcDbCircle
 10
2.946449000000143
 20
396.1437594576345
 30
0.0
 40
1.324999999999999
100
AcDbArc
 50
58.10920000000042
 51
121.8907899999986
  0
ARC
  5
1D26
330
A
100
AcDbEntity
  8
本体
  6
Continuous
 62
    84
100
AcDbCircle
 10
-3.553550999999856
 20
394.2687594576345
 30
0.0
 40
7.799999999999998
100
AcDbArc
 50
337.3801300000002
 51
22.61985999999959
  0
VIEWPORT
  5
EDA
330
ED3
100
AcDbEntity
 67
     1
  8
0
  6
Continuous
100
AcDbViewport
 10
589.6838510141813
 20
282.1296193127998
 30
0.0
 40
1360.794896718107
 41
678.1419872042723
 68
     1
 69
     1
 12
589.6838510141813
 22
282.1296193127998
 13
0.0
 23
0.0
 14
10.0
 24
10.0
 15
10.0
 25
10.0
 16
0.0
 26
0.0
 36
1.0
 17
0.0
 27
0.0
 37
0.0
 42
50.0
 43
0.0
 44
0.0
 45
678.1419872042723
 50
0.0
 51
0.0
 72
   100
 90
    32800
  1

281
     0
 71
     1
 74
     0
110
0.0
120
0.0
130
0.0
111
1.0
121
0.0
131
0.0
112
0.0
122
1.0
132
0.0
 79
     0
146
0.0
  0
VIEWPORT
  5
EDC
330
ED3
100
AcDbEntity
 67
     1
  8
DEFPOINTS
  6
Continuous
100
AcDbViewport
 10
204.3821684669572
 20
309.1239178220781
 30
0.0
 40
408.319122392205
 41
525.3404735971537
 68
     2
 69
     2
 12
12.91478105103917
 22
515.6935947894226
 13
0.0
 23
0.0
 14
1.0
 24
1.0
 15
0.0
 25
0.0
 16
0.0
 26
0.0
 36
1.0
 17
0.0
 27
0.0
 37
0.0
 42
50.0
 43
0.0
 44
0.0
 45
1050.680950240574
 50
0.0
 51
0.0
 72
   100
 90
    32800
  1

281
     0
 71
     1
 74
     0
110
0.0
120
0.0
130
0.0
111
1.0
121
0.0
131
0.0
112
0.0
122
1.0
132
0.0
 79
     0
146
0.0
  0
INSERT
  5
F88
330
ED3
100
AcDbEntity
 67
     1
  8
0
  6
Continuous
100
AcDbBlockReference
  2
A2zuwaku_tate_ban
 10
5.30156102616138
 20
9.885471471594199
 30
0.0
  0
MTEXT
  5
F94
330
ED3
100
AcDbEntity
 67
     1
  8
0
  6
Continuous
 62
     4
100
AcDbMText
 10
317.6849902910776
 20
26.41140757375671
 30
0.0
 40
3.0
 41
86.17259999999998
 71
     1
 72
     5
  1
ＰＲＤ－１０１ １台ラック取付外観図（ＥＩＡ）
 73
     1
 44
1.0
  0
MTEXT
  5
F95
330
ED3
100
AcDbEntity
 67
     1
  8
0
  6
Continuous
 62
     4
100
AcDbMText
 10
236.1768066833501
 20
28.97142084054678
 30
0.0
 40
2.5
 41
19.7255
 71
     1
 72
     5
  1
2011.02.09
 73
     1
 44
1.0
  0
MTEXT
  5
F97
330
ED3
100
AcDbEntity
 67
     1
  8
0
  6
Continuous
 62
     4
100
AcDbMText
 10
298.8347240240845
 20
34.10356774183002
 30
0.0
 40
4.1656
 41
13.0798
 71
     1
 72
     5
  1
１／２
 73
     1
 44
1.0
  0
ENDSEC
  0
SECTION
  2
OBJECTS
  0
DICTIONARY
  5
19
330
0
100
AcDbDictionary
281
     1
  3
ACAD_GROUP
350
1A
  3
ACAD_LAYOUT
350
3E7
  3
ACAD_MLINESTYLE
350
1B
  3
ACAD_PLOTSETTINGS
350
3E8
  3
ACAD_PLOTSTYLENAME
350
3E5
  3
AcadDim
350
CFA
  0
DICTIONARY
  5
1A
102
{ACAD_REACTORS
330
19
102
}
330
19
100
AcDbDictionary
281
     1
  3
*A1
350
1D05
  3
*A2
350
1D06
  3
*A3
350
1D07
  0
DICTIONARY
  5
3E7
102
{ACAD_REACTORS
330
19
102
}
330
19
100
AcDbDictionary
281
     1
  3
Model
350
3E9
  3
ラック取付外観図
350
ED4
  0
DICTIONARY
  5
1B
102
{ACAD_REACTORS
330
19
102
}
330
19
100
AcDbDictionary
281
     1
  3
STANDARD
350
1C
  0
DICTIONARY
  5
3E8
102
{ACAD_REACTORS
330
19
102
}
330
19
100
AcDbDictionary
281
     1
  0
ACDBDICTIONARYWDFLT
  5
3E5
102
{ACAD_REACTORS
330
19
102
}
330
19
100
AcDbDictionary
281
     1
  3
Normal
350
3E6
100
AcDbDictionaryWithDefault
340
3E6
  0
XRECORD
  5
CFA
102
{ACAD_REACTORS
330
19
102
}
330
19
100
AcDbXrecord
280
     1
 90
   990106
  3

 60
     0
 61
     0
 62
     1
 63
     3
 64
     1
 65
     0
 66
     0
 67
     3
 68
     1
 69
     0
 70
     0
 71
     0
 72
     0
 40
0.0
170
     2
340
1927
  0
GROUP
  5
1D05
102
{ACAD_REACTORS
330
1A
102
}
330
1A
100
AcDbGroup
300

 70
     1
 71
     1
340
1CA6
340
1CA5
340
1CAD
340
1CAA
340
1CA9
340
1CA8
340
1CAC
340
1CAB
340
1CAF
340
1CAE
340
1CA7
340
1CB0
340
1CB2
340
1CB1
340
1CB9
340
1CB8
340
1CB4
340
1CB3
340
1CB7
340
1CB6
340
1CBA
340
1CB5
340
1CBF
340
1CBC
340
1CBE
340
1CBD
340
1CBB
340
1CC0
  0
GROUP
  5
1D06
102
{ACAD_REACTORS
330
1A
102
}
330
1A
100
AcDbGroup
300

 70
     1
 71
     1
340
1CC2
340
1CC1
340
1CC4
340
1CC3
340
1CC5
340
1CCA
340
1CC9
340
1CC8
340
1CC7
340
1CC6
340
1CCB
340
1CCD
340
1CCC
  0
GROUP
  5
1D07
102
{ACAD_REACTORS
330
1A
102
}
330
1A
100
AcDbGroup
300

 70
     1
 71
     1
340
1CD6
340
1CD3
340
1CD2
340
1CD1
340
1CD0
340
1CCF
340
1CCE
340
1CDA
340
1CD4
340
1CD5
340
1CDB
340
1CD7
340
1CDE
340
1CDC
340
1CD9
340
1CD8
340
1CDD
340
1CDF
  0
LAYOUT
  5
3E9
102
{ACAD_REACTORS
330
3E7
102
}
330
3E7
100
AcDbPlotSettings
  1

  2
NEC MULTINA ALPHA3520/2520/1820
  4

  6

 40
0.0
 41
0.0
 42
0.0
 43
0.0
 44
0.0
 45
0.0
 46
0.0
 47
0.0
 48
0.0
 49
0.0
140
0.0
141
0.0
142
1.0
143
1.0
 70
 11952
 72
     0
 73
     1
 74
     0
  7

 75
     0
147
1.0
148
4772.442760125988
149
9398.724200973246
100
AcDbLayout
  1
Model
 70
     1
 71
     0
 10
0.0
 20
0.0
 11
12.0
 21
9.0
 12
0.0
 22
0.0
 32
0.0
 14
0.0
 24
0.0
 34
0.0
 15
0.0
 25
0.0
 35
0.0
146
0.0
 13
0.0
 23
0.0
 33
0.0
 16
1.0
 26
0.0
 36
0.0
 17
0.0
 27
1.0
 37
0.0
 76
     0
330
A
  0
LAYOUT
  5
ED4
102
{ACAD_REACTORS
330
3E7
102
}
330
3E7
100
AcDbPlotSettings
  1

  2
Acrobat Distiller.pc3
  4
User66
  6

 40
3.174999952316281
 41
3.174999952316281
 42
3.17498779296875
 43
3.17498779296875
 44
420.0
 45
594.0
 46
0.0
 47
0.0
 48
0.0
 49
0.0
140
0.0
141
0.0
142
1.0
143
1.0
 70
   688
 72
     1
 73
     0
 74
     5
  7
black.ctb
 75
    16
147
1.0
148
0.0
149
0.0
100
AcDbLayout
  1
ラック取付外観図
 70
     1
 71
     1
 10
-3.174999952316281
 20
-3.174999952316281
 11
416.8250000476836
 21
590.8250000476837
 12
0.0
 22
0.0
 32
0.0
 14
0.2226072708546951
 24
5.709621471594195
 34
0.0
 15
412.7015610261612
 25
571.794154620655
 35
0.0
146
0.0
 13
0.0
 23
0.0
 33
0.0
 16
1.0
 26
0.0
 36
0.0
 17
0.0
 27
1.0
 37
0.0
 76
     0
330
ED3
331
EDA
  0
MLINESTYLE
  5
1C
102
{ACAD_REACTORS
330
1B
102
}
330
1B
100
AcDbMlineStyle
  2
STANDARD
 70
     0
  3

 62
     0
 51
90.0
 52
90.0
 71
     2
 49
0.5
 62
   256
  6
BYLAYER
 49
-0.5
 62
   256
  6
BYLAYER
  0
ACDBPLACEHOLDER
  5
3E6
102
{ACAD_REACTORS
330
3E5
102
}
330
3E5
  0
ENDSEC
  0
EOF
