  0
SECTION
  2
HEADER
  9
$ACADVER
  1
AC1015
  9
$ACADMAINTVER
 70
     6
  9
$DWGCODEPAGE
  3
ANSI_932
  9
$INSBASE
 10
0.0
 20
0.0
 30
0.0
  9
$EXTMIN
 10
-302.6270233345953
 20
117.1006756655794
 30
-0.00000001
  9
$EXTMAX
 10
340.5547542826634
 20
641.3508207631207
 30
0.00000001
  9
$LIMMIN
 10
-202.0
 20
-141.4
  9
$LIMMAX
 10
202.0
 20
141.4
  9
$ORTHOMODE
 70
     1
  9
$REGENMODE
 70
     1
  9
$FILLMODE
 70
     1
  9
$QTEXTMODE
 70
     0
  9
$MIRRTEXT
 70
     1
  9
$LTSCALE
 40
1.0
  9
$ATTMODE
 70
     1
  9
$TEXTSIZE
 40
4.1656
  9
$TRACEWID
 40
0.05
  9
$TEXTSTYLE
  7
MX_NOTE_STANDARD
  9
$CLAYER
  8
本体
  9
$CELTYPE
  6
CONTINUOUS
  9
$CECOLOR
 62
    84
  9
$CELTSCALE
 40
1.0
  9
$DISPSILH
 70
     0
  9
$DIMSCALE
 40
1.0
  9
$DIMASZ
 40
4.0
  9
$DIMEXO
 40
1.0
  9
$DIMDLI
 40
0.0
  9
$DIMRND
 40
0.0
  9
$DIMDLE
 40
0.0
  9
$DIMEXE
 40
1.0
  9
$DIMTP
 40
0.0
  9
$DIMTM
 40
0.0
  9
$DIMTXT
 40
4.1656
  9
$DIMCEN
 40
2.5
  9
$DIMTSZ
 40
0.0
  9
$DIMTOL
 70
     0
  9
$DIMLIM
 70
     0
  9
$DIMTIH
 70
     0
  9
$DIMTOH
 70
     1
  9
$DIMSE1
 70
     0
  9
$DIMSE2
 70
     0
  9
$DIMTAD
 70
     1
  9
$DIMZIN
 70
     8
  9
$DIMBLK
  1
OPEN30
  9
$DIMASO
 70
     1
  9
$DIMSHO
 70
     1
  9
$DIMPOST
  1

  9
$DIMAPOST
  1

  9
$DIMALT
 70
     0
  9
$DIMALTD
 70
     4
  9
$DIMALTF
 40
0.0394
  9
$DIMLFAC
 40
1.0
  9
$DIMTOFL
 70
     1
  9
$DIMTVP
 40
0.0
  9
$DIMTIX
 70
     0
  9
$DIMSOXD
 70
     0
  9
$DIMSAH
 70
     0
  9
$DIMBLK1
  1

  9
$DIMBLK2
  1

  9
$DIMSTYLE
  2
ARTICS
  9
$DIMCLRD
 70
     0
  9
$DIMCLRE
 70
     0
  9
$DIMCLRT
 70
     6
  9
$DIMTFAC
 40
1.0
  9
$DIMGAP
 40
1.0
  9
$DIMJUST
 70
     0
  9
$DIMSD1
 70
     0
  9
$DIMSD2
 70
     0
  9
$DIMTOLJ
 70
     1
  9
$DIMTZIN
 70
     0
  9
$DIMALTZ
 70
     0
  9
$DIMALTTZ
 70
     0
  9
$DIMUPT
 70
     1
  9
$DIMDEC
 70
     1
  9
$DIMTDEC
 70
     1
  9
$DIMALTU
 70
     8
  9
$DIMALTTD
 70
     4
  9
$DIMTXSTY
  7
MX_NOTE_STANDARD
  9
$DIMAUNIT
 70
     0
  9
$DIMADEC
 70
     0
  9
$DIMALTRND
 40
0.0
  9
$DIMAZIN
 70
     0
  9
$DIMDSEP
 70
    46
  9
$DIMATFIT
 70
     3
  9
$DIMFRAC
 70
     0
  9
$DIMLDRBLK
  1
OPEN30
  9
$DIMLUNIT
 70
     2
  9
$DIMLWD
 70
    13
  9
$DIMLWE
 70
    13
  9
$DIMTMOVE
 70
     0
  9
$LUNITS
 70
     2
  9
$LUPREC
 70
     4
  9
$SKETCHINC
 40
0.1
  9
$FILLETRAD
 40
2.0
  9
$AUNITS
 70
     0
  9
$AUPREC
 70
     0
  9
$MENU
  1
acad
  9
$ELEVATION
 40
0.0
  9
$PELEVATION
 40
0.0
  9
$THICKNESS
 40
0.0
  9
$LIMCHECK
 70
     0
  9
$CHAMFERA
 40
2.0
  9
$CHAMFERB
 40
2.0
  9
$CHAMFERC
 40
0.0
  9
$CHAMFERD
 40
0.0
  9
$SKPOLY
 70
     0
  9
$TDCREATE
 40
2453938.465266203
  9
$TDUCREATE
 40
2453938.090266203
  9
$TDUPDATE
 40
2455602.471217083
  9
$TDUUPDATE
 40
2455602.096217083
  9
$TDINDWG
 40
0.2899998380
  9
$TDUSRTIMER
 40
0.2899772106
  9
$USRTIMER
 70
     1
  9
$ANGBASE
 50
0.0
  9
$ANGDIR
 70
     0
  9
$PDMODE
 70
     0
  9
$PDSIZE
 40
0.0
  9
$PLINEWID
 40
0.0
  9
$SPLFRAME
 70
     0
  9
$SPLINETYPE
 70
     6
  9
$SPLINESEGS
 70
     8
  9
$HANDSEED
  5
2AEF
  9
$SURFTAB1
 70
     6
  9
$SURFTAB2
 70
     6
  9
$SURFTYPE
 70
     6
  9
$SURFU
 70
     6
  9
$SURFV
 70
     6
  9
$UCSBASE
  2

  9
$UCSNAME
  2

  9
$UCSORG
 10
0.0
 20
0.0
 30
0.0
  9
$UCSXDIR
 10
1.0
 20
0.0
 30
0.0
  9
$UCSYDIR
 10
0.0
 20
1.0
 30
0.0
  9
$UCSORTHOREF
  2

  9
$UCSORTHOVIEW
 70
     0
  9
$UCSORGTOP
 10
0.0
 20
0.0
 30
0.0
  9
$UCSORGBOTTOM
 10
0.0
 20
0.0
 30
0.0
  9
$UCSORGLEFT
 10
0.0
 20
0.0
 30
0.0
  9
$UCSORGRIGHT
 10
0.0
 20
0.0
 30
0.0
  9
$UCSORGFRONT
 10
0.0
 20
0.0
 30
0.0
  9
$UCSORGBACK
 10
0.0
 20
0.0
 30
0.0
  9
$PUCSBASE
  2

  9
$PUCSNAME
  2

  9
$PUCSORG
 10
0.0
 20
0.0
 30
0.0
  9
$PUCSXDIR
 10
1.0
 20
0.0
 30
0.0
  9
$PUCSYDIR
 10
0.0
 20
1.0
 30
0.0
  9
$PUCSORTHOREF
  2

  9
$PUCSORTHOVIEW
 70
     0
  9
$PUCSORGTOP
 10
0.0
 20
0.0
 30
0.0
  9
$PUCSORGBOTTOM
 10
0.0
 20
0.0
 30
0.0
  9
$PUCSORGLEFT
 10
0.0
 20
0.0
 30
0.0
  9
$PUCSORGRIGHT
 10
0.0
 20
0.0
 30
0.0
  9
$PUCSORGFRONT
 10
0.0
 20
0.0
 30
0.0
  9
$PUCSORGBACK
 10
0.0
 20
0.0
 30
0.0
  9
$USERI1
 70
     0
  9
$USERI2
 70
     0
  9
$USERI3
 70
     0
  9
$USERI4
 70
     0
  9
$USERI5
 70
     0
  9
$USERR1
 40
0.0
  9
$USERR2
 40
0.0
  9
$USERR3
 40
0.0
  9
$USERR4
 40
0.0
  9
$USERR5
 40
0.0
  9
$WORLDVIEW
 70
     1
  9
$SHADEDGE
 70
     3
  9
$SHADEDIF
 70
    70
  9
$TILEMODE
 70
     0
  9
$MAXACTVP
 70
    16
  9
$PINSBASE
 10
0.0
 20
0.0
 30
0.0
  9
$PLIMCHECK
 70
     0
  9
$PEXTMIN
 10
0.2226072708546951
 20
5.709621471594195
 30
0.0
  9
$PEXTMAX
 10
412.7015610261612
 20
571.794154620655
 30
0.0
  9
$PLIMMIN
 10
-3.174999952316281
 20
-3.174999952316281
  9
$PLIMMAX
 10
416.8250000476836
 20
590.8250000476837
  9
$UNITMODE
 70
     0
  9
$VISRETAIN
 70
     0
  9
$PLINEGEN
 70
     1
  9
$PSLTSCALE
 70
     1
  9
$TREEDEPTH
 70
  3020
  9
$CMLSTYLE
  2
STANDARD
  9
$CMLJUST
 70
     0
  9
$CMLSCALE
 40
1.0
  9
$PROXYGRAPHICS
 70
     0
  9
$MEASUREMENT
 70
     1
  9
$CELWEIGHT
370
    -1
  9
$ENDCAPS
280
     0
  9
$JOINSTYLE
280
     0
  9
$LWDISPLAY
290
     0
  9
$INSUNITS
 70
     0
  9
$HYPERLINKBASE
  1

  9
$STYLESHEET
  1
BLACK.CTB
  9
$XEDIT
290
     1
  9
$CEPSNTYPE
380
     0
  9
$PSTYLEMODE
290
     1
  9
$FINGERPRINTGUID
  2
{9B98DE78-A00E-4527-9356-E4F62AD05E96}
  9
$VERSIONGUID
  2
{69229712-0BD6-4116-A25A-218608060BEF}
  9
$EXTNAMES
290
     1
  9
$PSVPSCALE
 40
0.0
  9
$OLESTARTUP
290
     0
  0
ENDSEC
  0
SECTION
  2
CLASSES
  0
CLASS
  1
LWPOLYLINE
  2
AcDbPolyline
  3
AutoCAD 2000
 90
    32768
280
     0
281
     1
  0
CLASS
  1
IMAGE
  2
AcDbRasterImage
  3
ISM
 90
    32895
280
     0
281
     1
  0
CLASS
  1
OLE2FRAME
  2
AcDbOle2Frame
  3
AutoCAD 2000
 90
    32768
280
     0
281
     1
  0
CLASS
  1
HATCH
  2
AcDbHatch
  3
AutoCAD 2000
 90
    32768
280
     0
281
     1
  0
CLASS
  1
DICTIONARYVAR
  2
AcDbDictionaryVar
  3
AutoCAD 2000
 90
    32768
280
     0
281
     0
  0
CLASS
  1
RASTERVARIABLES
  2
AcDbRasterVariables
  3
ISM
 90
    32768
280
     0
281
     0
  0
CLASS
  1
IMAGEDEF
  2
AcDbRasterImageDef
  3
ISM
 90
    32768
280
     0
281
     0
  0
CLASS
  1
IMAGEDEF_REACTOR
  2
AcDbRasterImageDefReactor
  3
ISM
 90
    32769
280
     0
281
     0
  0
CLASS
  1
IDBUFFER
  2
AcDbIdBuffer
  3
AutoCAD 2000
 90
    32768
280
     0
281
     0
  0
CLASS
  1
SPATIAL_FILTER
  2
AcDbSpatialFilter
  3
AutoCAD 2000
 90
    32768
280
     0
281
     0
  0
CLASS
  1
XRECORD
  2
AcDbXrecord
  3
AutoCAD 2000
 90
    32768
280
     0
281
     0
  0
CLASS
  1
SORTENTSTABLE
  2
AcDbSortentsTable
  3
AutoCAD 2000
 90
    32768
280
     0
281
     0
  0
CLASS
  1
LAYER_INDEX
  2
AcDbLayerIndex
  3
AutoCAD 2000
 90
    32768
280
     0
281
     0
  0
CLASS
  1
SPATIAL_INDEX
  2
AcDbSpatialIndex
  3
AutoCAD 2000
 90
    32768
280
     0
281
     0
  0
CLASS
  1
OBJECT_PTR
  2
CAseDLPNTableRecord
  3
"ASE-LPNTableRecord"
 90
    32769
280
     0
281
     0
  0
CLASS
  1
LAYOUT
  2
AcDbLayout
  3
AutoCAD 2000
 90
        0
280
     0
281
     0
  0
CLASS
  1
PLOTSETTINGS
  2
AcDbPlotSettings
  3
AutoCAD 2000
 90
    32768
280
     0
281
     0
  0
CLASS
  1
ACDBDICTIONARYWDFLT
  2
AcDbDictionaryWithDefault
  3
AutoCAD 2000
 90
        0
280
     0
281
     0
  0
CLASS
  1
ACDBPLACEHOLDER
  2
AcDbPlaceHolder
  3
AutoCAD 2000
 90
        0
280
     0
281
     0
  0
CLASS
  1
VBA_PROJECT
  2
AcDbVbaProject
  3
"acadvba"
 90
    32769
280
     0
281
     0
  0
CLASS
  1
WIPEOUT
  2
AcDbWipeout
  3
WipeOut|AutoCAD Express Tool|expresstools@autodesk.com
 90
    32895
280
     0
281
     1
  0
CLASS
  1
WIPEOUTVARIABLES
  2
AcDbWipeoutVariables
  3
WipeOut|AutoCAD Express Tool|expresstools@autodesk.com
 90
    32768
280
     0
281
     0
  0
CLASS
  1
RTEXT
  2
RText
  3
RText|AutoCAD Express Tool|expresstools@autodesk.com
 90
    32768
280
     0
281
     1
  0
CLASS
  1
ARCALIGNEDTEXT
  2
AcDbArcAlignedText
  3
ATEXT|AutoCAD Express Tool|expresstools@autodesk.com
 90
    32768
280
     0
281
     1
  0
ENDSEC
  0
SECTION
  2
TABLES
  0
TABLE
  2
VPORT
  5
7
330
0
100
AcDbSymbolTable
 70
     2
  0
VPORT
  5
2AEE
330
7
100
AcDbSymbolTableRecord
100
AcDbViewportTableRecord
  2
*Active
 70
     0
 10
0.0
 20
0.0
 11
1.0
 21
1.0
 12
-90.62024017841002
 22
528.196645561216
 13
0.0
 23
0.0
 14
1.0
 24
1.0
 15
0.0
 25
0.0
 16
0.0
 26
0.0
 36
1.0
 17
0.0
 27
0.0
 37
0.0
 40
207.5109644380922
 41
2.587662337662337
 42
50.0
 43
0.0
 44
0.0
 50
0.0
 51
0.0
 71
     0
 72
   100
 73
     1
 74
     1
 75
     0
 76
     0
 77
     0
 78
     0
281
     0
 65
     1
110
0.0
120
0.0
130
0.0
111
1.0
121
0.0
131
0.0
112
0.0
122
1.0
132
0.0
 79
     0
146
0.0
  0
ENDTAB
  0
TABLE
  2
LTYPE
  5
4
330
0
100
AcDbSymbolTable
 70
     3
  0
LTYPE
  5
11
330
4
100
AcDbSymbolTableRecord
100
AcDbLinetypeTableRecord
  2
BYBLOCK
 70
     0
  3

 72
    65
 73
     0
 40
0.0
  0
LTYPE
  5
12
330
4
100
AcDbSymbolTableRecord
100
AcDbLinetypeTableRecord
  2
BYLAYER
 70
     0
  3

 72
    65
 73
     0
 40
0.0
  0
LTYPE
  5
13
330
4
100
AcDbSymbolTableRecord
100
AcDbLinetypeTableRecord
  2
CONTINUOUS
 70
     0
  3
Solid line
 72
    65
 73
     0
 40
0.0
  0
LTYPE
  5
80
330
4
100
AcDbSymbolTableRecord
100
AcDbLinetypeTableRecord
  2
DASHED
 70
     0
  3
Dashed __ __ __ __ __ __ __ __ __ __ __ __ __ _
 72
    65
 73
     2
 40
19.05
 49
12.7
 74
     0
 49
-6.349999999999997
 74
     0
  0
LTYPE
  5
2C1
330
4
100
AcDbSymbolTableRecord
100
AcDbLinetypeTableRecord
  2
CENTER
 70
     0
  3
Center ____ _ ____ _ ____ _ ____ _ ____ _ ____
 72
    65
 73
     4
 40
50.8
 49
31.75
 74
     0
 49
-6.349999999999997
 74
     0
 49
6.349999999999997
 74
     0
 49
-6.349999999999997
 74
     0
  0
ENDTAB
  0
TABLE
  2
LAYER
  5
2
330
0
100
AcDbSymbolTable
 70
     7
  0
LAYER
  5
14
330
2
100
AcDbSymbolTableRecord
100
AcDbLayerTableRecord
  2
0
 70
     0
 62
     7
  6
CONTINUOUS
370
    -3
390
3E6
  0
LAYER
  5
1D
330
2
100
AcDbSymbolTableRecord
100
AcDbLayerTableRecord
  2
本体
 70
     0
 62
     7
  6
CONTINUOUS
370
    -3
390
3E6
  0
LAYER
  5
1E
330
2
100
AcDbSymbolTableRecord
100
AcDbLayerTableRecord
  2
DEFPOINTS
 70
     0
 62
     7
  6
CONTINUOUS
290
     0
370
    -3
390
3E6
  0
LAYER
  5
F98
330
2
100
AcDbSymbolTableRecord
100
AcDbLayerTableRecord
  2
ear
 70
     0
 62
   200
  6
CONTINUOUS
370
    -3
390
3E6
  0
LAYER
  5
FB4
330
2
100
AcDbSymbolTableRecord
100
AcDbLayerTableRecord
  2
寸法
 70
     0
 62
     7
  6
CONTINUOUS
370
    -3
390
3E6
  0
LAYER
  5
1A21
330
2
100
AcDbSymbolTableRecord
100
AcDbLayerTableRecord
  2
底面
 70
     0
 62
     7
  6
CONTINUOUS
370
    -3
390
3E6
  0
LAYER
  5
1ABB
330
2
100
AcDbSymbolTableRecord
100
AcDbLayerTableRecord
  2
1
 70
     0
 62
     7
  6
CONTINUOUS
370
    -3
390
3E6
  0
ENDTAB
  0
TABLE
  2
STYLE
  5
3
330
0
100
AcDbSymbolTable
 70
     2
  0
STYLE
  5
17
330
3
100
AcDbSymbolTableRecord
100
AcDbTextStyleTableRecord
  2
MX_NOTE_STANDARD
 70
     0
 40
4.1656
 41
1.0
 50
0.0
 71
     0
 42
4.1656
  3
txt.shx
  4
extfont.shx
  0
STYLE
  5
3E4
330
3
100
AcDbSymbolTableRecord
100
AcDbTextStyleTableRecord
  2
Standard
 70
     0
 40
0.0
 41
1.0
 50
0.0
 71
     0
 42
0.2
  3

  4

  0
ENDTAB
  0
TABLE
  2
VIEW
  5
5
330
0
100
AcDbSymbolTable
 70
     0
  0
ENDTAB
  0
TABLE
  2
UCS
  5
6
330
0
100
AcDbSymbolTable
 70
     0
  0
ENDTAB
  0
TABLE
  2
APPID
  5
8
330
0
100
AcDbSymbolTable
 70
     1
  0
APPID
  5
16
330
8
100
AcDbSymbolTableRecord
100
AcDbRegAppTableRecord
  2
ACAD
 70
     0
  0
ENDTAB
  0
TABLE
  2
DIMSTYLE
  5
9
330
0
100
AcDbSymbolTable
 70
     3
100
AcDbDimStyleTable
 71
     2
340
84C
340
18
  0
DIMSTYLE
105
18
330
9
100
AcDbSymbolTableRecord
100
AcDbDimStyleTableRecord
  2
MXDIMSTYLE
 70
     0
 41
2.5
 42
1.0
 43
3.75
 44
1.0
 73
     0
 74
     0
 77
     1
 78
     8
140
4.1656
141
2.5
143
0.0394
147
1.0
171
     4
172
     1
273
     8
274
     4
288
     1
340
17
  0
DIMSTYLE
105
84B
330
9
100
AcDbSymbolTableRecord
100
AcDbDimStyleTableRecord
  2
Standard
 70
     0
340
3E4
  0
DIMSTYLE
105
84C
102
{ACAD_REACTORS
330
293
330
2A2
330
2AF
330
2C0
330
E12
330
187B
330
18FC
330
2A72
330
2A81
102
}
330
9
100
AcDbSymbolTableRecord
100
AcDbDimStyleTableRecord
  2
ARTICS
 70
     0
 41
4.0
 42
1.0
 43
0.0
 44
1.0
 73
     0
 77
     1
 78
     8
140
4.1656
141
2.5
143
0.0394
147
1.0
171
     4
172
     1
178
     6
271
     1
272
     1
273
     8
274
     4
288
     1
340
17
341
26C
342
26C
371
    13
372
    13
  0
ENDTAB
  0
TABLE
  2
BLOCK_RECORD
  5
1
330
0
100
AcDbSymbolTable
 70
    20
  0
BLOCK_RECORD
  5
A
330
1
100
AcDbSymbolTableRecord
100
AcDbBlockTableRecord
  2
*MODEL_SPACE
340
3E9
  0
BLOCK_RECORD
  5
ED3
330
1
100
AcDbSymbolTableRecord
100
AcDbBlockTableRecord
  2
*Paper_Space
340
ED4
  0
BLOCK_RECORD
  5
26C
330
1
100
AcDbSymbolTableRecord
100
AcDbBlockTableRecord
  2
_OPEN30
340
0
102
{BLKREFS
331
8DC
331
8DD
331
8E5
331
8E6
331
8F9
331
8FA
331
916
331
917
331
EB3
331
EB4
331
EBC
331
EBD
331
F9C
331
F9D
331
FA5
331
FA6
331
FAE
331
FAF
331
FB8
331
FB9
331
FC1
331
FC2
331
FCC
331
FCD
331
FD5
331
FD6
331
FDE
331
FDF
331
FE7
331
FE8
331
FF2
331
FF3
331
FFB
331
FFC
331
1008
331
1009
331
1011
331
1012
331
101A
331
101B
331
1025
331
1026
331
1030
331
1031
331
1039
331
103A
331
1042
331
1043
331
104B
331
104C
331
1054
331
1055
331
185A
331
185B
331
1863
331
1864
331
186C
331
186D
331
1875
331
1876
331
1880
331
1881
331
188B
331
188C
331
1896
331
1897
331
18A1
331
18A2
331
18AC
331
18AD
331
18B5
331
18B6
331
18BE
331
18BF
331
18C7
331
18C8
331
18D0
331
18D1
331
18D9
331
18DA
331
18E2
331
18E3
331
18ED
331
18EE
331
18F6
331
18F7
331
1903
331
1904
331
190E
331
190F
331
1915
331
191D
331
1923
331
195F
331
1960
331
1A26
331
1A27
331
1A31
331
1A32
331
1A3B
331
1A3C
331
1A46
331
1A47
331
1A4F
331
1A50
331
1A5A
331
1A5B
331
1A63
331
1A6B
331
1A6C
331
1A74
331
1A75
331
1AA7
331
1AA8
331
1AB3
331
1AB4
331
21E2
331
21E3
331
21EE
331
21EF
331
21F9
331
21FA
331
2202
331
2203
331
220B
331
220C
331
2214
331
2215
331
221D
331
221E
331
2226
331
2227
331
222F
331
2230
331
2238
331
2239
331
2241
331
2242
331
224A
331
224B
331
2253
331
2254
331
269D
331
269E
331
26A6
331
26A7
331
26AF
331
26B0
331
26B8
331
26B9
331
26C1
331
26C2
331
26CA
331
26CB
331
26D3
331
26D4
331
28F9
331
28FA
331
2902
331
2903
331
290B
331
290C
331
2916
331
2917
331
2921
331
2922
331
2A01
331
29F6
331
29F7
331
2A86
331
2A90
331
2A91
331
2A9A
331
2AA1
331
2AA2
331
2AAD
331
2AAE
331
2AB5
331
2AC6
331
2AC7
331
2ACF
331
2AD0
331
2AD8
331
2AD9
102
}
  0
BLOCK_RECORD
  5
722
330
1
100
AcDbSymbolTableRecord
100
AcDbBlockTableRecord
  2
*D1
340
0
  0
BLOCK_RECORD
  5
72E
330
1
100
AcDbSymbolTableRecord
100
AcDbBlockTableRecord
  2
*D2
340
0
  0
BLOCK_RECORD
  5
75B
330
1
100
AcDbSymbolTableRecord
100
AcDbBlockTableRecord
  2
*D3
340
0
  0
BLOCK_RECORD
  5
767
330
1
100
AcDbSymbolTableRecord
100
AcDbBlockTableRecord
  2
*D4
340
0
  0
BLOCK_RECORD
  5
923
330
1
100
AcDbSymbolTableRecord
100
AcDbBlockTableRecord
  2
A3zuwaku_n
340
0
102
{BLKREFS
331
99A
102
}
  0
BLOCK_RECORD
  5
E62
330
1
100
AcDbSymbolTableRecord
100
AcDbBlockTableRecord
  2
*D6
340
0
  0
BLOCK_RECORD
  5
E6E
330
1
100
AcDbSymbolTableRecord
100
AcDbBlockTableRecord
  2
*D7
340
0
  0
BLOCK_RECORD
  5
EDD
330
1
100
AcDbSymbolTableRecord
100
AcDbBlockTableRecord
  2
A2zuwaku_tate_ban
340
0
102
{BLKREFS
331
F88
102
}
  0
BLOCK_RECORD
  5
1021
330
1
100
AcDbSymbolTableRecord
100
AcDbBlockTableRecord
  2
*D9
340
0
  0
BLOCK_RECORD
  5
187C
330
1
100
AcDbSymbolTableRecord
100
AcDbBlockTableRecord
  2
*D10
340
0
  0
BLOCK_RECORD
  5
18FD
330
1
100
AcDbSymbolTableRecord
100
AcDbBlockTableRecord
  2
*D11
340
0
  0
BLOCK_RECORD
  5
1AA3
330
1
100
AcDbSymbolTableRecord
100
AcDbBlockTableRecord
  2
*D12
340
0
  0
BLOCK_RECORD
  5
1AAF
330
1
100
AcDbSymbolTableRecord
100
AcDbBlockTableRecord
  2
*D13
340
0
  0
BLOCK_RECORD
  5
21DE
330
1
100
AcDbSymbolTableRecord
100
AcDbBlockTableRecord
  2
*D14
340
0
  0
BLOCK_RECORD
  5
21EA
330
1
100
AcDbSymbolTableRecord
100
AcDbBlockTableRecord
  2
*D15
340
0
  0
BLOCK_RECORD
  5
29F1
330
1
100
AcDbSymbolTableRecord
100
AcDbBlockTableRecord
  2
*D16
340
0
  0
BLOCK_RECORD
  5
29FD
330
1
100
AcDbSymbolTableRecord
100
AcDbBlockTableRecord
  2
*D17
340
0
  0
BLOCK_RECORD
  5
2A82
330
1
100
AcDbSymbolTableRecord
100
AcDbBlockTableRecord
  2
*D18
340
0
  0
BLOCK_RECORD
  5
2A8B
330
1
100
AcDbSymbolTableRecord
100
AcDbBlockTableRecord
  2
*D19
340
0
  0
ENDTAB
  0
ENDSEC
  0
SECTION
  2
BLOCKS
  0
BLOCK
  5
D
330
A
100
AcDbEntity
  8
0
100
AcDbBlockBegin
  2
*MODEL_SPACE
 70
     0
 10
0.0
 20
0.0
 30
0.0
  3
*MODEL_SPACE
  1

  0
ENDBLK
  5
E
330
A
100
AcDbEntity
  8
0
100
AcDbBlockEnd
  0
BLOCK
  5
ED5
330
ED3
100
AcDbEntity
 67
     1
  8
0
100
AcDbBlockBegin
  2
*Paper_Space
 70
     0
 10
0.0
 20
0.0
 30
0.0
  3
*Paper_Space
  1

  0
ENDBLK
  5
ED6
330
ED3
100
AcDbEntity
 67
     1
  8
0
100
AcDbBlockEnd
  0
BLOCK
  5
26D
330
26C
100
AcDbEntity
  8
0
  6
ByBlock
 62
     0
100
AcDbBlockBegin
  2
_OPEN30
 70
     2
 10
0.0
 20
0.0
 30
0.0
  3
_OPEN30
  1

  0
LINE
  5
26E
330
26C
100
AcDbEntity
  8
0
  6
ByBlock
 62
     0
100
AcDbLine
 10
-1.0
 20
0.267949
 30
0.0
 11
0.0
 21
0.0
 31
0.0
  0
LINE
  5
26F
330
26C
100
AcDbEntity
  8
0
  6
ByBlock
 62
     0
100
AcDbLine
 10
0.0
 20
0.0
 30
0.0
 11
-1.0
 21
-0.267949
 31
0.0
  0
LINE
  5
270
330
26C
100
AcDbEntity
  8
0
  6
ByBlock
 62
     0
100
AcDbLine
 10
0.0
 20
0.0
 30
0.0
 11
-1.0
 21
0.0
 31
0.0
  0
ENDBLK
  5
271
330
26C
100
AcDbEntity
  8
0
  6
ByBlock
 62
     0
100
AcDbBlockEnd
  0
BLOCK
  5
72C
330
722
100
AcDbEntity
  8
0
100
AcDbBlockBegin
  2
*D1
 70
     1
 10
0.0
 20
0.0
 30
0.0
  3
*D1
  1

  0
LINE
  5
26C7
330
722
100
AcDbEntity
  8
寸法
  6
Continuous
 62
     0
370
    13
100
AcDbLine
 10
-230.7485509999999
 20
184.8882674483005
 30
0.0
 11
-230.7485509999999
 21
140.4198676363743
 31
0.0
  0
LINE
  5
26C8
330
722
100
AcDbEntity
  8
寸法
  6
Continuous
 62
     0
370
    13
100
AcDbLine
 10
235.2514489999999
 20
184.8882674483005
 30
0.0
 11
235.2514489999999
 21
140.4198676363743
 31
0.0
  0
LINE
  5
26C9
330
722
100
AcDbEntity
  8
寸法
  6
Continuous
 62
     0
370
    13
100
AcDbLine
 10
-226.7485509999999
 20
141.4198676363743
 30
0.0
 11
231.2514489999999
 21
141.4198676363743
 31
0.0
  0
INSERT
  5
26CA
330
722
100
AcDbEntity
  8
寸法
  6
Continuous
 62
     0
370
    13
100
AcDbBlockReference
  2
_OPEN30
 10
-230.7485509999999
 20
141.4198676363743
 30
0.0
 41
4.0
 42
4.0
 43
4.0
 50
180.0
  0
INSERT
  5
26CB
330
722
100
AcDbEntity
  8
寸法
  6
Continuous
 62
     0
370
    13
100
AcDbBlockReference
  2
_OPEN30
 10
235.2514489999999
 20
141.4198676363743
 30
0.0
 41
4.0
 42
4.0
 43
4.0
  0
MTEXT
  5
26CC
330
722
100
AcDbEntity
  8
寸法
  6
Continuous
 62
     6
100
AcDbMText
 10
0.5544602312297691
 20
146.4198676363743
 30
0.0
 40
8.0
 41
0.0
 71
     5
 72
     1
  1
\A1;466
  7
Standard
 73
     1
 44
1.0
  0
POINT
  5
26CD
330
722
100
AcDbEntity
  8
DEFPOINTS
  6
Continuous
 62
     0
100
AcDbPoint
 10
-230.7485509999999
 20
185.8882674483009
 30
0.0
  0
POINT
  5
26CE
330
722
100
AcDbEntity
  8
DEFPOINTS
  6
Continuous
 62
     0
100
AcDbPoint
 10
235.2514489999999
 20
185.8882674483009
 30
0.0
  0
POINT
  5
26CF
330
722
100
AcDbEntity
  8
DEFPOINTS
  6
Continuous
 62
     0
100
AcDbPoint
 10
235.2514489999999
 20
141.4198676363743
 30
0.0
  0
ENDBLK
  5
72D
330
722
100
AcDbEntity
  8
0
100
AcDbBlockEnd
  0
BLOCK
  5
738
330
72E
100
AcDbEntity
  8
0
100
AcDbBlockBegin
  2
*D2
 70
     1
 10
0.0
 20
0.0
 30
0.0
  3
*D2
  1

  0
LINE
  5
26D0
330
72E
100
AcDbEntity
  8
寸法
  6
Continuous
 62
     0
370
    13
100
AcDbLine
 10
-238.7485509999999
 20
185.2632674483009
 30
0.0
 11
-238.7485509999999
 21
117.1724716655794
 31
0.0
  0
LINE
  5
26D1
330
72E
100
AcDbEntity
  8
寸法
  6
Continuous
 62
     0
370
    13
100
AcDbLine
 10
243.2514489999999
 20
185.2632674483009
 30
0.0
 11
243.2514489999999
 21
117.1724716655794
 31
0.0
  0
LINE
  5
26D2
330
72E
100
AcDbEntity
  8
寸法
  6
Continuous
 62
     0
370
    13
100
AcDbLine
 10
-234.7485509999999
 20
118.1724716655794
 30
0.0
 11
239.2514489999999
 21
118.1724716655794
 31
0.0
  0
INSERT
  5
26D3
330
72E
100
AcDbEntity
  8
寸法
  6
Continuous
 62
     0
370
    13
100
AcDbBlockReference
  2
_OPEN30
 10
-238.7485509999999
 20
118.1724716655794
 30
0.0
 41
4.0
 42
4.0
 43
4.0
 50
180.0
  0
INSERT
  5
26D4
330
72E
100
AcDbEntity
  8
寸法
  6
Continuous
 62
     0
370
    13
100
AcDbBlockReference
  2
_OPEN30
 10
243.2514489999999
 20
118.1724716655794
 30
0.0
 41
4.0
 42
4.0
 43
4.0
  0
MTEXT
  5
26D5
330
72E
100
AcDbEntity
  8
寸法
  6
Continuous
 62
     6
100
AcDbMText
 10
0.308939573789758
 20
123.1724716655794
 30
0.0
 40
8.0
 41
0.0
 71
     5
 72
     1
  1
\A1;482
  7
Standard
 73
     1
 44
1.0
  0
POINT
  5
26D6
330
72E
100
AcDbEntity
  8
DEFPOINTS
  6
Continuous
 62
     0
100
AcDbPoint
 10
-238.7485509999999
 20
186.2632674483009
 30
0.0
  0
POINT
  5
26D7
330
72E
100
AcDbEntity
  8
DEFPOINTS
  6
Continuous
 62
     0
100
AcDbPoint
 10
243.2514489999999
 20
186.2632674483009
 30
0.0
  0
POINT
  5
26D8
330
72E
100
AcDbEntity
  8
DEFPOINTS
  6
Continuous
 62
     0
100
AcDbPoint
 10
243.2514489999999
 20
118.1724716655794
 30
0.0
  0
ENDBLK
  5
739
330
72E
100
AcDbEntity
  8
0
100
AcDbBlockEnd
  0
BLOCK
  5
765
330
75B
100
AcDbEntity
  8
0
100
AcDbBlockBegin
  2
*D3
 70
     1
 10
0.0
 20
0.0
 30
0.0
  3
*D3
  1

  0
LINE
  5
1A66
330
75B
100
AcDbEntity
  8
寸法
  6
Continuous
 62
     0
370
    13
100
AcDbLine
 10
242.7514509999999
 20
222.1382674483009
 30
0.0
 11
267.969157
 21
222.1382674483009
 31
0.0
  0
LINE
  5
1A67
330
75B
100
AcDbEntity
  8
寸法
  6
Continuous
 62
     0
370
    13
100
AcDbLine
 10
242.7514509999999
 20
190.3882674483009
 30
0.0
 11
267.969157
 21
190.3882674483009
 31
0.0
  0
LINE
  5
1A68
330
75B
100
AcDbEntity
  8
寸法
  6
Continuous
 62
     0
370
    13
100
AcDbLine
 10
266.9691569999999
 20
226.1382674483008
 30
0.0
 11
266.9691569999999
 21
230.1382674483007
 31
0.0
  0
LINE
  5
1A69
330
75B
100
AcDbEntity
  8
寸法
  6
Continuous
 62
     0
370
    13
100
AcDbLine
 10
266.9691569999999
 20
186.3882674483009
 30
0.0
 11
266.9691569999999
 21
182.3882674483009
 31
0.0
  0
LINE
  5
1A6A
330
75B
100
AcDbEntity
  8
寸法
  6
Continuous
 62
     0
370
    13
100
AcDbLine
 10
266.9691569999999
 20
222.1382674483009
 30
0.0
 11
266.9691569999999
 21
190.3882674483009
 31
0.0
  0
INSERT
  5
1A6B
330
75B
100
AcDbEntity
  8
寸法
  6
Continuous
 62
     0
370
    13
100
AcDbBlockReference
  2
_OPEN30
 10
266.9691569999999
 20
222.1382674483009
 30
0.0
 41
4.0
 42
4.0
 43
4.0
 50
270.0
  0
INSERT
  5
1A6C
330
75B
100
AcDbEntity
  8
寸法
  6
Continuous
 62
     0
370
    13
100
AcDbBlockReference
  2
_OPEN30
 10
266.9691569999999
 20
190.3882674483009
 30
0.0
 41
4.0
 42
4.0
 43
4.0
 50
90.0
  0
MTEXT
  5
1A6D
330
75B
100
AcDbEntity
  8
寸法
  6
Continuous
 62
     6
100
AcDbMText
 10
262.9691569999999
 20
206.263267448301
 30
0.0
 40
6.0
 41
0.0
 71
     5
 72
     1
  1
\A1;31.75
  7
Standard
 11
0.0000000000000001
 21
1.0
 31
0.0
 73
     1
 44
1.0
  0
POINT
  5
1A6E
330
75B
100
AcDbEntity
  8
DEFPOINTS
  6
Continuous
 62
     0
100
AcDbPoint
 10
241.7514509999999
 20
222.1382674483009
 30
0.0
  0
POINT
  5
1A6F
330
75B
100
AcDbEntity
  8
DEFPOINTS
  6
Continuous
 62
     0
100
AcDbPoint
 10
241.7514509999999
 20
190.3882674483009
 30
0.0
  0
POINT
  5
1A70
330
75B
100
AcDbEntity
  8
DEFPOINTS
  6
Continuous
 62
     0
100
AcDbPoint
 10
266.9691569999999
 20
190.3882674483009
 30
0.0
  0
ENDBLK
  5
766
330
75B
100
AcDbEntity
  8
0
100
AcDbBlockEnd
  0
BLOCK
  5
771
330
767
100
AcDbEntity
  8
0
100
AcDbBlockBegin
  2
*D4
 70
     1
 10
0.0
 20
0.0
 30
0.0
  3
*D4
  1

  0
LINE
  5
1A71
330
767
100
AcDbEntity
  8
寸法
  6
Continuous
 62
     0
370
    13
100
AcDbLine
 10
242.2514509999999
 20
228.2632674483008
 30
0.0
 11
284.924933
 21
228.2632674483008
 31
0.0
  0
LINE
  5
1A72
330
767
100
AcDbEntity
  8
寸法
  6
Continuous
 62
     0
370
    13
100
AcDbLine
 10
242.2514509999999
 20
184.2632674483009
 30
0.0
 11
284.924933
 21
184.2632674483009
 31
0.0
  0
LINE
  5
1A73
330
767
100
AcDbEntity
  8
寸法
  6
Continuous
 62
     0
370
    13
100
AcDbLine
 10
283.924933
 20
224.2632674483008
 30
0.0
 11
283.924933
 21
188.2632674483009
 31
0.0
  0
INSERT
  5
1A74
330
767
100
AcDbEntity
  8
寸法
  6
Continuous
 62
     0
370
    13
100
AcDbBlockReference
  2
_OPEN30
 10
283.924933
 20
228.2632674483008
 30
0.0
 41
4.0
 42
4.0
 43
4.0
 50
90.0
  0
INSERT
  5
1A75
330
767
100
AcDbEntity
  8
寸法
  6
Continuous
 62
     0
370
    13
100
AcDbBlockReference
  2
_OPEN30
 10
283.924933
 20
184.2632674483009
 30
0.0
 41
4.0
 42
4.0
 43
4.0
 50
270.0
  0
MTEXT
  5
1A76
330
767
100
AcDbEntity
  8
寸法
  6
Continuous
 62
     6
100
AcDbMText
 10
278.924933
 20
206.2632674483007
 30
0.0
 40
8.0
 41
0.0
 71
     5
 72
     1
  1
\A1;44
  7
Standard
 11
0.0000000000000001
 21
1.0
 31
0.0
 73
     1
 44
1.0
  0
POINT
  5
1A77
330
767
100
AcDbEntity
  8
DEFPOINTS
  6
Continuous
 62
     0
100
AcDbPoint
 10
241.2514509999999
 20
228.2632674483008
 30
0.0
  0
POINT
  5
1A78
330
767
100
AcDbEntity
  8
DEFPOINTS
  6
Continuous
 62
     0
100
AcDbPoint
 10
241.2514509999999
 20
184.2632674483009
 30
0.0
  0
POINT
  5
1A79
330
767
100
AcDbEntity
  8
DEFPOINTS
  6
Continuous
 62
     0
100
AcDbPoint
 10
283.924933
 20
184.2632674483009
 30
0.0
  0
ENDBLK
  5
772
330
767
100
AcDbEntity
  8
0
100
AcDbBlockEnd
  0
BLOCK
  5
998
330
923
100
AcDbEntity
  8
0
100
AcDbBlockBegin
  2
A3zuwaku_n
 70
     0
 10
0.0
 20
0.0
 30
0.0
  3
A3zuwaku_n
  1

  0
LINE
  5
924
330
923
100
AcDbEntity
  8
本体
  6
Continuous
 62
    20
100
AcDbLine
 10
403.7900162256923
 20
0.2059360198707569
 30
0.0
 11
403.7900162256923
 21
278.2564360198707
 31
0.0
  0
LINE
  5
925
330
923
100
AcDbEntity
  8
本体
  6
Continuous
 62
    20
100
AcDbLine
 10
0.4640162256925038
 20
278.2564360198707
 30
0.0
 11
403.7900162256923
 21
278.2564360198707
 31
0.0
  0
LINE
  5
926
330
923
100
AcDbEntity
  8
本体
  6
Continuous
 62
    20
100
AcDbLine
 10
230.6450162256924
 20
0.2059360198707569
 30
0.0
 11
230.6450162256924
 21
35.85343601987075
 31
0.0
  0
LINE
  5
927
330
923
100
AcDbEntity
  8
本体
  6
Continuous
 62
    20
100
AcDbLine
 10
312.1250162256925
 20
0.2059360198707569
 30
0.0
 11
312.1250162256925
 21
35.85343601987075
 31
0.0
  0
LINE
  5
928
330
923
100
AcDbEntity
  8
本体
  6
Continuous
 62
    20
100
AcDbLine
 10
312.1250162256925
 20
25.66843601987075
 30
0.0
 11
403.7900162256923
 21
25.66843601987075
 31
0.0
  0
LINE
  5
929
330
923
100
AcDbEntity
  8
本体
  6
Continuous
 62
    20
100
AcDbLine
 10
230.6450162256924
 20
30.76093601987075
 30
0.0
 11
312.1250162256925
 21
30.76093601987075
 31
0.0
  0
LINE
  5
92A
330
923
100
AcDbEntity
  8
本体
  6
Continuous
 62
    20
100
AcDbLine
 10
230.6450162256924
 20
15.48343601987076
 30
0.0
 11
312.1250162256925
 21
15.48343601987076
 31
0.0
  0
LINE
  5
92B
330
923
100
AcDbEntity
  8
本体
  6
Continuous
 62
    20
100
AcDbLine
 10
251.0150162256923
 20
15.48343601987076
 30
0.0
 11
251.0150162256923
 21
35.85343601987075
 31
0.0
  0
LINE
  5
92C
330
923
100
AcDbEntity
  8
本体
  6
Continuous
 62
    20
100
AcDbLine
 10
271.3850162256924
 20
15.48343601987076
 30
0.0
 11
271.3850162256924
 21
35.85343601987075
 31
0.0
  0
LINE
  5
92D
330
923
100
AcDbEntity
  8
本体
  6
Continuous
 62
    20
100
AcDbLine
 10
291.7550162256925
 20
15.48343601987076
 30
0.0
 11
291.7550162256925
 21
35.85343601987075
 31
0.0
  0
LINE
  5
92E
330
923
100
AcDbEntity
  8
本体
  6
Continuous
 62
    20
100
AcDbLine
 10
230.6450162256924
 20
20.57593601987075
 30
0.0
 11
291.7550162256925
 21
20.57593601987075
 31
0.0
  0
LINE
  5
92F
330
923
100
AcDbEntity
  8
本体
  6
Continuous
 62
    20
100
AcDbLine
 10
357.9575162256925
 20
25.66843601987075
 30
0.0
 11
357.9575162256925
 21
35.85343601987075
 31
0.0
  0
LINE
  5
930
330
923
100
AcDbEntity
  8
本体
  6
Continuous
 62
    20
100
AcDbLine
 10
312.1250162256925
 20
10.39093601987075
 30
0.0
 11
403.7900162256923
 21
10.39093601987075
 31
0.0
  0
LINE
  5
931
330
923
100
AcDbEntity
  8
本体
  6
Continuous
 62
    20
100
AcDbLine
 10
327.4025162256923
 20
0.2059360198707569
 30
0.0
 11
327.4025162256923
 21
10.39093601987075
 31
0.0
  0
LINE
  5
932
330
923
100
AcDbEntity
  8
本体
  6
Continuous
 62
    20
100
AcDbLine
 10
112.4990162256924
 20
0.2059360198707569
 30
0.0
 11
112.4990162256924
 21
35.85343601987075
 31
0.0
  0
LINE
  5
933
330
923
100
AcDbEntity
  8
本体
  6
Continuous
 62
    20
100
AcDbLine
 10
112.4990162256924
 20
5.298436019870758
 30
0.0
 11
230.6450162256924
 21
5.298436019870758
 31
0.0
  0
LINE
  5
934
330
923
100
AcDbEntity
  8
本体
  6
Continuous
 62
    20
100
AcDbLine
 10
112.4990162256924
 20
10.39093601987075
 30
0.0
 11
230.6450162256924
 21
10.39093601987075
 31
0.0
  0
LINE
  5
935
330
923
100
AcDbEntity
  8
本体
  6
Continuous
 62
    20
100
AcDbLine
 10
112.4990162256924
 20
15.48343601987076
 30
0.0
 11
230.6450162256924
 21
15.48343601987076
 31
0.0
  0
LINE
  5
936
330
923
100
AcDbEntity
  8
本体
  6
Continuous
 62
    20
100
AcDbLine
 10
112.4990162256924
 20
20.57593601987075
 30
0.0
 11
230.6450162256924
 21
20.57593601987075
 31
0.0
  0
LINE
  5
937
330
923
100
AcDbEntity
  8
本体
  6
Continuous
 62
    20
100
AcDbLine
 10
112.4990162256924
 20
25.66843601987075
 30
0.0
 11
230.6450162256924
 21
25.66843601987075
 31
0.0
  0
LINE
  5
938
330
923
100
AcDbEntity
  8
本体
  6
Continuous
 62
    20
100
AcDbLine
 10
112.4990162256924
 20
30.76093601987075
 30
0.0
 11
230.6450162256924
 21
30.76093601987075
 31
0.0
  0
LINE
  5
939
330
923
100
AcDbEntity
  8
本体
  6
Continuous
 62
    20
100
AcDbLine
 10
127.7765162256925
 20
0.2059360198707569
 30
0.0
 11
127.7765162256925
 21
35.85343601987075
 31
0.0
  0
LINE
  5
93A
330
923
100
AcDbEntity
  8
本体
  6
Continuous
 62
    20
100
AcDbLine
 10
181.7570162256924
 20
0.2059360198707569
 30
0.0
 11
181.7570162256924
 21
35.85343601987075
 31
0.0
  0
LINE
  5
93B
330
923
100
AcDbEntity
  8
本体
  6
Continuous
 62
    20
100
AcDbLine
 10
206.2010162256924
 20
0.2059360198707569
 30
0.0
 11
206.2010162256924
 21
35.85343601987075
 31
0.0
  0
MTEXT
  5
93C
330
923
100
AcDbEntity
  8
本体
  6
Continuous
 62
    20
100
AcDbMText
 10
1.684179225692483
 20
273.9379960198707
 30
0.0
 40
3.56475
 41
0.0
 71
     7
 72
     1
  1
\T0.782;\W0.700;\A1;Ｄｉｍｅｎｓｉｏｎｓ　ｉｎ　ｍｍ（ｎｏｔ　ｔｏ　ｓｃａｌｅ）
 73
     1
 44
1.0
  0
LINE
  5
93D
330
923
100
AcDbEntity
  8
本体
  6
Continuous
 62
    20
100
AcDbLine
 10
71.7590162256925
 20
273.1639360198706
 30
0.0
 11
71.7590162256925
 21
278.2564360198707
 31
0.0
  0
LINE
  5
93E
330
923
100
AcDbEntity
  8
本体
  6
Continuous
 62
    20
100
AcDbLine
 10
0.4640162256925038
 20
273.1639360198706
 30
0.0
 11
71.7590162256925
 21
273.1639360198706
 31
0.0
  0
LINE
  5
93F
330
923
100
AcDbEntity
  8
本体
  6
Continuous
 62
    20
100
AcDbLine
 10
112.4990162256924
 20
35.85343601987075
 30
0.0
 11
403.7900162256923
 21
35.85343601987075
 31
0.0
  0
MTEXT
  5
940
330
923
100
AcDbEntity
  8
本体
  6
Continuous
 62
    20
100
AcDbMText
 10
115.4112896631925
 20
4.025311019870756
 30
0.0
 40
2.54625
 41
0.0
 71
     1
 72
     1
  1
\T0.815;\W0.959;\A1;ＭＡＲＫ
 73
     1
 44
1.0
  0
MTEXT
  5
941
330
923
100
AcDbEntity
  8
本体
  6
Continuous
 62
    20
100
AcDbMText
 10
144.0725162256923
 20
4.025311019870756
 30
0.0
 40
2.54625
 41
0.0
 71
     1
 72
     1
  1
\T0.815;\W0.959;\A1;ＲＥＶＩＳＩＯＮＳ
 73
     1
 44
1.0
  0
MTEXT
  5
942
330
923
100
AcDbEntity
  8
本体
  6
Continuous
 62
    20
100
AcDbMText
 10
189.2525396631924
 20
4.025311019870756
 30
0.0
 40
2.54625
 41
0.0
 71
     1
 72
     1
  1
\T0.815;\W0.959;\A1;ＤＡＴＥ
 73
     1
 44
1.0
  0
MTEXT
  5
943
330
923
100
AcDbEntity
  8
本体
  6
Continuous
 62
    20
100
AcDbMText
 10
213.6965396631925
 20
4.025311019870756
 30
0.0
 40
2.54625
 41
0.0
 71
     1
 72
     1
  1
\T0.815;\W0.959;\A1;ＣＨ’Ｄ
 73
     1
 44
1.0
  0
MTEXT
  5
944
330
923
100
AcDbEntity
  8
本体
  6
Continuous
 62
    20
100
AcDbMText
 10
315.9482106006925
 20
4.432711019870763
 30
0.0
 40
2.74995
 41
0.0
 71
     1
 72
     1
  1
\T0.815;\W0.959;\A1;ＮＯ．
 73
     1
 44
1.0
  0
MTEXT
  5
945
330
923
100
AcDbEntity
  8
本体
  6
Continuous
 62
    20
100
AcDbMText
 10
313.2046262256924
 20
24.75178601987074
 30
0.0
 40
3.259199999999998
 41
0.0
 71
     1
 72
     1
  1
\T0.815;\W0.959;\A1;ＴＩＴＬＥ
 73
     1
 44
1.0
  0
MTEXT
  5
946
330
923
100
AcDbEntity
  8
本体
  6
Continuous
 62
    20
100
AcDbMText
 10
359.3579537256925
 20
34.98771101987076
 30
0.0
 40
2.54625
 41
0.0
 71
     1
 72
     1
  1
\T0.815;\W0.959;\A1;ＴＲＥＡＴＭＥＮＴ
 73
     1
 44
1.0
  0
MTEXT
  5
947
330
923
100
AcDbEntity
  8
本体
  6
Continuous
 62
    20
100
AcDbMText
 10
313.5254537256924
 20
34.98771101987076
 30
0.0
 40
2.54625
 41
0.0
 71
     1
 72
     1
  1
\T0.815;\W0.959;\A1;ＭＡＴＥＲＩＡＬ
 73
     1
 44
1.0
  0
MTEXT
  5
948
330
923
100
AcDbEntity
  8
本体
  6
Continuous
 62
    20
100
AcDbMText
 10
313.3701324756923
 20
8.710411019870752
 30
0.0
 40
2.74995
 41
0.0
 71
     1
 72
     1
  1
\T0.815;\W0.959;\A1;ＤＲＡＷ．
 73
     1
 44
1.0
  0
MTEXT
  5
949
330
923
100
AcDbEntity
  8
本体
  6
Continuous
 62
    20
100
AcDbMText
 10
295.5463824756924
 20
34.68216101987074
 30
0.0
 40
2.74995
 41
0.0
 71
     1
 72
     1
  1
\T0.815;\W0.959;\A1;ＳＣＡＬＥ
 73
     1
 44
1.0
  0
MTEXT
  5
94A
330
923
100
AcDbEntity
  8
本体
  6
Continuous
 62
    20
100
AcDbMText
 10
275.1763824756924
 20
34.68216101987074
 30
0.0
 40
2.74995
 41
0.0
 71
     1
 72
     1
  1
\T0.815;\W0.959;\A1;ＡＰＰ’Ｄ
 73
     1
 44
1.0
  0
MTEXT
  5
94B
330
923
100
AcDbEntity
  8
本体
  6
Continuous
 62
    20
100
AcDbMText
 10
256.0954215381924
 20
34.68216101987074
 30
0.0
 40
2.74995
 41
0.0
 71
     1
 72
     1
  1
\T0.815;\W0.959;\A1;ＣＨ’Ｄ
 73
     1
 44
1.0
  0
MTEXT
  5
94C
330
923
100
AcDbEntity
  8
本体
  6
Continuous
 62
    20
100
AcDbMText
 10
234.4363824756924
 20
34.68216101987074
 30
0.0
 40
2.74995
 41
0.0
 71
     1
 72
     1
  1
\T0.815;\W0.959;\A1;ＤＥＳ’Ｄ
 73
     1
 44
1.0
  0
MTEXT
  5
94D
330
923
100
AcDbEntity
  8
本体
  6
Continuous
 62
    20
100
AcDbMText
 10
119.6794412256924
 20
8.353936019870758
 30
0.0
 40
2.036999999999999
 41
0.0
 71
     1
 72
     1
  1
\T1.043;\W1.226;\A1;1
 73
     1
 44
1.0
  0
MTEXT
  5
94E
330
923
100
AcDbEntity
  8
本体
  6
Continuous
 62
    20
100
AcDbMText
 10
119.3738912256925
 20
13.44643601987075
 30
0.0
 40
2.036999999999999
 41
0.0
 71
     1
 72
     1
  1
\T0.851;\A1;2
 73
     1
 44
1.0
  0
MTEXT
  5
94F
330
923
100
AcDbEntity
  8
本体
  6
Continuous
 62
    20
100
AcDbMText
 10
119.3738912256925
 20
18.53893601987076
 30
0.0
 40
2.036999999999999
 41
0.0
 71
     1
 72
     1
  1
\T0.851;\A1;3
 73
     1
 44
1.0
  0
MTEXT
  5
950
330
923
100
AcDbEntity
  8
本体
  6
Continuous
 62
    20
100
AcDbMText
 10
119.3738912256925
 20
23.63143601987076
 30
0.0
 40
2.036999999999999
 41
0.0
 71
     1
 72
     1
  1
\T0.851;\A1;4
 73
     1
 44
1.0
  0
MTEXT
  5
951
330
923
100
AcDbEntity
  8
本体
  6
Continuous
 62
    20
100
AcDbMText
 10
119.3738912256925
 20
28.72393601987076
 30
0.0
 40
2.036999999999999
 41
0.0
 71
     1
 72
     1
  1
\T0.851;\A1;5
 73
     1
 44
1.0
  0
MTEXT
  5
952
330
923
100
AcDbEntity
  8
本体
  6
Continuous
 62
    20
100
AcDbMText
 10
119.3738912256925
 20
33.81643601987075
 30
0.0
 40
2.036999999999999
 41
0.0
 71
     1
 72
     1
  1
\T0.851;\A1;6
 73
     1
 44
1.0
  0
MTEXT
  5
953
330
923
100
AcDbEntity
  8
本体
  6
Continuous
 62
    20
100
AcDbMText
 10
175.4423162256923
 20
282.4322860198707
 30
0.0
 40
3.259199999999998
 41
0.0
 71
     1
 72
     1
  1
\T0.851;\A1;4
 73
     1
 44
1.0
  0
MTEXT
  5
954
330
923
100
AcDbEntity
  8
本体
  6
Continuous
 62
    20
100
AcDbMText
 10
124.5173162256925
 20
282.4322860198707
 30
0.0
 40
3.259199999999998
 41
0.0
 71
     1
 72
     1
  1
\T0.851;\A1;3
 73
     1
 44
1.0
  0
MTEXT
  5
955
330
923
100
AcDbEntity
  8
本体
  6
Continuous
 62
    20
100
AcDbMText
 10
73.59231622569251
 20
282.4322860198707
 30
0.0
 40
3.259199999999998
 41
0.0
 71
     1
 72
     1
  1
\T0.851;\A1;2
 73
     1
 44
1.0
  0
LINE
  5
956
330
923
100
AcDbEntity
  8
本体
  6
Continuous
 62
    20
100
AcDbLine
 10
49.3520162256925
 20
278.2564360198707
 30
0.0
 11
49.3520162256925
 21
280.8026860198704
 31
0.0
  0
LINE
  5
957
330
923
100
AcDbEntity
  8
本体
  6
Continuous
 62
    20
100
AcDbLine
 10
100.2770162256925
 20
278.2564360198707
 30
0.0
 11
100.2770162256925
 21
280.8026860198704
 31
0.0
  0
LINE
  5
958
330
923
100
AcDbEntity
  8
本体
  6
Continuous
 62
    20
100
AcDbLine
 10
151.2020162256924
 20
278.2564360198707
 30
0.0
 11
151.2020162256924
 21
280.8026860198704
 31
0.0
  0
MTEXT
  5
959
330
923
100
AcDbEntity
  8
本体
  6
Continuous
 62
    20
100
AcDbMText
 10
226.3673162256925
 20
282.4322860198707
 30
0.0
 40
3.259199999999998
 41
0.0
 71
     1
 72
     1
  1
\T0.851;\A1;5
 73
     1
 44
1.0
  0
MTEXT
  5
95A
330
923
100
AcDbEntity
  8
本体
  6
Continuous
 62
    20
100
AcDbMText
 10
277.2923162256925
 20
282.4322860198707
 30
0.0
 40
3.259199999999998
 41
0.0
 71
     1
 72
     1
  1
\T0.851;\A1;6
 73
     1
 44
1.0
  0
MTEXT
  5
95B
330
923
100
AcDbEntity
  8
本体
  6
Continuous
 62
    20
100
AcDbMText
 10
328.2173162256923
 20
282.4322860198707
 30
0.0
 40
3.259199999999998
 41
0.0
 71
     1
 72
     1
  1
\T0.851;\A1;7
 73
     1
 44
1.0
  0
MTEXT
  5
95C
330
923
100
AcDbEntity
  8
本体
  6
Continuous
 62
    20
100
AcDbMText
 10
378.1238162256925
 20
282.4322860198707
 30
0.0
 40
3.259199999999998
 41
0.0
 71
     1
 72
     1
  1
\T0.851;\A1;8
 73
     1
 44
1.0
  0
MTEXT
  5
95D
330
923
100
AcDbEntity
  8
本体
  6
Continuous
 62
    20
100
AcDbMText
 10
405.1140662256925
 20
115.3982860198704
 30
0.0
 40
3.259199999999998
 41
0.0
 71
     1
 72
     1
  1
\T0.851;\A1;D
 73
     1
 44
1.0
  0
MTEXT
  5
95E
330
923
100
AcDbEntity
  8
本体
  6
Continuous
 62
    20
100
AcDbMText
 10
405.1140662256925
 20
64.47328601987074
 30
0.0
 40
3.259199999999998
 41
0.0
 71
     1
 72
     1
  1
\T0.851;\A1;E
 73
     1
 44
1.0
  0
LINE
  5
95F
330
923
100
AcDbEntity
  8
本体
  6
Continuous
 62
    20
100
AcDbLine
 10
403.7900162256923
 20
37.38118601987076
 30
0.0
 11
406.3362662256925
 21
37.38118601987076
 31
0.0
  0
LINE
  5
960
330
923
100
AcDbEntity
  8
本体
  6
Continuous
 62
    20
100
AcDbLine
 10
403.7900162256923
 20
88.30618601987074
 30
0.0
 11
406.3362662256925
 21
88.30618601987074
 31
0.0
  0
MTEXT
  5
961
330
923
100
AcDbEntity
  8
本体
  6
Continuous
 62
    20
100
AcDbMText
 10
405.1140662256925
 20
166.3232860198704
 30
0.0
 40
3.259199999999998
 41
0.0
 71
     1
 72
     1
  1
\T0.851;\A1;C
 73
     1
 44
1.0
  0
MTEXT
  5
962
330
923
100
AcDbEntity
  8
本体
  6
Continuous
 62
    20
100
AcDbMText
 10
405.1140662256925
 20
217.2482860198706
 30
0.0
 40
3.259199999999998
 41
0.0
 71
     1
 72
     1
  1
\T0.851;\A1;B
 73
     1
 44
1.0
  0
MTEXT
  5
963
330
923
100
AcDbEntity
  8
本体
  6
Continuous
 62
    20
100
AcDbMText
 10
405.1140662256925
 20
261.2984110198707
 30
0.0
 40
3.259199999999998
 41
0.0
 71
     1
 72
     1
  1
\T0.851;\A1;A
 73
     1
 44
1.0
  0
LINE
  5
964
330
923
100
AcDbEntity
  8
本体
  6
Continuous
 62
    20
100
AcDbLine
 10
403.7900162256923
 20
241.0811860198706
 30
0.0
 11
406.3362662256925
 21
241.0811860198706
 31
0.0
  0
LINE
  5
965
330
923
100
AcDbEntity
  8
本体
  6
Continuous
 62
    20
100
AcDbLine
 10
403.7900162256923
 20
190.1561860198706
 30
0.0
 11
406.3362662256925
 21
190.1561860198706
 31
0.0
  0
LINE
  5
966
330
923
100
AcDbEntity
  8
本体
  6
Continuous
 62
    20
100
AcDbLine
 10
354.9020162256923
 20
278.2564360198707
 30
0.0
 11
354.9020162256923
 21
280.8026860198704
 31
0.0
  0
LINE
  5
967
330
923
100
AcDbEntity
  8
本体
  6
Continuous
 62
    20
100
AcDbLine
 10
303.9770162256923
 20
278.2564360198707
 30
0.0
 11
303.9770162256923
 21
280.8026860198704
 31
0.0
  0
LINE
  5
968
330
923
100
AcDbEntity
  8
本体
  6
Continuous
 62
    20
100
AcDbLine
 10
253.0520162256923
 20
278.2564360198707
 30
0.0
 11
253.0520162256923
 21
280.8026860198704
 31
0.0
  0
LINE
  5
969
330
923
100
AcDbEntity
  8
本体
  6
Continuous
 62
    20
100
AcDbLine
 10
403.7900162256923
 20
139.2311860198707
 30
0.0
 11
407.8640162256925
 21
139.2311860198707
 31
0.0
  0
LINE
  5
96A
330
923
100
AcDbEntity
  8
本体
  6
Continuous
 62
    20
100
AcDbLine
 10
202.1270162256924
 20
278.2564360198707
 30
0.0
 11
202.1270162256924
 21
282.3304360198706
 31
0.0
  0
MTEXT
  5
96B
330
923
100
AcDbEntity
  8
本体
  6
Continuous
 62
    20
100
AcDbMText
 10
405.1140662256925
 20
20.42316101987075
 30
0.0
 40
3.259199999999998
 41
0.0
 71
     1
 72
     1
  1
\T0.851;\A1;F
 73
     1
 44
1.0
  0
MTEXT
  5
96C
330
923
100
AcDbEntity
  8
本体
  6
Continuous
 62
    20
100
AcDbMText
 10
24.1746962256925
 20
282.4322860198707
 30
0.0
 40
3.259199999999998
 41
0.0
 71
     1
 72
     1
  1
\T1.043;\W1.226;\A1;1
 73
     1
 44
1.0
  0
MTEXT
  5
96D
330
923
100
AcDbEntity
  8
本体
  6
Continuous
 62
    20
100
AcDbMText
 10
175.4423162256923
 20
-0.710713980129248
 30
0.0
 40
3.259199999999998
 41
0.0
 71
     1
 72
     1
  1
\T0.851;\A1;4
 73
     1
 44
1.0
  0
MTEXT
  5
96E
330
923
100
AcDbEntity
  8
本体
  6
Continuous
 62
    20
100
AcDbMText
 10
124.5173162256925
 20
-0.710713980129248
 30
0.0
 40
3.259199999999998
 41
0.0
 71
     1
 72
     1
  1
\T0.851;\A1;3
 73
     1
 44
1.0
  0
MTEXT
  5
96F
330
923
100
AcDbEntity
  8
本体
  6
Continuous
 62
    20
100
AcDbMText
 10
73.59231622569251
 20
-0.710713980129248
 30
0.0
 40
3.259199999999998
 41
0.0
 71
     1
 72
     1
  1
\T0.851;\A1;2
 73
     1
 44
1.0
  0
LINE
  5
970
330
923
100
AcDbEntity
  8
本体
  6
Continuous
 62
    20
100
AcDbLine
 10
49.3520162256925
 20
0.2059360198707569
 30
0.0
 11
49.3520162256925
 21
-2.34031398012924
 31
0.0
  0
LINE
  5
971
330
923
100
AcDbEntity
  8
本体
  6
Continuous
 62
    20
100
AcDbLine
 10
100.2770162256925
 20
0.2059360198707569
 30
0.0
 11
100.2770162256925
 21
-2.34031398012924
 31
0.0
  0
LINE
  5
972
330
923
100
AcDbEntity
  8
本体
  6
Continuous
 62
    20
100
AcDbLine
 10
151.2020162256924
 20
0.2059360198707569
 30
0.0
 11
151.2020162256924
 21
-2.34031398012924
 31
0.0
  0
MTEXT
  5
973
330
923
100
AcDbEntity
  8
本体
  6
Continuous
 62
    20
100
AcDbMText
 10
226.3673162256925
 20
-0.710713980129248
 30
0.0
 40
3.259199999999998
 41
0.0
 71
     1
 72
     1
  1
\T0.851;\A1;5
 73
     1
 44
1.0
  0
MTEXT
  5
974
330
923
100
AcDbEntity
  8
本体
  6
Continuous
 62
    20
100
AcDbMText
 10
277.2923162256925
 20
-0.710713980129248
 30
0.0
 40
3.259199999999998
 41
0.0
 71
     1
 72
     1
  1
\T0.851;\A1;6
 73
     1
 44
1.0
  0
MTEXT
  5
975
330
923
100
AcDbEntity
  8
本体
  6
Continuous
 62
    20
100
AcDbMText
 10
328.2173162256923
 20
-0.710713980129248
 30
0.0
 40
3.259199999999998
 41
0.0
 71
     1
 72
     1
  1
\T0.851;\A1;7
 73
     1
 44
1.0
  0
MTEXT
  5
976
330
923
100
AcDbEntity
  8
本体
  6
Continuous
 62
    20
100
AcDbMText
 10
378.1238162256925
 20
-0.710713980129248
 30
0.0
 40
3.259199999999998
 41
0.0
 71
     1
 72
     1
  1
\T0.851;\A1;8
 73
     1
 44
1.0
  0
LINE
  5
977
330
923
100
AcDbEntity
  8
本体
  6
Continuous
 62
    20
100
AcDbLine
 10
354.9020162256923
 20
0.2059360198707569
 30
0.0
 11
354.9020162256923
 21
-2.34031398012924
 31
0.0
  0
LINE
  5
978
330
923
100
AcDbEntity
  8
本体
  6
Continuous
 62
    20
100
AcDbLine
 10
303.9770162256923
 20
0.2059360198707569
 30
0.0
 11
303.9770162256923
 21
-2.34031398012924
 31
0.0
  0
LINE
  5
979
330
923
100
AcDbEntity
  8
本体
  6
Continuous
 62
    20
100
AcDbLine
 10
253.0520162256923
 20
0.2059360198707569
 30
0.0
 11
253.0520162256923
 21
-2.34031398012924
 31
0.0
  0
LINE
  5
97A
330
923
100
AcDbEntity
  8
本体
  6
Continuous
 62
    20
100
AcDbLine
 10
202.1270162256924
 20
0.2059360198707569
 30
0.0
 11
202.1270162256924
 21
-3.868063980129242
 31
0.0
  0
MTEXT
  5
97B
330
923
100
AcDbEntity
  8
本体
  6
Continuous
 62
    20
100
AcDbMText
 10
24.1746962256925
 20
-0.710713980129248
 30
0.0
 40
3.259199999999998
 41
0.0
 71
     1
 72
     1
  1
\T1.043;\W1.226;\A1;1
 73
     1
 44
1.0
  0
MTEXT
  5
97C
330
923
100
AcDbEntity
  8
本体
  6
Continuous
 62
    20
100
AcDbMText
 10
-3.304433774307481
 20
115.3982860198704
 30
0.0
 40
3.259199999999998
 41
0.0
 71
     1
 72
     1
  1
\T0.851;\A1;D
 73
     1
 44
1.0
  0
MTEXT
  5
97D
330
923
100
AcDbEntity
  8
本体
  6
Continuous
 62
    20
100
AcDbMText
 10
-3.304433774307481
 20
64.47328601987074
 30
0.0
 40
3.259199999999998
 41
0.0
 71
     1
 72
     1
  1
\T0.851;\A1;E
 73
     1
 44
1.0
  0
LINE
  5
97E
330
923
100
AcDbEntity
  8
本体
  6
Continuous
 62
    20
100
AcDbLine
 10
0.4640162256925038
 20
37.38118601987076
 30
0.0
 11
-2.082233774307495
 21
37.38118601987076
 31
0.0
  0
LINE
  5
97F
330
923
100
AcDbEntity
  8
本体
  6
Continuous
 62
    20
100
AcDbLine
 10
0.4640162256925038
 20
88.30618601987074
 30
0.0
 11
-2.082233774307495
 21
88.30618601987074
 31
0.0
  0
MTEXT
  5
980
330
923
100
AcDbEntity
  8
本体
  6
Continuous
 62
    20
100
AcDbMText
 10
-3.304433774307481
 20
166.3232860198704
 30
0.0
 40
3.259199999999998
 41
0.0
 71
     1
 72
     1
  1
\T0.851;\A1;C
 73
     1
 44
1.0
  0
MTEXT
  5
981
330
923
100
AcDbEntity
  8
本体
  6
Continuous
 62
    20
100
AcDbMText
 10
-3.304433774307481
 20
217.2482860198706
 30
0.0
 40
3.259199999999998
 41
0.0
 71
     1
 72
     1
  1
\T0.851;\A1;B
 73
     1
 44
1.0
  0
MTEXT
  5
982
330
923
100
AcDbEntity
  8
本体
  6
Continuous
 62
    20
100
AcDbMText
 10
-3.304433774307481
 20
261.2984110198707
 30
0.0
 40
3.259199999999998
 41
0.0
 71
     1
 72
     1
  1
\T0.851;\A1;A
 73
     1
 44
1.0
  0
LINE
  5
983
330
923
100
AcDbEntity
  8
本体
  6
Continuous
 62
    20
100
AcDbLine
 10
0.4640162256925038
 20
241.0811860198706
 30
0.0
 11
-2.082233774307495
 21
241.0811860198706
 31
0.0
  0
LINE
  5
984
330
923
100
AcDbEntity
  8
本体
  6
Continuous
 62
    20
100
AcDbLine
 10
0.4640162256925038
 20
190.1561860198706
 30
0.0
 11
-2.082233774307495
 21
190.1561860198706
 31
0.0
  0
LINE
  5
985
330
923
100
AcDbEntity
  8
本体
  6
Continuous
 62
    20
100
AcDbLine
 10
0.4640162256925038
 20
139.2311860198707
 30
0.0
 11
-3.609983774307491
 21
139.2311860198707
 31
0.0
  0
MTEXT
  5
986
330
923
100
AcDbEntity
  8
本体
  6
Continuous
 62
    20
100
AcDbMText
 10
-3.304433774307481
 20
20.42316101987075
 30
0.0
 40
3.259199999999998
 41
0.0
 71
     1
 72
     1
  1
\T0.851;\A1;F
 73
     1
 44
1.0
  0
LWPOLYLINE
  5
987
330
923
100
AcDbEntity
  8
0
  6
Continuous
 62
    20
100
AcDbPolyline
 90
        4
 70
     1
 43
0.0
 10
0.4640162256925048
 20
0.205936019870758
 10
403.7900162256923
 20
0.205936019870758
 10
403.7900162256923
 20
278.2564360198707
 10
0.4640162256925048
 20
278.2564360198707
  0
LWPOLYLINE
  5
988
330
923
100
AcDbEntity
  8
0
  6
Continuous
 62
    20
100
AcDbPolyline
 90
        3
 70
   129
 43
0.0
 10
120.0496951848194
 20
35.42710327761815
 10
117.6511894574397
 20
31.27276949555156
 10
122.4482009121991
 20
31.27276949555156
  0
LWPOLYLINE
  5
989
330
923
100
AcDbEntity
  8
0
  6
Continuous
 62
    20
100
AcDbPolyline
 90
        3
 70
   129
 43
0.0
 10
120.0496951848194
 20
30.33460327761815
 10
117.6511894574397
 20
26.18026949555157
 10
122.4482009121991
 20
26.18026949555157
  0
LWPOLYLINE
  5
98A
330
923
100
AcDbEntity
  8
0
  6
Continuous
 62
    20
100
AcDbPolyline
 90
        3
 70
   129
 43
0.0
 10
120.0496951848194
 20
25.24210327761815
 10
117.6511894574397
 20
21.08776949555156
 10
122.4482009121991
 20
21.08776949555156
  0
LWPOLYLINE
  5
98B
330
923
100
AcDbEntity
  8
0
  6
Continuous
 62
    20
100
AcDbPolyline
 90
        3
 70
   129
 43
0.0
 10
120.0496951848194
 20
20.14960327761813
 10
117.6511894574397
 20
15.99526949555157
 10
122.4482009121991
 20
15.99526949555157
  0
LWPOLYLINE
  5
98C
330
923
100
AcDbEntity
  8
0
  6
Continuous
 62
    20
100
AcDbPolyline
 90
        3
 70
   129
 43
0.0
 10
120.0496951848194
 20
15.05710327761815
 10
117.6511894574397
 20
10.90276949555156
 10
122.4482009121991
 20
10.90276949555156
  0
LWPOLYLINE
  5
98D
330
923
100
AcDbEntity
  8
0
  6
Continuous
 62
    20
100
AcDbPolyline
 90
        3
 70
   129
 43
0.0
 10
120.0496951848194
 20
9.964603277618152
 10
117.6511894574397
 20
5.810269495551565
 10
122.4482009121991
 20
5.810269495551565
  0
MTEXT
  5
98E
330
923
100
AcDbEntity
  8
0
  6
Continuous
 62
    20
 48
0.2
100
AcDbMText
 10
239.7006641553456
 20
13.72237873629646
 30
0.0
 40
5.5
 41
63.3036
 71
     1
 72
     5
  1
株式会社アルテックス
 73
     1
 44
1.0
  0
MTEXT
  5
98F
330
923
100
AcDbEntity
  8
0
  6
Continuous
 62
    20
 48
0.2
100
AcDbMText
 10
240.8950722616193
 20
5.662034636890437
 30
0.0
 40
3.0
 41
65.09525565518856
 71
     1
 72
     5
  1
Artics Co.,Ltd  CAD Dept
 73
     1
 44
1.0
  0
LINE
  5
990
330
923
100
AcDbEntity
  8
本体
  6
DASHED
 62
    20
 48
0.2
100
AcDbLine
 10
335.4025162256923
 20
0.2059360198707569
 30
0.0
 11
335.4025162256923
 21
10.39093601987075
 31
0.0
  0
LINE
  5
991
330
923
100
AcDbEntity
  8
本体
  6
DASHED
 62
    20
 48
0.2
100
AcDbLine
 10
343.4025162256923
 20
0.2059360198707569
 30
0.0
 11
343.4025162256923
 21
10.39093601987075
 31
0.0
  0
LINE
  5
992
330
923
100
AcDbEntity
  8
本体
  6
DASHED
 62
    20
 48
0.2
100
AcDbLine
 10
351.4025162256925
 20
0.2059360198707569
 30
0.0
 11
351.4025162256925
 21
10.39093601987075
 31
0.0
  0
LINE
  5
993
330
923
100
AcDbEntity
  8
本体
  6
DASHED
 62
    20
 48
0.2
100
AcDbLine
 10
359.4025162256925
 20
0.2059360198707569
 30
0.0
 11
359.4025162256925
 21
10.39093601987075
 31
0.0
  0
LINE
  5
994
330
923
100
AcDbEntity
  8
本体
  6
DASHED
 62
    20
 48
0.2
100
AcDbLine
 10
367.4025162256925
 20
0.2059360198707569
 30
0.0
 11
367.4025162256925
 21
10.39093601987075
 31
0.0
  0
LINE
  5
995
330
923
100
AcDbEntity
  8
本体
  6
DASHED
 62
    20
 48
0.2
100
AcDbLine
 10
375.4025162256925
 20
0.2059360198707569
 30
0.0
 11
375.4025162256925
 21
10.39093601987075
 31
0.0
  0
LINE
  5
996
330
923
100
AcDbEntity
  8
本体
  6
DASHED
 62
    20
 48
0.2
100
AcDbLine
 10
383.4025162256925
 20
0.2059360198707569
 30
0.0
 11
383.4025162256925
 21
10.39093601987075
 31
0.0
  0
LINE
  5
997
330
923
100
AcDbEntity
  8
本体
  6
DASHED
 62
    20
 48
0.2
100
AcDbLine
 10
391.4025162256925
 20
0.2059360198707569
 30
0.0
 11
391.4025162256925
 21
10.39093601987075
 31
0.0
  0
ENDBLK
  5
999
330
923
100
AcDbEntity
  8
0
100
AcDbBlockEnd
  0
BLOCK
  5
E6C
330
E62
100
AcDbEntity
  8
0
100
AcDbBlockBegin
  2
*D6
 70
     1
 10
0.0
 20
0.0
 30
0.0
  3
*D6
  1

  0
LINE
  5
2908
330
E62
100
AcDbEntity
  8
寸法
  6
Continuous
 62
     0
370
    13
100
AcDbLine
 10
305.9299213345953
 20
494.2657594576344
 30
0.0
 11
340.4829582826633
 21
494.2657594576344
 31
0.0
  0
LINE
  5
2909
330
E62
100
AcDbEntity
  8
寸法
  6
Continuous
 62
     0
370
    13
100
AcDbLine
 10
308.1299213345951
 20
269.2687594576344
 30
0.0
 11
340.4829582826633
 21
269.2687594576344
 31
0.0
  0
LINE
  5
290A
330
E62
100
AcDbEntity
  8
寸法
  6
Continuous
 62
     0
370
    13
100
AcDbLine
 10
339.4829582826634
 20
490.2657594576344
 30
0.0
 11
339.4829582826633
 21
273.2687594576344
 31
0.0
  0
INSERT
  5
290B
330
E62
100
AcDbEntity
  8
寸法
  6
Continuous
 62
     0
370
    13
100
AcDbBlockReference
  2
_OPEN30
 10
339.4829582826634
 20
494.2657594576344
 30
0.0
 41
4.0
 42
4.0
 43
4.0
 50
90.0
  0
INSERT
  5
290C
330
E62
100
AcDbEntity
  8
寸法
  6
Continuous
 62
     0
370
    13
100
AcDbBlockReference
  2
_OPEN30
 10
339.4829582826633
 20
269.2687594576344
 30
0.0
 41
4.0
 42
4.0
 43
4.0
 50
270.0
  0
MTEXT
  5
290D
330
E62
100
AcDbEntity
  8
寸法
  6
Continuous
 62
     6
100
AcDbMText
 10
334.4829582826633
 20
381.7672594576342
 30
0.0
 40
8.0
 41
0.0
 71
     5
 72
     1
  1
\A1;225
  7
Standard
 11
0.0000000000000001
 21
1.0
 31
0.0
 73
     1
 44
1.0
  0
POINT
  5
290E
330
E62
100
AcDbEntity
  8
DEFPOINTS
  6
Continuous
 62
     0
100
AcDbPoint
 10
304.9299213345951
 20
494.2657594576344
 30
0.0
  0
POINT
  5
290F
330
E62
100
AcDbEntity
  8
DEFPOINTS
  6
Continuous
 62
     0
100
AcDbPoint
 10
307.1299213345951
 20
269.2687594576344
 30
0.0
  0
POINT
  5
2910
330
E62
100
AcDbEntity
  8
DEFPOINTS
  6
Continuous
 62
     0
100
AcDbPoint
 10
339.4829582826633
 20
269.2687594576344
 30
0.0
  0
ENDBLK
  5
E6D
330
E62
100
AcDbEntity
  8
0
100
AcDbBlockEnd
  0
BLOCK
  5
E78
330
E6E
100
AcDbEntity
  8
0
100
AcDbBlockBegin
  2
*D7
 70
     1
 10
0.0
 20
0.0
 30
0.0
  3
*D7
  1

  0
LINE
  5
EB9
330
E6E
100
AcDbEntity
  8
本体
  6
Continuous
 62
     0
370
    13
100
AcDbLine
 10
279.3158389999999
 20
-86.29217300000012
 30
0.0
 11
279.3158389999999
 21
-107.6406550307152
 31
0.0
  0
LINE
  5
EBA
330
E6E
100
AcDbEntity
  8
本体
  6
Continuous
 62
     0
370
    13
100
AcDbLine
 10
322.1158389999998
 20
-87.29217300000009
 30
0.0
 11
322.1158389999998
 21
-107.6406550307152
 31
0.0
  0
LINE
  5
EBB
330
E6E
100
AcDbEntity
  8
本体
  6
Continuous
 62
     0
370
    13
100
AcDbLine
 10
283.3158389999998
 20
-106.6406550307152
 30
0.0
 11
318.1158389999998
 21
-106.6406550307152
 31
0.0
  0
INSERT
  5
EBC
330
E6E
100
AcDbEntity
  8
本体
  6
Continuous
 62
     0
370
    13
100
AcDbBlockReference
  2
_OPEN30
 10
279.3158389999999
 20
-106.6406550307152
 30
0.0
 41
4.0
 42
4.0
 43
4.0
 50
180.0
  0
INSERT
  5
EBD
330
E6E
100
AcDbEntity
  8
本体
  6
Continuous
 62
     0
370
    13
100
AcDbBlockReference
  2
_OPEN30
 10
322.1158389999998
 20
-106.6406550307152
 30
0.0
 41
4.0
 42
4.0
 43
4.0
  0
MTEXT
  5
EBE
330
E6E
100
AcDbEntity
  8
本体
  6
Continuous
 62
     6
100
AcDbMText
 10
300.6327753815511
 20
-101.6406550307151
 30
0.0
 40
8.0
 41
0.0
 71
     5
 72
     1
  1
\A1;42.8
  7
Standard
 73
     1
 44
1.0
  0
POINT
  5
EBF
330
E6E
100
AcDbEntity
  8
DEFPOINTS
  6
Continuous
 62
     0
100
AcDbPoint
 10
279.3158389999999
 20
-85.29217300000011
 30
0.0
  0
POINT
  5
EC0
330
E6E
100
AcDbEntity
  8
DEFPOINTS
  6
Continuous
 62
     0
100
AcDbPoint
 10
322.1158389999998
 20
-86.29217300000012
 30
0.0
  0
POINT
  5
EC1
330
E6E
100
AcDbEntity
  8
DEFPOINTS
  6
Continuous
 62
     0
100
AcDbPoint
 10
322.1158389999998
 20
-106.6406550307152
 30
0.0
  0
ENDBLK
  5
E79
330
E6E
100
AcDbEntity
  8
0
100
AcDbBlockEnd
  0
BLOCK
  5
F86
330
EDD
100
AcDbEntity
  8
0
100
AcDbBlockBegin
  2
A2zuwaku_tate_ban
 70
     0
 10
0.0
 20
0.0
 30
0.0
  3
A2zuwaku_tate_ban
  1

  0
LWPOLYLINE
  5
EDE
330
EDD
100
AcDbEntity
  8
0
  6
Continuous
 62
    20
100
AcDbPolyline
 90
        4
 70
     1
 43
0.0
 10
0.0
 20
0.0
 10
403.3259999999998
 20
0.0
 10
403.3259999999998
 20
556.101
 10
0.0
 20
556.101
  0
LINE
  5
EDF
330
EDD
100
AcDbEntity
  8
本体
  6
Continuous
 62
    20
100
AcDbLine
 10
0.0
 20
556.101
 30
0.0
 11
403.3259999999998
 21
556.101
 31
0.0
  0
MTEXT
  5
EE0
330
EDD
100
AcDbEntity
  8
0
  6
Continuous
 62
    20
 48
0.2
100
AcDbMText
 10
100.9120368161132
 20
23.98990730089127
 30
0.0
 40
2.0
 41
6.9836
 71
     1
 72
     5
  1
±0.3
 73
     1
 44
1.0
  0
MTEXT
  5
EE1
330
EDD
100
AcDbEntity
  8
0
  6
Continuous
 62
    20
 48
0.2
100
AcDbMText
 10
100.9120368161132
 20
18.72102743463239
 30
0.0
 40
2.0
 41
6.9836
 71
     1
 72
     5
  1
±0.5
 73
     1
 44
1.0
  0
MTEXT
  5
EE2
330
EDD
100
AcDbEntity
  8
0
  6
Continuous
 62
    20
 48
0.2
100
AcDbMText
 10
100.9120368161132
 20
8.422761210628724
 30
0.0
 40
2.0
 41
6.9836
 71
     1
 72
     5
  1
±1.2
 73
     1
 44
1.0
  0
MTEXT
  5
EE3
330
EDD
100
AcDbEntity
  8
0
  6
Continuous
 62
    20
 48
0.2
100
AcDbMText
 10
100.9120368161132
 20
13.69164107688761
 30
0.0
 40
2.0
 41
6.9836
 71
     1
 72
     5
  1
±0.8
 73
     1
 44
1.0
  0
MTEXT
  5
EE4
330
EDD
100
AcDbEntity
  8
0
  6
Continuous
 62
    20
 48
0.2
100
AcDbMText
 10
100.9120368161132
 20
3.393375608848888
 30
0.0
 40
2.0
 41
6.9836
 71
     1
 72
     5
  1
±2
 73
     1
 44
1.0
  0
MTEXT
  5
EE5
330
EDD
100
AcDbEntity
  8
0
  6
Continuous
 62
    20
 48
0.2
100
AcDbMText
 10
100.3066240282226
 20
29.02743086646325
 30
0.0
 40
2.0
 41
8.302046568063136
 71
     1
 72
     5
  1
Ｂ  級
 73
     1
 44
1.0
  0
LINE
  5
EE6
330
EDD
100
AcDbEntity
  8
本体
  6
Continuous
 62
    20
100
AcDbLine
 10
0.2581351789582262
 20
35.6475
 30
0.0
 11
403.3259999999998
 21
35.6475
 31
0.0
  0
LINE
  5
EE7
330
EDD
100
AcDbEntity
  8
本体
  6
Continuous
 62
    20
100
AcDbLine
 10
0.2581351789582262
 20
30.555
 30
0.0
 11
230.1809999999999
 21
30.555
 31
0.0
  0
LINE
  5
EE8
330
EDD
100
AcDbEntity
  8
本体
  6
Continuous
 62
    20
100
AcDbLine
 10
0.2581351789582262
 20
25.4625
 30
0.0
 11
230.1809999999999
 21
25.4625
 31
0.0
  0
LINE
  5
EE9
330
EDD
100
AcDbEntity
  8
本体
  6
Continuous
 62
    20
100
AcDbLine
 10
0.2581351789582262
 20
20.37
 30
0.0
 11
230.1809999999999
 21
20.37
 31
0.0
  0
LINE
  5
EEA
330
EDD
100
AcDbEntity
  8
本体
  6
Continuous
 62
    20
100
AcDbLine
 10
0.2581351789582262
 20
15.2775
 30
0.0
 11
230.1809999999999
 21
15.2775
 31
0.0
  0
LINE
  5
EEB
330
EDD
100
AcDbEntity
  8
本体
  6
Continuous
 62
    20
100
AcDbLine
 10
0.2581351789582262
 20
10.18499999999999
 30
0.0
 11
230.1809999999999
 21
10.18499999999999
 31
0.0
  0
LINE
  5
EEC
330
EDD
100
AcDbEntity
  8
本体
  6
Continuous
 62
    20
100
AcDbLine
 10
0.2581351789582262
 20
5.0925
 30
0.0
 11
230.1809999999999
 21
5.0925
 31
0.0
  0
MTEXT
  5
EED
330
EDD
100
AcDbEntity
  8
0
  6
Continuous
 62
    20
 48
0.2
100
AcDbMText
 10
4.816987857309056
 20
8.556527714770201
 30
0.0
 40
2.0
 41
32.2049
 71
     1
 72
     5
  1
１２０  〃     ４００  〃
 73
     1
 44
1.0
  0
MTEXT
  5
EEE
330
EDD
100
AcDbEntity
  8
0
  6
Continuous
 62
    20
 48
0.2
100
AcDbMText
 10
4.816987857309056
 20
3.411525573798658
 30
0.0
 40
2.0
 41
32.20492349478555
 71
     1
 72
     5
  1
４００  〃   １０００  〃
 73
     1
 44
1.0
  0
MTEXT
  5
EEF
330
EDD
100
AcDbEntity
  8
0
  6
Continuous
 62
    20
 48
0.2
100
AcDbMText
 10
6.595880331014412
 20
29.02743086646325
 30
0.0
 40
2.0
 41
27.03797675091755
 71
     1
 72
     5
  1
打抜きの普通寸法許容差
 73
     1
 44
1.0
  0
MTEXT
  5
EF0
330
EDD
100
AcDbEntity
  8
本体
  6
Continuous
 62
    20
100
AcDbMText
 10
-3.768449999999988
 20
36.76784999999995
 30
0.0
 40
3.259199999999998
 41
0.0
 71
     1
 72
     1
  1
\T0.851;H
 73
     1
 44
1.0
  0
LINE
  5
EF1
330
EDD
100
AcDbEntity
  8
本体
  6
Continuous
 62
    20
100
AcDbLine
 10
-0.0000000000000009
 20
60.60075000000001
 30
0.0
 11
-2.546250000000001
 21
60.60075000000001
 31
0.0
  0
LINE
  5
EF2
330
EDD
100
AcDbEntity
  8
本体
  6
Continuous
 62
    20
100
AcDbLine
 10
96.46143565474595
 20
-0.0000000000000011
 30
0.0
 11
96.46143565474595
 21
30.555
 31
0.0
  0
LINE
  5
EF3
330
EDD
100
AcDbEntity
  8
本体
  6
Continuous
 62
    20
100
AcDbLine
 10
55.99853818046401
 20
-0.0000000000000011
 30
0.0
 11
55.99853818046401
 21
30.555
 31
0.0
  0
LINE
  5
EF4
330
EDD
100
AcDbEntity
  8
本体
  6
Continuous
 62
    20
100
AcDbLine
 10
40.72103818046399
 20
-0.0000000000000011
 30
0.0
 11
40.72103818046399
 21
30.555
 31
0.0
  0
MTEXT
  5
EF5
330
EDD
100
AcDbEntity
  8
本体
  6
Continuous
 62
    20
100
AcDbMText
 10
23.71068
 20
-0.9166500000000059
 30
0.0
 40
3.259199999999998
 41
0.0
 71
     1
 72
     1
  1
\T1.043;\W1.226;\A1;1
 73
     1
 44
1.0
  0
MTEXT
  5
EF6
330
EDD
100
AcDbEntity
  8
0
  6
Continuous
 62
    20
 48
0.2
100
AcDbMText
 10
44.96260768898115
 20
3.393375608848888
 30
0.0
 40
2.0
 41
6.9836
 71
     1
 72
     5
  1
±0.8
 73
     1
 44
1.0
  0
LINE
  5
EF7
330
EDD
100
AcDbEntity
  8
本体
  6
Continuous
 62
    20
100
AcDbLine
 10
48.88799999999999
 20
-0.0000000000000011
 30
0.0
 11
48.88799999999999
 21
-2.546249999999999
 31
0.0
  0
MTEXT
  5
EF8
330
EDD
100
AcDbEntity
  8
0
  6
Continuous
 62
    20
 48
0.2
100
AcDbMText
 10
60.76641698444118
 20
3.411525573798658
 30
0.0
 40
2.0
 41
32.20492349478555
 71
     1
 72
     5
  1
４００  〃   １０００  〃
 73
     1
 44
1.0
  0
MTEXT
  5
EF9
330
EDD
100
AcDbEntity
  8
本体
  6
Continuous
 62
    20
100
AcDbMText
 10
73.12830000000002
 20
-0.9166500000000059
 30
0.0
 40
3.259199999999998
 41
0.0
 71
     1
 72
     1
  1
\T0.851;\A1;2
 73
     1
 44
1.0
  0
LINE
  5
EFA
330
EDD
100
AcDbEntity
  8
本体
  6
Continuous
 62
    20
100
AcDbLine
 10
99.813
 20
-0.0000000000000011
 30
0.0
 11
99.813
 21
-2.546249999999999
 31
0.0
  0
MTEXT
  5
EFB
330
EDD
100
AcDbEntity
  8
0
  6
Continuous
 62
    20
 48
0.2
100
AcDbMText
 10
32.52508095653171
 20
34.67595789410752
 30
0.0
 40
3.0
 41
51.59855965713518
 71
     1
 72
     5
  1
金属プレス加工品普通寸法公差
 73
     1
 44
1.0
  0
MTEXT
  5
EFC
330
EDD
100
AcDbEntity
  8
0
  6
Continuous
 62
    20
 48
0.2
100
AcDbMText
 10
28.19400993843474
 20
24.10965518909581
 30
0.0
 40
2.0
 41
11.1385
 71
     1
 72
     5
  1
６ 以下
 73
     1
 44
1.0
  0
MTEXT
  5
EFD
330
EDD
100
AcDbEntity
  8
0
  6
Continuous
 62
    20
 48
0.2
100
AcDbMText
 10
4.816987857309056
 20
13.99661023054415
 30
0.0
 40
2.0
 41
32.2049
 71
     1
 72
     5
  1
  ３０  〃     １２０  〃
 73
     1
 44
1.0
  0
MTEXT
  5
EFE
330
EDD
100
AcDbEntity
  8
0
  6
Continuous
 62
    20
 48
0.2
100
AcDbMText
 10
13.34130633665073
 20
18.65404741903494
 30
0.0
 40
2.0
 41
25.99124615738788
 71
     1
 72
     5
  1
６を超え  ３０  〃
 73
     1
 44
1.0
  0
MTEXT
  5
EFF
330
EDD
100
AcDbEntity
  8
0
  6
Continuous
 62
    20
 48
0.2
100
AcDbMText
 10
44.96260768898115
 20
13.69164107688761
 30
0.0
 40
2.0
 41
6.9836
 71
     1
 72
     5
  1
±0.3
 73
     1
 44
1.0
  0
MTEXT
  5
F00
330
EDD
100
AcDbEntity
  8
0
  6
Continuous
 62
    20
 48
0.2
100
AcDbMText
 10
44.96260768898115
 20
8.422761210628724
 30
0.0
 40
2.0
 41
6.9836
 71
     1
 72
     5
  1
±0.5
 73
     1
 44
1.0
  0
MTEXT
  5
F01
330
EDD
100
AcDbEntity
  8
0
  6
Continuous
 62
    20
 48
0.2
100
AcDbMText
 10
44.96260768898115
 20
18.72102743463239
 30
0.0
 40
2.0
 41
6.9836
 71
     1
 72
     5
  1
±0.2
 73
     1
 44
1.0
  0
MTEXT
  5
F02
330
EDD
100
AcDbEntity
  8
0
  6
Continuous
 62
    20
 48
0.2
100
AcDbMText
 10
44.96260768898115
 20
23.98990730089127
 30
0.0
 40
2.0
 41
6.983634309616491
 71
     1
 72
     5
  1
±0.1
 73
     1
 44
1.0
  0
MTEXT
  5
F03
330
EDD
100
AcDbEntity
  8
0
  6
Continuous
 62
    20
 48
0.2
100
AcDbMText
 10
44.6881371226235
 20
29.02743086646325
 30
0.0
 40
2.0
 41
8.302046568063136
 71
     1
 72
     5
  1
Ｂ  級
 73
     1
 44
1.0
  0
MTEXT
  5
F04
330
EDD
100
AcDbEntity
  8
0
  6
Continuous
 62
    20
 48
0.2
100
AcDbMText
 10
60.76641698444118
 20
13.99661023054415
 30
0.0
 40
2.0
 41
32.2049
 71
     1
 72
     5
  1
  ３０  〃     １２０  〃
 73
     1
 44
1.0
  0
MTEXT
  5
F05
330
EDD
100
AcDbEntity
  8
0
  6
Continuous
 62
    20
 48
0.2
100
AcDbMText
 10
69.29073546378287
 20
18.65404741903494
 30
0.0
 40
2.0
 41
25.99124615738788
 71
     1
 72
     5
  1
６を超え  ３０  〃
 73
     1
 44
1.0
  0
MTEXT
  5
F06
330
EDD
100
AcDbEntity
  8
0
  6
Continuous
 62
    20
 48
0.2
100
AcDbMText
 10
60.76641698444118
 20
8.556527714770201
 30
0.0
 40
2.0
 41
32.2049
 71
     1
 72
     5
  1
１２０  〃     ４００  〃
 73
     1
 44
1.0
  0
MTEXT
  5
F07
330
EDD
100
AcDbEntity
  8
0
  6
Continuous
 62
    20
 48
0.2
100
AcDbMText
 10
59.7477075869475
 20
29.02743086646325
 30
0.0
 40
2.0
 41
34.58719399086748
 71
     1
 72
     5
  1
曲げ及び絞りの普通寸法許容差
 73
     1
 44
1.0
  0
MTEXT
  5
F08
330
EDD
100
AcDbEntity
  8
0
  6
Continuous
 62
    20
 48
0.2
100
AcDbMText
 10
84.14343906556686
 20
24.10965518909581
 30
0.0
 40
2.0
 41
11.1385
 71
     1
 72
     5
  1
６ 以下
 73
     1
 44
1.0
  0
MTEXT
  5
F09
330
EDD
100
AcDbEntity
  8
本体
  6
Continuous
 62
    20
100
AcDbMText
 10
-3.768449999999988
 20
87.69284999999996
 30
0.0
 40
3.259199999999998
 41
0.0
 71
     1
 72
     1
  1
\T0.851;G
 73
     1
 44
1.0
  0
LINE
  5
F0A
330
EDD
100
AcDbEntity
  8
本体
  6
Continuous
 62
    20
100
AcDbLine
 10
-0.0000000000000009
 20
111.5257499999999
 30
0.0
 11
-4.073999999999998
 21
111.5257499999999
 31
0.0
  0
MTEXT
  5
F0B
330
EDD
100
AcDbEntity
  8
本体
  6
Continuous
 62
    20
100
AcDbMText
 10
-3.768449999999988
 20
145.492725
 30
0.0
 40
3.259199999999998
 41
0.0
 71
     1
 72
     1
  1
\T0.851;I
 73
     1
 44
1.0
  0
LINE
  5
F0C
330
EDD
100
AcDbEntity
  8
本体
  6
Continuous
 62
    20
100
AcDbLine
 10
-0.0000000000000009
 20
162.4507499999999
 30
0.0
 11
-2.546250000000001
 21
162.4507499999999
 31
0.0
  0
MTEXT
  5
F0D
330
EDD
100
AcDbEntity
  8
本体
  6
Continuous
 62
    20
100
AcDbMText
 10
-3.768449999999988
 20
189.5428499999999
 30
0.0
 40
3.259199999999998
 41
0.0
 71
     1
 72
     1
  1
\T0.851;H
 73
     1
 44
1.0
  0
LINE
  5
F0E
330
EDD
100
AcDbEntity
  8
本体
  6
Continuous
 62
    20
100
AcDbLine
 10
-0.0000000000000009
 20
213.37575
 30
0.0
 11
-2.546250000000001
 21
213.37575
 31
0.0
  0
MTEXT
  5
F0F
330
EDD
100
AcDbEntity
  8
本体
  6
Continuous
 62
    20
100
AcDbMText
 10
-3.768449999999988
 20
240.46785
 30
0.0
 40
3.259199999999998
 41
0.0
 71
     1
 72
     1
  1
\T0.851;G
 73
     1
 44
1.0
  0
LINE
  5
F10
330
EDD
100
AcDbEntity
  8
本体
  6
Continuous
 62
    20
100
AcDbLine
 10
-0.0000000000000009
 20
264.3007499999999
 30
0.0
 11
-4.073999999999998
 21
264.3007499999999
 31
0.0
  0
MTEXT
  5
F11
330
EDD
100
AcDbEntity
  8
本体
  6
Continuous
 62
    20
100
AcDbMText
 10
-3.768449999999988
 20
291.39285
 30
0.0
 40
3.259199999999998
 41
0.0
 71
     1
 72
     1
  1
\T0.851;F
 73
     1
 44
1.0
  0
LINE
  5
F12
330
EDD
100
AcDbEntity
  8
本体
  6
Continuous
 62
    20
100
AcDbLine
 10
-0.0000000000000009
 20
315.22575
 30
0.0
 11
-2.546250000000001
 21
315.22575
 31
0.0
  0
LINE
  5
F13
330
EDD
100
AcDbEntity
  8
本体
  6
Continuous
 62
    20
100
AcDbLine
 10
-0.0000000000000009
 20
315.22575
 30
0.0
 11
-2.546250000000001
 21
315.22575
 31
0.0
  0
MTEXT
  5
F14
330
EDD
100
AcDbEntity
  8
本体
  6
Continuous
 62
    20
100
AcDbMText
 10
-3.768449999999988
 20
342.3178499999999
 30
0.0
 40
3.259199999999998
 41
0.0
 71
     1
 72
     1
  1
\T0.851;\A1;E
 73
     1
 44
1.0
  0
LINE
  5
F15
330
EDD
100
AcDbEntity
  8
本体
  6
Continuous
 62
    20
100
AcDbLine
 10
-0.0000000000000009
 20
366.15075
 30
0.0
 11
-2.546250000000001
 21
366.15075
 31
0.0
  0
LINE
  5
F16
330
EDD
100
AcDbEntity
  8
本体
  6
Continuous
 62
    20
100
AcDbLine
 10
-0.0000000000000009
 20
366.15075
 30
0.0
 11
-2.546250000000001
 21
366.15075
 31
0.0
  0
MTEXT
  5
F17
330
EDD
100
AcDbEntity
  8
本体
  6
Continuous
 62
    20
100
AcDbMText
 10
-3.768449999999988
 20
393.2428499999998
 30
0.0
 40
3.259199999999998
 41
0.0
 71
     1
 72
     1
  1
\T0.851;\A1;D
 73
     1
 44
1.0
  0
LINE
  5
F18
330
EDD
100
AcDbEntity
  8
本体
  6
Continuous
 62
    20
100
AcDbLine
 10
-0.0000000000000009
 20
417.0757499999998
 30
0.0
 11
-4.073999999999998
 21
417.0757499999998
 31
0.0
  0
MTEXT
  5
F19
330
EDD
100
AcDbEntity
  8
本体
  6
Continuous
 62
    20
100
AcDbMText
 10
-3.768449999999988
 20
444.16785
 30
0.0
 40
3.259199999999998
 41
0.0
 71
     1
 72
     1
  1
\T0.851;\A1;C
 73
     1
 44
1.0
  0
MTEXT
  5
F1A
330
EDD
100
AcDbEntity
  8
本体
  6
Continuous
 62
    20
100
AcDbMText
 10
1.220162999999978
 20
551.78256
 30
0.0
 40
3.56475
 41
0.0
 71
     7
 72
     1
  1
\T0.782;\W0.700;\A1;Ｄｉｍｅｎｓｉｏｎｓ　ｉｎ　ｍｍ（ｎｏｔ　ｔｏ　ｓｃａｌｅ）
 73
     1
 44
1.0
  0
LINE
  5
F1B
330
EDD
100
AcDbEntity
  8
本体
  6
Continuous
 62
    20
100
AcDbLine
 10
0.0
 20
551.0084999999998
 30
0.0
 11
71.29500000000001
 21
551.0084999999998
 31
0.0
  0
LINE
  5
F1C
330
EDD
100
AcDbEntity
  8
本体
  6
Continuous
 62
    20
100
AcDbLine
 10
-0.0000000000000009
 20
468.00075
 30
0.0
 11
-2.546250000000001
 21
468.00075
 31
0.0
  0
MTEXT
  5
F1D
330
EDD
100
AcDbEntity
  8
本体
  6
Continuous
 62
    20
100
AcDbMText
 10
-3.768449999999988
 20
495.0928499999998
 30
0.0
 40
3.259199999999998
 41
0.0
 71
     1
 72
     1
  1
\T0.851;\A1;B
 73
     1
 44
1.0
  0
LINE
  5
F1E
330
EDD
100
AcDbEntity
  8
本体
  6
Continuous
 62
    20
100
AcDbLine
 10
-0.0000000000000009
 20
518.92575
 30
0.0
 11
-2.546250000000001
 21
518.92575
 31
0.0
  0
MTEXT
  5
F1F
330
EDD
100
AcDbEntity
  8
本体
  6
Continuous
 62
    20
100
AcDbMText
 10
-3.768449999999988
 20
539.1429749999998
 30
0.0
 40
3.259199999999998
 41
0.0
 71
     1
 72
     1
  1
\T0.851;\A1;A
 73
     1
 44
1.0
  0
MTEXT
  5
F20
330
EDD
100
AcDbEntity
  8
本体
  6
Continuous
 62
    20
100
AcDbMText
 10
23.71068
 20
560.2768499999998
 30
0.0
 40
3.259199999999998
 41
0.0
 71
     1
 72
     1
  1
\T1.043;\W1.226;\A1;1
 73
     1
 44
1.0
  0
LINE
  5
F21
330
EDD
100
AcDbEntity
  8
本体
  6
Continuous
 62
    20
100
AcDbLine
 10
48.88799999999998
 20
556.101
 30
0.0
 11
48.88799999999998
 21
558.64725
 31
0.0
  0
MTEXT
  5
F22
330
EDD
100
AcDbEntity
  8
本体
  6
Continuous
 62
    20
100
AcDbMText
 10
73.12830000000002
 20
560.2768499999998
 30
0.0
 40
3.259199999999998
 41
0.0
 71
     1
 72
     1
  1
\T0.851;\A1;2
 73
     1
 44
1.0
  0
LINE
  5
F23
330
EDD
100
AcDbEntity
  8
本体
  6
Continuous
 62
    20
100
AcDbLine
 10
71.29500000000001
 20
551.0084999999998
 30
0.0
 11
71.29500000000001
 21
556.101
 31
0.0
  0
LINE
  5
F24
330
EDD
100
AcDbEntity
  8
本体
  6
Continuous
 62
    20
100
AcDbLine
 10
99.81299999999999
 20
556.101
 30
0.0
 11
99.81299999999999
 21
558.64725
 31
0.0
  0
LINE
  5
F25
330
EDD
100
AcDbEntity
  8
本体
  6
Continuous
 62
    20
100
AcDbLine
 10
403.3259999999998
 20
-0.0000000000000011
 30
0.0
 11
403.3259999999998
 21
278.0505
 31
0.0
  0
MTEXT
  5
F26
330
EDD
100
AcDbEntity
  8
0
  6
Continuous
 62
    20
 48
0.2
100
AcDbMText
 10
240.4310560359268
 20
5.456098617019682
 30
0.0
 40
3.0
 41
65.09525565518856
 71
     1
 72
     5
  1
Artics Co.,Ltd  CAD Dept
 73
     1
 44
1.0
  0
MTEXT
  5
F27
330
EDD
100
AcDbEntity
  8
0
  6
Continuous
 62
    20
 48
0.2
100
AcDbMText
 10
239.2366479296532
 20
13.51644271642573
 30
0.0
 40
5.5
 41
63.30364349577846
 71
     1
 72
     5
  1
株式会社アルテックス
 73
     1
 44
1.0
  0
LINE
  5
F28
330
EDD
100
AcDbEntity
  8
本体
  6
Continuous
 62
    20
100
AcDbLine
 10
230.1809999999999
 20
15.2775
 30
0.0
 11
311.661
 21
15.2775
 31
0.0
  0
LINE
  5
F29
330
EDD
100
AcDbEntity
  8
本体
  6
Continuous
 62
    20
100
AcDbLine
 10
230.1809999999999
 20
30.555
 30
0.0
 11
311.661
 21
30.555
 31
0.0
  0
LINE
  5
F2A
330
EDD
100
AcDbEntity
  8
本体
  6
Continuous
 62
    20
100
AcDbLine
 10
181.2929999999999
 20
-0.0000000000000011
 30
0.0
 11
181.2929999999999
 21
35.6475
 31
0.0
  0
LINE
  5
F2B
330
EDD
100
AcDbEntity
  8
本体
  6
Continuous
 62
    20
100
AcDbLine
 10
127.3125
 20
-0.0000000000000011
 30
0.0
 11
127.3125
 21
35.6475
 31
0.0
  0
LINE
  5
F2C
330
EDD
100
AcDbEntity
  8
本体
  6
Continuous
 62
    20
100
AcDbLine
 10
112.0349999999999
 20
-0.0000000000000011
 30
0.0
 11
112.0349999999999
 21
35.6475
 31
0.0
  0
MTEXT
  5
F2D
330
EDD
100
AcDbEntity
  8
本体
  6
Continuous
 62
    20
100
AcDbMText
 10
143.6085
 20
3.819374999999998
 30
0.0
 40
2.54625
 41
0.0
 71
     1
 72
     1
  1
\T0.815;\W0.959;\A1;ＲＥＶＩＳＩＯＮＳ
 73
     1
 44
1.0
  0
MTEXT
  5
F2E
330
EDD
100
AcDbEntity
  8
本体
  6
Continuous
 62
    20
100
AcDbMText
 10
124.0532999999995
 20
-0.9166500000000059
 30
0.0
 40
3.259199999999998
 41
0.0
 71
     1
 72
     1
  1
\T0.851;\A1;3
 73
     1
 44
1.0
  0
MTEXT
  5
F2F
330
EDD
100
AcDbEntity
  8
本体
  6
Continuous
 62
    20
100
AcDbMText
 10
114.9472734374999
 20
3.819374999999998
 30
0.0
 40
2.54625
 41
0.0
 71
     1
 72
     1
  1
\T0.815;\W0.959;\A1;ＭＡＲＫ
 73
     1
 44
1.0
  0
LINE
  5
F30
330
EDD
100
AcDbEntity
  8
本体
  6
Continuous
 62
    20
100
AcDbLine
 10
150.7379999999999
 20
-0.0000000000000011
 30
0.0
 11
150.7379999999999
 21
-2.546249999999999
 31
0.0
  0
MTEXT
  5
F31
330
EDD
100
AcDbEntity
  8
本体
  6
Continuous
 62
    20
100
AcDbMText
 10
174.9782999999999
 20
-0.9166500000000059
 30
0.0
 40
3.259199999999998
 41
0.0
 71
     1
 72
     1
  1
\T0.851;\A1;4
 73
     1
 44
1.0
  0
MTEXT
  5
F32
330
EDD
100
AcDbEntity
  8
本体
  6
Continuous
 62
    20
100
AcDbMText
 10
188.7885234374999
 20
3.819374999999998
 30
0.0
 40
2.54625
 41
0.0
 71
     1
 72
     1
  1
\T0.815;\W0.959;\A1;ＤＡＴＥ
 73
     1
 44
1.0
  0
LWPOLYLINE
  5
F33
330
EDD
100
AcDbEntity
  8
0
  6
Continuous
 62
    20
100
AcDbPolyline
 90
        3
 70
   129
 43
0.0
 10
119.5856789591269
 20
14.85116725774739
 10
117.1871732317472
 20
10.69683347568081
 10
121.9841846865066
 20
10.69683347568081
  0
MTEXT
  5
F34
330
EDD
100
AcDbEntity
  8
本体
  6
Continuous
 62
    20
100
AcDbMText
 10
118.909875
 20
13.24049999999999
 30
0.0
 40
2.036999999999999
 41
0.0
 71
     1
 72
     1
  1
\T0.851;\A1;2
 73
     1
 44
1.0
  0
LWPOLYLINE
  5
F35
330
EDD
100
AcDbEntity
  8
0
  6
Continuous
 62
    20
100
AcDbPolyline
 90
        3
 70
   129
 43
0.0
 10
119.5856789591269
 20
9.758667257747395
 10
117.1871732317472
 20
5.604333475680808
 10
121.9841846865066
 20
5.604333475680808
  0
MTEXT
  5
F36
330
EDD
100
AcDbEntity
  8
本体
  6
Continuous
 62
    20
100
AcDbMText
 10
119.2154249999999
 20
8.147999999999999
 30
0.0
 40
2.036999999999999
 41
0.0
 71
     1
 72
     1
  1
\T1.043;\W1.226;\A1;1
 73
     1
 44
1.0
  0
LWPOLYLINE
  5
F37
330
EDD
100
AcDbEntity
  8
0
  6
Continuous
 62
    20
100
AcDbPolyline
 90
        3
 70
   129
 43
0.0
 10
119.5856789591269
 20
19.94366725774739
 10
117.1871732317472
 20
15.78933347568081
 10
121.9841846865066
 20
15.78933347568081
  0
MTEXT
  5
F38
330
EDD
100
AcDbEntity
  8
本体
  6
Continuous
 62
    20
100
AcDbMText
 10
118.909875
 20
18.33299999999998
 30
0.0
 40
2.036999999999999
 41
0.0
 71
     1
 72
     1
  1
\T0.851;\A1;3
 73
     1
 44
1.0
  0
LWPOLYLINE
  5
F39
330
EDD
100
AcDbEntity
  8
0
  6
Continuous
 62
    20
100
AcDbPolyline
 90
        3
 70
   129
 43
0.0
 10
119.5856789591269
 20
30.1286672577474
 10
117.1871732317472
 20
25.97433347568081
 10
121.9841846865066
 20
25.97433347568081
  0
LWPOLYLINE
  5
F3A
330
EDD
100
AcDbEntity
  8
0
  6
Continuous
 62
    20
100
AcDbPolyline
 90
        3
 70
   129
 43
0.0
 10
119.5856789591269
 20
25.03616725774739
 10
117.1871732317472
 20
20.88183347568081
 10
121.9841846865066
 20
20.88183347568081
  0
MTEXT
  5
F3B
330
EDD
100
AcDbEntity
  8
本体
  6
Continuous
 62
    20
100
AcDbMText
 10
118.909875
 20
28.518
 30
0.0
 40
2.036999999999999
 41
0.0
 71
     1
 72
     1
  1
\T0.851;\A1;5
 73
     1
 44
1.0
  0
MTEXT
  5
F3C
330
EDD
100
AcDbEntity
  8
本体
  6
Continuous
 62
    20
100
AcDbMText
 10
118.909875
 20
23.4255
 30
0.0
 40
2.036999999999999
 41
0.0
 71
     1
 72
     1
  1
\T0.851;\A1;4
 73
     1
 44
1.0
  0
LWPOLYLINE
  5
F3D
330
EDD
100
AcDbEntity
  8
0
  6
Continuous
 62
    20
100
AcDbPolyline
 90
        3
 70
   129
 43
0.0
 10
119.5856789591269
 20
35.22116725774739
 10
117.1871732317472
 20
31.06683347568081
 10
121.9841846865066
 20
31.06683347568081
  0
MTEXT
  5
F3E
330
EDD
100
AcDbEntity
  8
本体
  6
Continuous
 62
    20
100
AcDbMText
 10
118.909875
 20
33.6105
 30
0.0
 40
2.036999999999999
 41
0.0
 71
     1
 72
     1
  1
\T0.851;\A1;6
 73
     1
 44
1.0
  0
LINE
  5
F3F
330
EDD
100
AcDbEntity
  8
本体
  6
Continuous
 62
    20
100
AcDbLine
 10
205.737
 20
-0.0000000000000011
 30
0.0
 11
205.737
 21
35.6475
 31
0.0
  0
LINE
  5
F40
330
EDD
100
AcDbEntity
  8
本体
  6
Continuous
 62
    20
100
AcDbLine
 10
230.1809999999999
 20
-0.0000000000000011
 30
0.0
 11
230.1809999999999
 21
35.6475
 31
0.0
  0
MTEXT
  5
F41
330
EDD
100
AcDbEntity
  8
本体
  6
Continuous
 62
    20
100
AcDbMText
 10
213.2325234375
 20
3.819374999999998
 30
0.0
 40
2.54625
 41
0.0
 71
     1
 72
     1
  1
\T0.815;\W0.959;\A1;ＣＨ’Ｄ
 73
     1
 44
1.0
  0
LINE
  5
F42
330
EDD
100
AcDbEntity
  8
本体
  6
Continuous
 62
    20
100
AcDbLine
 10
201.6629999999999
 20
-0.0000000000000011
 30
0.0
 11
201.6629999999999
 21
-4.073999999999998
 31
0.0
  0
MTEXT
  5
F43
330
EDD
100
AcDbEntity
  8
本体
  6
Continuous
 62
    20
100
AcDbMText
 10
225.9033
 20
-0.9166500000000059
 30
0.0
 40
3.259199999999998
 41
0.0
 71
     1
 72
     1
  1
\T0.851;\A1;5
 73
     1
 44
1.0
  0
LINE
  5
F44
330
EDD
100
AcDbEntity
  8
本体
  6
Continuous
 62
    20
100
AcDbLine
 10
252.5879999999999
 20
-0.0000000000000011
 30
0.0
 11
252.5879999999999
 21
-2.546249999999999
 31
0.0
  0
MTEXT
  5
F45
330
EDD
100
AcDbEntity
  8
本体
  6
Continuous
 62
    20
100
AcDbMText
 10
276.8283
 20
-0.9166500000000059
 30
0.0
 40
3.259199999999998
 41
0.0
 71
     1
 72
     1
  1
\T0.851;\A1;6
 73
     1
 44
1.0
  0
MTEXT
  5
F46
330
EDD
100
AcDbEntity
  8
本体
  6
Continuous
 62
    20
100
AcDbMText
 10
233.9723662499999
 20
34.476225
 30
0.0
 40
2.74995
 41
0.0
 71
     1
 72
     1
  1
\T0.815;\W0.959;\A1;ＤＥＳ’Ｄ
 73
     1
 44
1.0
  0
LINE
  5
F47
330
EDD
100
AcDbEntity
  8
本体
  6
Continuous
 62
    20
100
AcDbLine
 10
230.1809999999999
 20
20.37
 30
0.0
 11
291.291
 21
20.37
 31
0.0
  0
LINE
  5
F48
330
EDD
100
AcDbEntity
  8
本体
  6
Continuous
 62
    20
100
AcDbLine
 10
250.551
 20
15.2775
 30
0.0
 11
250.551
 21
35.6475
 31
0.0
  0
MTEXT
  5
F49
330
EDD
100
AcDbEntity
  8
本体
  6
Continuous
 62
    20
100
AcDbMText
 10
255.6314053124999
 20
34.476225
 30
0.0
 40
2.74995
 41
0.0
 71
     1
 72
     1
  1
\T0.815;\W0.959;\A1;ＣＨ’Ｄ
 73
     1
 44
1.0
  0
LINE
  5
F4A
330
EDD
100
AcDbEntity
  8
本体
  6
Continuous
 62
    20
100
AcDbLine
 10
291.291
 20
15.2775
 30
0.0
 11
291.291
 21
35.6475
 31
0.0
  0
LINE
  5
F4B
330
EDD
100
AcDbEntity
  8
本体
  6
Continuous
 62
    20
100
AcDbLine
 10
270.921
 20
15.2775
 30
0.0
 11
270.921
 21
35.6475
 31
0.0
  0
MTEXT
  5
F4C
330
EDD
100
AcDbEntity
  8
本体
  6
Continuous
 62
    20
100
AcDbMText
 10
274.7123662499999
 20
34.476225
 30
0.0
 40
2.74995
 41
0.0
 71
     1
 72
     1
  1
\T0.815;\W0.959;\A1;ＡＰＰ’Ｄ
 73
     1
 44
1.0
  0
LINE
  5
F4D
330
EDD
100
AcDbEntity
  8
本体
  6
Continuous
 62
    20
100
AcDbLine
 10
311.661
 20
10.18499999999999
 30
0.0
 11
403.3259999999998
 21
10.18499999999999
 31
0.0
  0
LINE
  5
F4E
330
EDD
100
AcDbEntity
  8
本体
  6
Continuous
 62
    20
100
AcDbLine
 10
311.661
 20
25.4625
 30
0.0
 11
403.3259999999998
 21
25.4625
 31
0.0
  0
LINE
  5
F4F
330
EDD
100
AcDbEntity
  8
本体
  6
DASHED
 62
    20
 48
0.2
100
AcDbLine
 10
382.9384999999998
 20
-0.0000000000000011
 30
0.0
 11
382.9384999999998
 21
10.18499999999999
 31
0.0
  0
LINE
  5
F50
330
EDD
100
AcDbEntity
  8
本体
  6
DASHED
 62
    20
 48
0.2
100
AcDbLine
 10
374.9384999999998
 20
-0.0000000000000011
 30
0.0
 11
374.9384999999998
 21
10.18499999999999
 31
0.0
  0
LINE
  5
F51
330
EDD
100
AcDbEntity
  8
本体
  6
DASHED
 62
    20
 48
0.2
100
AcDbLine
 10
366.9384999999998
 20
-0.0000000000000011
 30
0.0
 11
366.9384999999998
 21
10.18499999999999
 31
0.0
  0
LINE
  5
F52
330
EDD
100
AcDbEntity
  8
本体
  6
DASHED
 62
    20
 48
0.2
100
AcDbLine
 10
358.9385
 20
-0.0000000000000011
 30
0.0
 11
358.9385
 21
10.18499999999999
 31
0.0
  0
LINE
  5
F53
330
EDD
100
AcDbEntity
  8
本体
  6
DASHED
 62
    20
 48
0.2
100
AcDbLine
 10
350.9384999999998
 20
-0.0000000000000011
 30
0.0
 11
350.9384999999998
 21
10.18499999999999
 31
0.0
  0
LINE
  5
F54
330
EDD
100
AcDbEntity
  8
本体
  6
DASHED
 62
    20
 48
0.2
100
AcDbLine
 10
342.9384999999998
 20
-0.0000000000000011
 30
0.0
 11
342.9384999999998
 21
10.18499999999999
 31
0.0
  0
LINE
  5
F55
330
EDD
100
AcDbEntity
  8
本体
  6
DASHED
 62
    20
 48
0.2
100
AcDbLine
 10
334.9384999999998
 20
-0.0000000000000011
 30
0.0
 11
334.9384999999998
 21
10.18499999999999
 31
0.0
  0
LINE
  5
F56
330
EDD
100
AcDbEntity
  8
本体
  6
Continuous
 62
    20
100
AcDbLine
 10
326.9384999999997
 20
-0.0000000000000011
 30
0.0
 11
326.9384999999997
 21
10.18499999999999
 31
0.0
  0
LINE
  5
F57
330
EDD
100
AcDbEntity
  8
本体
  6
Continuous
 62
    20
100
AcDbLine
 10
311.661
 20
-0.0000000000000011
 30
0.0
 11
311.661
 21
35.6475
 31
0.0
  0
MTEXT
  5
F58
330
EDD
100
AcDbEntity
  8
本体
  6
Continuous
 62
    20
100
AcDbMText
 10
315.484194375
 20
4.226775000000004
 30
0.0
 40
2.74995
 41
0.0
 71
     1
 72
     1
  1
\T0.815;\W0.959;\A1;ＮＯ．
 73
     1
 44
1.0
  0
LINE
  5
F59
330
EDD
100
AcDbEntity
  8
本体
  6
Continuous
 62
    20
100
AcDbLine
 10
303.5129999999998
 20
-0.0000000000000011
 30
0.0
 11
303.5129999999998
 21
-2.546249999999999
 31
0.0
  0
MTEXT
  5
F5A
330
EDD
100
AcDbEntity
  8
本体
  6
Continuous
 62
    20
100
AcDbMText
 10
327.7533
 20
-0.9166500000000059
 30
0.0
 40
3.259199999999998
 41
0.0
 71
     1
 72
     1
  1
\T0.851;\A1;7
 73
     1
 44
1.0
  0
LINE
  5
F5B
330
EDD
100
AcDbEntity
  8
本体
  6
Continuous
 62
    20
100
AcDbLine
 10
354.4379999999998
 20
-0.0000000000000011
 30
0.0
 11
354.4379999999998
 21
-2.546249999999999
 31
0.0
  0
MTEXT
  5
F5C
330
EDD
100
AcDbEntity
  8
本体
  6
Continuous
 62
    20
100
AcDbMText
 10
377.6598
 20
-0.9166500000000059
 30
0.0
 40
3.259199999999998
 41
0.0
 71
     1
 72
     1
  1
\T0.851;\A1;8
 73
     1
 44
1.0
  0
MTEXT
  5
F5D
330
EDD
100
AcDbEntity
  8
本体
  6
Continuous
 62
    20
100
AcDbMText
 10
312.90611625
 20
8.504474999999994
 30
0.0
 40
2.74995
 41
0.0
 71
     1
 72
     1
  1
\T0.815;\W0.959;\A1;ＤＲＡＷ．
 73
     1
 44
1.0
  0
MTEXT
  5
F5E
330
EDD
100
AcDbEntity
  8
本体
  6
Continuous
 62
    20
100
AcDbMText
 10
313.0614375
 20
34.78177500000001
 30
0.0
 40
2.54625
 41
0.0
 71
     1
 72
     1
  1
\T0.815;\W0.959;\A1;ＭＡＴＥＲＩＡＬ
 73
     1
 44
1.0
  0
MTEXT
  5
F5F
330
EDD
100
AcDbEntity
  8
本体
  6
Continuous
 62
    20
100
AcDbMText
 10
312.7406099999999
 20
24.54584999999999
 30
0.0
 40
3.259199999999998
 41
0.0
 71
     1
 72
     1
  1
\T0.815;\W0.959;\A1;ＴＩＴＬＥ
 73
     1
 44
1.0
  0
MTEXT
  5
F60
330
EDD
100
AcDbEntity
  8
本体
  6
Continuous
 62
    20
100
AcDbMText
 10
295.0823662499999
 20
34.476225
 30
0.0
 40
2.74995
 41
0.0
 71
     1
 72
     1
  1
\T0.815;\W0.959;\A1;ＳＣＡＬＥ
 73
     1
 44
1.0
  0
MTEXT
  5
F61
330
EDD
100
AcDbEntity
  8
本体
  6
Continuous
 62
    20
100
AcDbMText
 10
358.8939374999998
 20
34.78177500000001
 30
0.0
 40
2.54625
 41
0.0
 71
     1
 72
     1
  1
\T0.815;\W0.959;\A1;ＴＲＥＡＴＭＥＮＴ
 73
     1
 44
1.0
  0
LINE
  5
F62
330
EDD
100
AcDbEntity
  8
本体
  6
Continuous
 62
    20
100
AcDbLine
 10
357.4934999999998
 20
25.4625
 30
0.0
 11
357.4934999999998
 21
35.6475
 31
0.0
  0
LINE
  5
F63
330
EDD
100
AcDbEntity
  8
本体
  6
DASHED
 62
    20
 48
0.2
100
AcDbLine
 10
390.9384999999998
 20
-0.0000000000000011
 30
0.0
 11
390.9384999999998
 21
10.18499999999999
 31
0.0
  0
MTEXT
  5
F64
330
EDD
100
AcDbEntity
  8
本体
  6
Continuous
 62
    20
100
AcDbMText
 10
404.65005
 20
36.76784999999995
 30
0.0
 40
3.259199999999998
 41
0.0
 71
     1
 72
     1
  1
\T0.851;H
 73
     1
 44
1.0
  0
LINE
  5
F65
330
EDD
100
AcDbEntity
  8
本体
  6
Continuous
 62
    20
100
AcDbLine
 10
405.8722999999998
 20
60.60075000000001
 30
0.0
 11
403.3260499999998
 21
60.60075000000001
 31
0.0
  0
MTEXT
  5
F66
330
EDD
100
AcDbEntity
  8
本体
  6
Continuous
 62
    20
100
AcDbMText
 10
404.65005
 20
87.69284999999996
 30
0.0
 40
3.259199999999998
 41
0.0
 71
     1
 72
     1
  1
\T0.851;G
 73
     1
 44
1.0
  0
LINE
  5
F67
330
EDD
100
AcDbEntity
  8
本体
  6
Continuous
 62
    20
100
AcDbLine
 10
407.3999999999998
 20
111.5257499999999
 30
0.0
 11
403.3259999999998
 21
111.5257499999999
 31
0.0
  0
MTEXT
  5
F68
330
EDD
100
AcDbEntity
  8
本体
  6
Continuous
 62
    20
100
AcDbMText
 10
404.65005
 20
145.492725
 30
0.0
 40
3.259199999999998
 41
0.0
 71
     1
 72
     1
  1
\T0.851;I
 73
     1
 44
1.0
  0
LINE
  5
F69
330
EDD
100
AcDbEntity
  8
本体
  6
Continuous
 62
    20
100
AcDbLine
 10
405.8722999999998
 20
162.4507499999999
 30
0.0
 11
403.3260499999998
 21
162.4507499999999
 31
0.0
  0
MTEXT
  5
F6A
330
EDD
100
AcDbEntity
  8
本体
  6
Continuous
 62
    20
100
AcDbMText
 10
404.65005
 20
189.5428499999999
 30
0.0
 40
3.259199999999998
 41
0.0
 71
     1
 72
     1
  1
\T0.851;H
 73
     1
 44
1.0
  0
LINE
  5
F6B
330
EDD
100
AcDbEntity
  8
本体
  6
Continuous
 62
    20
100
AcDbLine
 10
405.8722999999998
 20
213.37575
 30
0.0
 11
403.3260499999998
 21
213.37575
 31
0.0
  0
MTEXT
  5
F6C
330
EDD
100
AcDbEntity
  8
本体
  6
Continuous
 62
    20
100
AcDbMText
 10
404.65005
 20
240.46785
 30
0.0
 40
3.259199999999998
 41
0.0
 71
     1
 72
     1
  1
\T0.851;G
 73
     1
 44
1.0
  0
LINE
  5
F6D
330
EDD
100
AcDbEntity
  8
本体
  6
Continuous
 62
    20
100
AcDbLine
 10
407.3999999999998
 20
264.3007499999999
 30
0.0
 11
403.3259999999998
 21
264.3007499999999
 31
0.0
  0
MTEXT
  5
F6E
330
EDD
100
AcDbEntity
  8
本体
  6
Continuous
 62
    20
100
AcDbMText
 10
404.65005
 20
291.39285
 30
0.0
 40
3.259199999999998
 41
0.0
 71
     1
 72
     1
  1
\T0.851;F
 73
     1
 44
1.0
  0
LINE
  5
F6F
330
EDD
100
AcDbEntity
  8
本体
  6
Continuous
 62
    20
100
AcDbLine
 10
405.8722999999998
 20
315.22575
 30
0.0
 11
403.3260499999998
 21
315.22575
 31
0.0
  0
LINE
  5
F70
330
EDD
100
AcDbEntity
  8
本体
  6
Continuous
 62
    20
100
AcDbLine
 10
405.8722999999998
 20
315.22575
 30
0.0
 11
403.3260499999998
 21
315.22575
 31
0.0
  0
MTEXT
  5
F71
330
EDD
100
AcDbEntity
  8
本体
  6
Continuous
 62
    20
100
AcDbMText
 10
124.0532999999995
 20
560.2768499999998
 30
0.0
 40
3.259199999999998
 41
0.0
 71
     1
 72
     1
  1
\T0.851;\A1;3
 73
     1
 44
1.0
  0
LINE
  5
F72
330
EDD
100
AcDbEntity
  8
本体
  6
Continuous
 62
    20
100
AcDbLine
 10
150.7379999999999
 20
556.101
 30
0.0
 11
150.7379999999999
 21
558.64725
 31
0.0
  0
MTEXT
  5
F73
330
EDD
100
AcDbEntity
  8
本体
  6
Continuous
 62
    20
100
AcDbMText
 10
174.9782999999999
 20
560.2768499999998
 30
0.0
 40
3.259199999999998
 41
0.0
 71
     1
 72
     1
  1
\T0.851;\A1;4
 73
     1
 44
1.0
  0
LINE
  5
F74
330
EDD
100
AcDbEntity
  8
本体
  6
Continuous
 62
    20
100
AcDbLine
 10
201.6629999999999
 20
556.101
 30
0.0
 11
201.6629999999999
 21
560.175
 31
0.0
  0
MTEXT
  5
F75
330
EDD
100
AcDbEntity
  8
本体
  6
Continuous
 62
    20
100
AcDbMText
 10
225.9033
 20
560.2768499999998
 30
0.0
 40
3.259199999999998
 41
0.0
 71
     1
 72
     1
  1
\T0.851;\A1;5
 73
     1
 44
1.0
  0
LINE
  5
F76
330
EDD
100
AcDbEntity
  8
本体
  6
Continuous
 62
    20
100
AcDbLine
 10
252.5879999999999
 20
556.101
 30
0.0
 11
252.5879999999999
 21
558.64725
 31
0.0
  0
MTEXT
  5
F77
330
EDD
100
AcDbEntity
  8
本体
  6
Continuous
 62
    20
100
AcDbMText
 10
276.8283
 20
560.2768499999998
 30
0.0
 40
3.259199999999998
 41
0.0
 71
     1
 72
     1
  1
\T0.851;\A1;6
 73
     1
 44
1.0
  0
MTEXT
  5
F78
330
EDD
100
AcDbEntity
  8
本体
  6
Continuous
 62
    20
100
AcDbMText
 10
404.65005
 20
342.3178499999999
 30
0.0
 40
3.259199999999998
 41
0.0
 71
     1
 72
     1
  1
\T0.851;\A1;E
 73
     1
 44
1.0
  0
LINE
  5
F79
330
EDD
100
AcDbEntity
  8
本体
  6
Continuous
 62
    20
100
AcDbLine
 10
405.8722999999998
 20
366.15075
 30
0.0
 11
403.3260499999998
 21
366.15075
 31
0.0
  0
LINE
  5
F7A
330
EDD
100
AcDbEntity
  8
本体
  6
Continuous
 62
    20
100
AcDbLine
 10
405.8722999999998
 20
366.15075
 30
0.0
 11
403.3260499999998
 21
366.15075
 31
0.0
  0
MTEXT
  5
F7B
330
EDD
100
AcDbEntity
  8
本体
  6
Continuous
 62
    20
100
AcDbMText
 10
404.65005
 20
393.2428499999998
 30
0.0
 40
3.259199999999998
 41
0.0
 71
     1
 72
     1
  1
\T0.851;\A1;D
 73
     1
 44
1.0
  0
LINE
  5
F7C
330
EDD
100
AcDbEntity
  8
本体
  6
Continuous
 62
    20
100
AcDbLine
 10
407.3999999999998
 20
417.0757499999998
 30
0.0
 11
403.3259999999998
 21
417.0757499999998
 31
0.0
  0
MTEXT
  5
F7D
330
EDD
100
AcDbEntity
  8
本体
  6
Continuous
 62
    20
100
AcDbMText
 10
404.65005
 20
444.16785
 30
0.0
 40
3.259199999999998
 41
0.0
 71
     1
 72
     1
  1
\T0.851;\A1;C
 73
     1
 44
1.0
  0
LINE
  5
F7E
330
EDD
100
AcDbEntity
  8
本体
  6
Continuous
 62
    20
100
AcDbLine
 10
303.5129999999998
 20
556.101
 30
0.0
 11
303.5129999999998
 21
558.64725
 31
0.0
  0
MTEXT
  5
F7F
330
EDD
100
AcDbEntity
  8
本体
  6
Continuous
 62
    20
100
AcDbMText
 10
327.7533
 20
560.2768499999998
 30
0.0
 40
3.259199999999998
 41
0.0
 71
     1
 72
     1
  1
\T0.851;\A1;7
 73
     1
 44
1.0
  0
LINE
  5
F80
330
EDD
100
AcDbEntity
  8
本体
  6
Continuous
 62
    20
100
AcDbLine
 10
354.4379999999998
 20
556.101
 30
0.0
 11
354.4379999999998
 21
558.64725
 31
0.0
  0
MTEXT
  5
F81
330
EDD
100
AcDbEntity
  8
本体
  6
Continuous
 62
    20
100
AcDbMText
 10
377.6598
 20
560.2768499999998
 30
0.0
 40
3.259199999999998
 41
0.0
 71
     1
 72
     1
  1
\T0.851;\A1;8
 73
     1
 44
1.0
  0
LINE
  5
F82
330
EDD
100
AcDbEntity
  8
本体
  6
Continuous
 62
    20
100
AcDbLine
 10
405.8722999999998
 20
468.00075
 30
0.0
 11
403.3260499999998
 21
468.00075
 31
0.0
  0
MTEXT
  5
F83
330
EDD
100
AcDbEntity
  8
本体
  6
Continuous
 62
    20
100
AcDbMText
 10
404.65005
 20
495.0928499999998
 30
0.0
 40
3.259199999999998
 41
0.0
 71
     1
 72
     1
  1
\T0.851;\A1;B
 73
     1
 44
1.0
  0
LINE
  5
F84
330
EDD
100
AcDbEntity
  8
本体
  6
Continuous
 62
    20
100
AcDbLine
 10
405.8722999999998
 20
518.92575
 30
0.0
 11
403.3260499999998
 21
518.92575
 31
0.0
  0
MTEXT
  5
F85
330
EDD
100
AcDbEntity
  8
本体
  6
Continuous
 62
    20
100
AcDbMText
 10
404.65005
 20
539.1429749999998
 30
0.0
 40
3.259199999999998
 41
0.0
 71
     1
 72
     1
  1
\T0.851;\A1;A
 73
     1
 44
1.0
  0
ENDBLK
  5
F87
330
EDD
100
AcDbEntity
  8
0
100
AcDbBlockEnd
  0
BLOCK
  5
102B
330
1021
100
AcDbEntity
  8
0
100
AcDbBlockBegin
  2
*D9
 70
     1
 10
0.0
 20
0.0
 30
0.0
  3
*D9
  1

  0
LINE
  5
26B5
330
1021
100
AcDbEntity
  8
寸法
  6
Continuous
 62
     0
370
    13
100
AcDbLine
 10
-207.7488377258708
 20
183.3389935019966
 30
0.0
 11
-207.7488377258708
 21
163.7895167399094
 31
0.0
  0
LINE
  5
26B6
330
1021
100
AcDbEntity
  8
寸法
  6
Continuous
 62
     0
370
    13
100
AcDbLine
 10
212.2514489999998
 20
183.2632674483009
 30
0.0
 11
212.2514489999998
 21
163.7895167399094
 31
0.0
  0
LINE
  5
26B7
330
1021
100
AcDbEntity
  8
寸法
  6
Continuous
 62
     0
370
    13
100
AcDbLine
 10
-203.7488377258708
 20
164.7895167399096
 30
0.0
 11
208.2514489999998
 21
164.7895167399096
 31
0.0
  0
INSERT
  5
26B8
330
1021
100
AcDbEntity
  8
寸法
  6
Continuous
 62
     0
370
    13
100
AcDbBlockReference
  2
_OPEN30
 10
-207.7488377258708
 20
164.7895167399096
 30
0.0
 41
4.0
 42
4.0
 43
4.0
 50
180.0
  0
INSERT
  5
26B9
330
1021
100
AcDbEntity
  8
寸法
  6
Continuous
 62
     0
370
    13
100
AcDbBlockReference
  2
_OPEN30
 10
212.2514489999998
 20
164.7895167399096
 30
0.0
 41
4.0
 42
4.0
 43
4.0
  0
MTEXT
  5
26BA
330
1021
100
AcDbEntity
  8
寸法
  6
Continuous
 62
     6
100
AcDbMText
 10
0.4739878999250779
 20
169.7895167399096
 30
0.0
 40
8.0
 41
0.0
 71
     5
 72
     1
  1
\A1;420
  7
Standard
 73
     1
 44
1.0
  0
POINT
  5
26BB
330
1021
100
AcDbEntity
  8
DEFPOINTS
  6
Continuous
 62
     0
100
AcDbPoint
 10
-207.7488377258708
 20
184.3389935019967
 30
0.0
  0
POINT
  5
26BC
330
1021
100
AcDbEntity
  8
DEFPOINTS
  6
Continuous
 62
     0
100
AcDbPoint
 10
212.2514489999998
 20
184.2632674483009
 30
0.0
  0
POINT
  5
26BD
330
1021
100
AcDbEntity
  8
DEFPOINTS
  6
Continuous
 62
     0
100
AcDbPoint
 10
212.2514489999998
 20
164.7895167399096
 30
0.0
  0
ENDBLK
  5
102C
330
1021
100
AcDbEntity
  8
0
100
AcDbBlockEnd
  0
BLOCK
  5
1886
330
187C
100
AcDbEntity
  8
0
100
AcDbBlockBegin
  2
*D10
 70
     1
 10
0.0
 20
0.0
 30
0.0
  3
*D10
  1

  0
LINE
  5
291C
330
187C
100
AcDbEntity
  8
寸法
  6
Continuous
 62
     0
370
    13
100
AcDbLine
 10
272.1299213345953
 20
286.2657594576343
 30
0.0
 11
324.9542674794397
 21
286.2657594576343
 31
0.0
  0
LINE
  5
291D
330
187C
100
AcDbEntity
  8
寸法
  6
Continuous
 62
     0
370
    13
100
AcDbLine
 10
308.1299213345951
 20
269.2687594576344
 30
0.0
 11
324.9542674794397
 21
269.2687594576344
 31
0.0
  0
LINE
  5
291E
330
187C
100
AcDbEntity
  8
寸法
  6
Continuous
 62
     0
370
    13
100
AcDbLine
 10
323.9542674794396
 20
290.2657594576343
 30
0.0
 11
323.9542674794396
 21
294.2657594576343
 31
0.0
  0
LINE
  5
291F
330
187C
100
AcDbEntity
  8
寸法
  6
Continuous
 62
     0
370
    13
100
AcDbLine
 10
323.9542674794396
 20
265.2687594576344
 30
0.0
 11
323.9542674794396
 21
261.2687594576344
 31
0.0
  0
LINE
  5
2920
330
187C
100
AcDbEntity
  8
寸法
  6
Continuous
 62
     0
370
    13
100
AcDbLine
 10
323.9542674794396
 20
286.2657594576343
 30
0.0
 11
323.9542674794396
 21
269.2687594576344
 31
0.0
  0
INSERT
  5
2921
330
187C
100
AcDbEntity
  8
寸法
  6
Continuous
 62
     0
370
    13
100
AcDbBlockReference
  2
_OPEN30
 10
323.9542674794396
 20
286.2657594576343
 30
0.0
 41
4.0
 42
4.0
 43
4.0
 50
270.0
  0
INSERT
  5
2922
330
187C
100
AcDbEntity
  8
寸法
  6
Continuous
 62
     0
370
    13
100
AcDbBlockReference
  2
_OPEN30
 10
323.9542674794396
 20
269.2687594576344
 30
0.0
 41
4.0
 42
4.0
 43
4.0
 50
90.0
  0
MTEXT
  5
2923
330
187C
100
AcDbEntity
  8
寸法
  6
Continuous
 62
     6
100
AcDbMText
 10
318.9542674794396
 20
277.7654111480801
 30
0.0
 40
8.0
 41
0.0
 71
     5
 72
     1
  1
\A1;17
  7
Standard
 11
0.0000000000000001
 21
1.0
 31
0.0
 73
     1
 44
1.0
  0
POINT
  5
2924
330
187C
100
AcDbEntity
  8
DEFPOINTS
  6
Continuous
 62
     0
100
AcDbPoint
 10
271.1299213345951
 20
286.2657594576343
 30
0.0
  0
POINT
  5
2925
330
187C
100
AcDbEntity
  8
DEFPOINTS
  6
Continuous
 62
     0
100
AcDbPoint
 10
307.1299213345951
 20
269.2687594576344
 30
0.0
  0
POINT
  5
2926
330
187C
100
AcDbEntity
  8
DEFPOINTS
  6
Continuous
 62
     0
100
AcDbPoint
 10
323.9542674794396
 20
269.2687594576344
 30
0.0
  0
ENDBLK
  5
1887
330
187C
100
AcDbEntity
  8
0
100
AcDbBlockEnd
  0
BLOCK
  5
1907
330
18FD
100
AcDbEntity
  8
0
100
AcDbBlockBegin
  2
*D11
 70
     1
 10
0.0
 20
0.0
 30
0.0
  3
*D11
  1

  0
LINE
  5
1A60
330
18FD
100
AcDbEntity
  8
寸法
  6
Continuous
 62
     0
370
    13
100
AcDbLine
 10
307.6171641052596
 20
165.6768095051893
 30
0.0
 11
264.5446041052588
 21
165.6768095051893
 31
0.0
  0
LINE
  5
1A61
330
18FD
100
AcDbEntity
  8
寸法
  6
Continuous
 62
     0
370
    13
100
AcDbLine
 10
264.5446041052588
 20
165.6768095051893
 30
0.0
 11
242.8111781732561
 21
185.3544407210442
 31
0.0
  0
MTEXT
  5
1A62
330
18FD
100
AcDbEntity
  8
寸法
  6
Continuous
 62
     6
100
AcDbMText
 10
286.5808841052596
 20
168.7596095051893
 30
0.0
 40
4.1656
 41
0.0
 71
     5
 72
     1
  1
\A1;4-10×\U+22057(長丸)
 73
     1
 44
1.0
  0
INSERT
  5
1A63
330
18FD
100
AcDbEntity
  8
寸法
  6
Continuous
 62
     0
370
    13
100
AcDbBlockReference
  2
_OPEN30
 10
239.8459892808528
 20
188.0391483089144
 30
0.0
 41
4.0
 42
4.0
 43
4.0
 50
137.8420366205822
  0
POINT
  5
1A64
330
18FD
100
AcDbEntity
  8
DEFPOINTS
  6
Continuous
 62
     0
100
AcDbPoint
 10
239.8459892808528
 20
188.0391483089144
 30
0.0
  0
POINT
  5
1A65
330
18FD
100
AcDbEntity
  8
DEFPOINTS
  6
Continuous
 62
     0
100
AcDbPoint
 10
234.6569087191469
 20
192.7373865876873
 30
0.0
  0
ENDBLK
  5
1908
330
18FD
100
AcDbEntity
  8
0
100
AcDbBlockEnd
  0
BLOCK
  5
1AAD
330
1AA3
100
AcDbEntity
  8
0
  6
ByBlock
 62
     0
100
AcDbBlockBegin
  2
*D12
 70
     1
 10
0.0
 20
0.0
 30
0.0
  3
*D12
  1

  0
LINE
  5
1AA4
330
1AA3
100
AcDbEntity
  8
0
  6
ByBlock
 62
     0
100
AcDbLine
 10
142.387987
 20
-35.21420399999996
 30
0.0
 11
29.888987
 21
-35.21420399999996
 31
0.0
  0
LINE
  5
1AA5
330
1AA3
100
AcDbEntity
  8
0
  6
ByBlock
 62
     0
100
AcDbLine
 10
142.387987
 20
-23.915751
 30
0.0
 11
142.387987
 21
-36.21420399999996
 31
0.0
  0
LINE
  5
1AA6
330
1AA3
100
AcDbEntity
  8
0
  6
ByBlock
 62
     0
100
AcDbLine
 10
29.888987
 20
-24.415751
 30
0.0
 11
29.888987
 21
-36.21420399999996
 31
0.0
  0
INSERT
  5
1AA7
330
1AA3
100
AcDbEntity
  8
0
  6
ByBlock
 62
     0
100
AcDbBlockReference
  2
_OPEN30
 10
142.387987
 20
-35.21420399999996
 30
0.0
 41
2.77
 42
2.77
 43
2.77
  0
INSERT
  5
1AA8
330
1AA3
100
AcDbEntity
  8
0
  6
ByBlock
 62
     0
100
AcDbBlockReference
  2
_OPEN30
 10
29.888987
 20
-35.21420399999996
 30
0.0
 41
2.77
 42
2.77
 43
2.77
 50
180.0
  0
MTEXT
  5
1AA9
330
1AA3
100
AcDbEntity
  8
0
  6
ByBlock
 62
     3
100
AcDbMText
 10
86.138487
 20
-32.614204
 30
0.0
 40
3.2
 41
0.0
 71
     5
 72
     1
  1
\A1;225
 73
     1
 44
1.0
  0
POINT
  5
1AAA
330
1AA3
100
AcDbEntity
  8
DEFPOINTS
  6
ByBlock
 62
     0
100
AcDbPoint
 10
142.387987
 20
-22.915751
 30
0.0
  0
POINT
  5
1AAB
330
1AA3
100
AcDbEntity
  8
DEFPOINTS
  6
ByBlock
 62
     0
100
AcDbPoint
 10
29.888987
 20
-23.415751
 30
0.0
  0
POINT
  5
1AAC
330
1AA3
100
AcDbEntity
  8
DEFPOINTS
  6
ByBlock
 62
     0
100
AcDbPoint
 10
29.888987
 20
-35.21420399999996
 30
0.0
  0
ENDBLK
  5
1AAE
330
1AA3
100
AcDbEntity
  8
0
  6
ByBlock
 62
     0
100
AcDbBlockEnd
  0
BLOCK
  5
1AB9
330
1AAF
100
AcDbEntity
  8
0
  6
ByBlock
 62
     0
100
AcDbBlockBegin
  2
*D13
 70
     1
 10
0.0
 20
0.0
 30
0.0
  3
*D13
  1

  0
LINE
  5
1AB0
330
1AAF
100
AcDbEntity
  8
0
  6
ByBlock
 62
     0
100
AcDbLine
 10
176.6305209999999
 20
-35.21420399999996
 30
0.0
 11
154.6305209999998
 21
-35.21420399999996
 31
0.0
  0
LINE
  5
1AB1
330
1AAF
100
AcDbEntity
  8
0
  6
ByBlock
 62
     0
100
AcDbLine
 10
176.6305209999999
 20
-24.415751
 30
0.0
 11
176.6305209999999
 21
-36.21420399999996
 31
0.0
  0
LINE
  5
1AB2
330
1AAF
100
AcDbEntity
  8
0
  6
ByBlock
 62
     0
100
AcDbLine
 10
154.6305209999998
 20
-23.915751
 30
0.0
 11
154.6305209999998
 21
-36.21420399999996
 31
0.0
  0
INSERT
  5
1AB3
330
1AAF
100
AcDbEntity
  8
0
  6
ByBlock
 62
     0
100
AcDbBlockReference
  2
_OPEN30
 10
176.6305209999999
 20
-35.21420399999996
 30
0.0
 41
2.77
 42
2.77
 43
2.77
  0
INSERT
  5
1AB4
330
1AAF
100
AcDbEntity
  8
0
  6
ByBlock
 62
     0
100
AcDbBlockReference
  2
_OPEN30
 10
154.6305209999998
 20
-35.21420399999996
 30
0.0
 41
2.77
 42
2.77
 43
2.77
 50
180.0
  0
MTEXT
  5
1AB5
330
1AAF
100
AcDbEntity
  8
0
  6
ByBlock
 62
     3
100
AcDbMText
 10
165.630521
 20
-32.614204
 30
0.0
 40
3.2
 41
0.0
 71
     5
 72
     1
  1
\A1;44
 73
     1
 44
1.0
  0
POINT
  5
1AB6
330
1AAF
100
AcDbEntity
  8
DEFPOINTS
  6
ByBlock
 62
     0
100
AcDbPoint
 10
176.6305209999999
 20
-23.415751
 30
0.0
  0
POINT
  5
1AB7
330
1AAF
100
AcDbEntity
  8
DEFPOINTS
  6
ByBlock
 62
     0
100
AcDbPoint
 10
154.6305209999998
 20
-22.915751
 30
0.0
  0
POINT
  5
1AB8
330
1AAF
100
AcDbEntity
  8
DEFPOINTS
  6
ByBlock
 62
     0
100
AcDbPoint
 10
154.6305209999998
 20
-35.21420399999996
 30
0.0
  0
ENDBLK
  5
1ABA
330
1AAF
100
AcDbEntity
  8
0
  6
ByBlock
 62
     0
100
AcDbBlockEnd
  0
BLOCK
  5
21E8
330
21DE
100
AcDbEntity
  8
0
100
AcDbBlockBegin
  2
*D14
 70
     1
 10
0.0
 20
0.0
 30
0.0
  3
*D14
  1

  0
LINE
  5
223E
330
21DE
100
AcDbEntity
  8
本体
  6
Continuous
 62
     0
370
    -2
100
AcDbLine
 10
1015.823277408258
 20
133.610462236074
 30
0.0
 11
992.2263714082587
 21
133.610462236074
 31
0.0
  0
LINE
  5
223F
330
21DE
100
AcDbEntity
  8
本体
  6
Continuous
 62
     0
370
    -2
100
AcDbLine
 10
1016.823277408259
 20
177.6104622360739
 30
0.0
 11
992.2263714082587
 21
177.6104622360739
 31
0.0
  0
LINE
  5
2240
330
21DE
100
AcDbEntity
  8
本体
  6
Continuous
 62
     0
370
    -2
100
AcDbLine
 10
993.2263714082589
 20
136.380462236074
 30
0.0
 11
993.2263714082589
 21
174.8404622360736
 31
0.0
  0
INSERT
  5
2241
330
21DE
100
AcDbEntity
  8
本体
  6
Continuous
 62
     0
370
    -2
100
AcDbBlockReference
  2
_OPEN30
 10
993.2263714082589
 20
133.610462236074
 30
0.0
 41
2.77
 42
2.77
 43
2.77
 50
270.0
  0
INSERT
  5
2242
330
21DE
100
AcDbEntity
  8
本体
  6
Continuous
 62
     0
370
    -2
100
AcDbBlockReference
  2
_OPEN30
 10
993.2263714082589
 20
177.6104622360739
 30
0.0
 41
2.77
 42
2.77
 43
2.77
 50
90.0
  0
MTEXT
  5
2243
330
21DE
100
AcDbEntity
  8
本体
  6
Continuous
 62
     0
100
AcDbMText
 10
990.1435714082587
 20
155.610462236074
 30
0.0
 40
4.1656
 41
0.0
 71
     5
 72
     1
  1
\A1;44
 11
0.0000000000000001
 21
1.0
 31
0.0
 73
     1
 44
1.0
  0
POINT
  5
2244
330
21DE
100
AcDbEntity
  8
DEFPOINTS
  6
Continuous
 62
     0
100
AcDbPoint
 10
1016.823277408259
 20
133.610462236074
 30
0.0
  0
POINT
  5
2245
330
21DE
100
AcDbEntity
  8
DEFPOINTS
  6
Continuous
 62
     0
100
AcDbPoint
 10
1017.823277408258
 20
177.6104622360739
 30
0.0
  0
POINT
  5
2246
330
21DE
100
AcDbEntity
  8
DEFPOINTS
  6
Continuous
 62
     0
100
AcDbPoint
 10
993.2263714082589
 20
177.6104622360739
 30
0.0
  0
ENDBLK
  5
21E9
330
21DE
100
AcDbEntity
  8
0
100
AcDbBlockEnd
  0
BLOCK
  5
21F4
330
21EA
100
AcDbEntity
  8
0
100
AcDbBlockBegin
  2
*D15
 70
     1
 10
0.0
 20
0.0
 30
0.0
  3
*D15
  1

  0
LINE
  5
2250
330
21EA
100
AcDbEntity
  8
本体
  6
Continuous
 62
     0
370
    -2
100
AcDbLine
 10
633.4620337767812
 20
202.6474063346573
 30
0.0
 11
608.8651277767815
 21
202.6474063346573
 31
0.0
  0
LINE
  5
2251
330
21EA
100
AcDbEntity
  8
本体
  6
Continuous
 62
     0
370
    -2
100
AcDbLine
 10
632.4620337767814
 20
427.6454063346573
 30
0.0
 11
608.8651277767816
 21
427.6454063346573
 31
0.0
  0
LINE
  5
2252
330
21EA
100
AcDbEntity
  8
本体
  6
Continuous
 62
     0
370
    -2
100
AcDbLine
 10
609.8651277767815
 20
205.4174063346573
 30
0.0
 11
609.8651277767816
 21
424.8754063346574
 31
0.0
  0
INSERT
  5
2253
330
21EA
100
AcDbEntity
  8
本体
  6
Continuous
 62
     0
370
    -2
100
AcDbBlockReference
  2
_OPEN30
 10
609.8651277767815
 20
202.6474063346573
 30
0.0
 41
2.77
 42
2.77
 43
2.77
 50
270.0
  0
INSERT
  5
2254
330
21EA
100
AcDbEntity
  8
本体
  6
Continuous
 62
     0
370
    -2
100
AcDbBlockReference
  2
_OPEN30
 10
609.8651277767816
 20
427.6454063346573
 30
0.0
 41
2.77
 42
2.77
 43
2.77
 50
90.0
  0
MTEXT
  5
2255
330
21EA
100
AcDbEntity
  8
本体
  6
Continuous
 62
     0
100
AcDbMText
 10
606.7823277767812
 20
315.1464063346576
 30
0.0
 40
4.1656
 41
0.0
 71
     5
 72
     1
  1
\A1;225
 11
0.0000000000000001
 21
1.0
 31
0.0
 73
     1
 44
1.0
  0
POINT
  5
2256
330
21EA
100
AcDbEntity
  8
DEFPOINTS
  6
Continuous
 62
     0
100
AcDbPoint
 10
634.4620337767812
 20
202.6474063346573
 30
0.0
  0
POINT
  5
2257
330
21EA
100
AcDbEntity
  8
DEFPOINTS
  6
Continuous
 62
     0
100
AcDbPoint
 10
633.4620337767812
 20
427.6454063346573
 30
0.0
  0
POINT
  5
2258
330
21EA
100
AcDbEntity
  8
DEFPOINTS
  6
Continuous
 62
     0
100
AcDbPoint
 10
609.8651277767816
 20
427.6454063346573
 30
0.0
  0
ENDBLK
  5
21F5
330
21EA
100
AcDbEntity
  8
0
100
AcDbBlockEnd
  0
BLOCK
  5
29FB
330
29F1
100
AcDbEntity
  8
0
100
AcDbBlockBegin
  2
*D16
 70
     1
 10
0.0
 20
0.0
 30
0.0
  3
*D16
  1

  0
LINE
  5
29F2
330
29F1
100
AcDbEntity
  8
寸法
  6
Continuous
 62
     0
370
    13
100
AcDbLine
 10
-207.7488377258708
 20
183.3389935019966
 30
0.0
 11
-207.7488377258708
 21
163.7895167399094
 31
0.0
  0
LINE
  5
29F3
330
29F1
100
AcDbEntity
  8
寸法
  6
Continuous
 62
     0
370
    13
100
AcDbLine
 10
2.251449000000206
 20
183.3445046797205
 30
0.0
 11
2.251449000000204
 21
163.7895167399094
 31
0.0
  0
LINE
  5
29F4
330
29F1
100
AcDbEntity
  8
寸法
  6
Continuous
 62
     0
370
    13
100
AcDbLine
 10
-203.7488377258708
 20
164.7895167399096
 30
0.0
 11
-1.748550999999794
 21
164.7895167399096
 31
0.0
  0
MTEXT
  5
29F5
330
29F1
100
AcDbEntity
  8
寸法
  6
Continuous
 62
     6
100
AcDbMText
 10
-102.7486943629353
 20
171.3899418123423
 30
0.0
 40
8.0
 41
0.0
 71
     5
 72
     1
  1
\A1;210
  7
Standard
 73
     1
 44
1.0
  0
INSERT
  5
29F6
330
29F1
100
AcDbEntity
  8
寸法
  6
Continuous
 62
     0
370
    13
100
AcDbBlockReference
  2
_OPEN30
 10
-207.7488377258708
 20
164.7895167399096
 30
0.0
 41
4.0
 42
4.0
 43
4.0
 50
180.0
  0
INSERT
  5
29F7
330
29F1
100
AcDbEntity
  8
寸法
  6
Continuous
 62
     0
370
    13
100
AcDbBlockReference
  2
_OPEN30
 10
2.251449000000204
 20
164.7895167399096
 30
0.0
 41
4.0
 42
4.0
 43
4.0
  0
POINT
  5
29F8
330
29F1
100
AcDbEntity
  8
DEFPOINTS
  6
Continuous
 62
     0
100
AcDbPoint
 10
-207.7488377258708
 20
184.3389935019967
 30
0.0
  0
POINT
  5
29F9
330
29F1
100
AcDbEntity
  8
DEFPOINTS
  6
Continuous
 62
     0
100
AcDbPoint
 10
2.251449000000206
 20
184.3445046797205
 30
0.0
  0
POINT
  5
29FA
330
29F1
100
AcDbEntity
  8
DEFPOINTS
  6
Continuous
 62
     0
100
AcDbPoint
 10
2.251449000000204
 20
164.7895167399096
 30
0.0
  0
ENDBLK
  5
29FC
330
29F1
100
AcDbEntity
  8
0
100
AcDbBlockEnd
  0
BLOCK
  5
2A04
330
29FD
100
AcDbEntity
  8
0
100
AcDbBlockBegin
  2
*D17
 70
     1
 10
0.0
 20
0.0
 30
0.0
  3
*D17
  1

  0
LINE
  5
29FE
330
29FD
100
AcDbEntity
  8
寸法
  6
Continuous
 62
     0
370
    13
100
AcDbLine
 10
307.6171641052595
 20
165.6768095051889
 30
0.0
 11
264.5446041052589
 21
165.6768095051889
 31
0.0
  0
LINE
  5
29FF
330
29FD
100
AcDbEntity
  8
寸法
  6
Continuous
 62
     0
370
    13
100
AcDbLine
 10
264.5446041052589
 20
165.6768095051889
 30
0.0
 11
242.8111781732561
 21
185.3544407210439
 31
0.0
  0
MTEXT
  5
2A00
330
29FD
100
AcDbEntity
  8
寸法
  6
Continuous
 62
     6
100
AcDbMText
 10
286.5808841052595
 20
168.759609505189
 30
0.0
 40
4.1656
 41
0.0
 71
     5
 72
     1
  1
\A1;4-10×\U+22057(長丸)
 73
     1
 44
1.0
  0
INSERT
  5
2A01
330
29FD
100
AcDbEntity
  8
寸法
  6
Continuous
 62
     0
370
    13
100
AcDbBlockReference
  2
_OPEN30
 10
239.8459892808528
 20
188.0391483089141
 30
0.0
 41
4.0
 42
4.0
 43
4.0
 50
137.8420366205822
  0
POINT
  5
2A02
330
29FD
100
AcDbEntity
  8
DEFPOINTS
  6
Continuous
 62
     0
100
AcDbPoint
 10
239.8459892808528
 20
188.0391483089141
 30
0.0
  0
POINT
  5
2A03
330
29FD
100
AcDbEntity
  8
DEFPOINTS
  6
Continuous
 62
     0
100
AcDbPoint
 10
234.6569087191467
 20
192.7373865876869
 30
0.0
  0
ENDBLK
  5
2A05
330
29FD
100
AcDbEntity
  8
0
100
AcDbBlockEnd
  0
BLOCK
  5
2A89
330
2A82
100
AcDbEntity
  8
0
 62
    84
100
AcDbBlockBegin
  2
*D18
 70
     1
 10
0.0
 20
0.0
 30
0.0
  3
*D18
  1

  0
LINE
  5
2AB2
330
2A82
100
AcDbEntity
  8
寸法
  6
Continuous
 62
     0
370
    13
100
AcDbLine
 10
307.617164105261
 20
165.676809505189
 30
0.0
 11
264.5446041052612
 21
165.676809505189
 31
0.0
  0
LINE
  5
2AB3
330
2A82
100
AcDbEntity
  8
寸法
  6
Continuous
 62
     0
370
    13
100
AcDbLine
 10
264.5446041052612
 20
165.676809505189
 30
0.0
 11
242.8111781732563
 21
185.3544407210444
 31
0.0
  0
MTEXT
  5
2AB4
330
2A82
100
AcDbEntity
  8
寸法
  6
Continuous
 62
     6
100
AcDbMText
 10
286.5808841052611
 20
168.7596095051891
 30
0.0
 40
4.1656
 41
0.0
 71
     5
 72
     1
  1
\A1;4-10×\U+22057(長丸)
 73
     1
 44
1.0
  0
INSERT
  5
2AB5
330
2A82
100
AcDbEntity
  8
寸法
  6
Continuous
 62
     0
370
    13
100
AcDbBlockReference
  2
_OPEN30
 10
239.8459892808527
 20
188.0391483089144
 30
0.0
 41
4.0
 42
4.0
 43
4.0
 50
137.8420366205849
  0
POINT
  5
2AB6
330
2A82
100
AcDbEntity
  8
DEFPOINTS
  6
Continuous
 62
     0
100
AcDbPoint
 10
239.8459892808527
 20
188.0391483089144
 30
0.0
  0
POINT
  5
2AB7
330
2A82
100
AcDbEntity
  8
DEFPOINTS
  6
Continuous
 62
     0
100
AcDbPoint
 10
234.6569087191464
 20
192.7373865876871
 30
0.0
  0
ENDBLK
  5
2A8A
330
2A82
100
AcDbEntity
  8
0
 62
    84
100
AcDbBlockEnd
  0
BLOCK
  5
2A95
330
2A8B
100
AcDbEntity
  8
0
 62
    84
100
AcDbBlockBegin
  2
*D19
 70
     1
 10
0.0
 20
0.0
 30
0.0
  3
*D19
  1

  0
LINE
  5
2AD4
330
2A8B
100
AcDbEntity
  8
寸法
  6
Continuous
 62
     0
370
    13
100
AcDbLine
 10
2.25116227412917
 20
183.3389935019969
 30
0.0
 11
2.251162274129169
 21
163.7895167399098
 31
0.0
  0
LINE
  5
2AD5
330
2A8B
100
AcDbEntity
  8
寸法
  6
Continuous
 62
     0
370
    13
100
AcDbLine
 10
243.2514489999999
 20
183.2632674483009
 30
0.0
 11
243.2514489999999
 21
163.7895167399098
 31
0.0
  0
LINE
  5
2AD6
330
2A8B
100
AcDbEntity
  8
寸法
  6
Continuous
 62
     0
370
    13
100
AcDbLine
 10
6.251162274129169
 20
164.7895167399098
 30
0.0
 11
239.2514489999999
 21
164.7895167399098
 31
0.0
  0
MTEXT
  5
2AD7
330
2A8B
100
AcDbEntity
  8
寸法
  6
Continuous
 62
     6
100
AcDbMText
 10
121.1661191555454
 20
171.5327178736951
 30
0.0
 40
8.0
 41
0.0
 71
     5
 72
     1
  1
\A1;241
  7
Standard
 73
     1
 44
1.0
  0
INSERT
  5
2AD8
330
2A8B
100
AcDbEntity
  8
寸法
  6
Continuous
 62
     0
370
    13
100
AcDbBlockReference
  2
_OPEN30
 10
2.251162274129169
 20
164.7895167399098
 30
0.0
 41
4.0
 42
4.0
 43
4.0
 50
180.0
  0
INSERT
  5
2AD9
330
2A8B
100
AcDbEntity
  8
寸法
  6
Continuous
 62
     0
370
    13
100
AcDbBlockReference
  2
_OPEN30
 10
243.2514489999999
 20
164.7895167399098
 30
0.0
 41
4.0
 42
4.0
 43
4.0
  0
POINT
  5
2ADA
330
2A8B
100
AcDbEntity
  8
DEFPOINTS
  6
Continuous
 62
     0
100
AcDbPoint
 10
2.25116227412917
 20
184.3389935019969
 30
0.0
  0
POINT
  5
2ADB
330
2A8B
100
AcDbEntity
  8
DEFPOINTS
  6
Continuous
 62
     0
100
AcDbPoint
 10
243.2514489999999
 20
184.2632674483009
 30
0.0
  0
POINT
  5
2ADC
330
2A8B
100
AcDbEntity
  8
DEFPOINTS
  6
Continuous
 62
     0
100
AcDbPoint
 10
243.2514489999999
 20
164.7895167399098
 30
0.0
  0
ENDBLK
  5
2A96
330
2A8B
100
AcDbEntity
  8
0
 62
    84
100
AcDbBlockEnd
  0
ENDSEC
  0
SECTION
  2
ENTITIES
  0
DIMENSION
  5
293
330
A
100
AcDbEntity
  8
寸法
  6
Continuous
100
AcDbDimension
  2
*D2
 10
243.2514489999999
 20
118.1724716655794
 30
0.0
 11
0.3089395737897576
 21
118.1724716655794
 31
0.0
 70
   160
  1
<>
 71
     5
 42
481.9999999999998
  3
ARTICS
100
AcDbAlignedDimension
 13
-238.7485509999999
 23
186.2632674483009
 33
0.0
 14
243.2514489999999
 24
186.2632674483009
 34
0.0
100
AcDbRotatedDimension
1001
ACAD
1000
DSTYLE
1002
{
1070
   340
1005
3E4
1070
   140
1040
8.0
1002
}
  0
DIMENSION
  5
2A2
330
A
100
AcDbEntity
  8
寸法
  6
Continuous
100
AcDbDimension
  2
*D4
 10
283.924933
 20
184.2632674483009
 30
0.0
 11
283.924933
 21
206.2632674483007
 31
0.0
 70
   160
  1
<>
 71
     5
 42
43.99999999999989
  3
ARTICS
100
AcDbAlignedDimension
 13
241.2514509999999
 23
228.2632674483008
 33
0.0
 14
241.2514509999999
 24
184.2632674483009
 34
0.0
 50
90.0
100
AcDbRotatedDimension
1001
ACAD
1000
DSTYLE
1002
{
1070
   340
1005
3E4
1070
   140
1040
8.0
1002
}
  0
DIMENSION
  5
2AF
330
A
100
AcDbEntity
  8
寸法
  6
Continuous
100
AcDbDimension
  2
*D3
 10
266.9691569999999
 20
190.3882674483009
 30
0.0
 11
266.9691569999999
 21
206.263267448301
 31
0.0
 70
   160
  1
<>
 71
     5
 42
31.75
  3
ARTICS
100
AcDbAlignedDimension
 13
241.7514509999999
 23
222.1382674483009
 33
0.0
 14
241.7514509999999
 24
190.3882674483009
 34
0.0
 50
90.0
100
AcDbRotatedDimension
1001
ACAD
1000
DSTYLE
1002
{
1070
   340
1005
3E4
1070
   140
1040
6.0
1070
   271
1070
     2
1002
}
  0
DIMENSION
  5
2C0
330
A
100
AcDbEntity
  8
寸法
  6
Continuous
100
AcDbDimension
  2
*D1
 10
235.2514489999999
 20
141.4198676363743
 30
0.0
 11
0.5544602312297684
 21
141.4198676363743
 31
0.0
 70
   160
  1
<>
 71
     5
 42
465.9999999999998
  3
ARTICS
100
AcDbAlignedDimension
 13
-230.7485509999999
 23
185.8882674483009
 33
0.0
 14
235.2514489999999
 24
185.8882674483009
 34
0.0
100
AcDbRotatedDimension
1001
ACAD
1000
DSTYLE
1002
{
1070
   340
1005
3E4
1070
   140
1040
8.0
1002
}
  0
LINE
  5
2C2
330
A
100
AcDbEntity
  8
ear
  6
CENTER
 48
0.2
100
AcDbLine
 10
-237.2485509999999
 20
190.3882674483009
 30
0.0
 11
-224.2485509999999
 21
190.3882674483009
 31
0.0
  0
LINE
  5
2C3
330
A
100
AcDbEntity
  8
ear
  6
CENTER
 48
0.2
100
AcDbLine
 10
-237.2485509999999
 20
222.1382674483009
 30
0.0
 11
-224.2485509999999
 21
222.1382674483009
 31
0.0
  0
LINE
  5
2C4
330
A
100
AcDbEntity
  8
ear
  6
CENTER
 48
0.5
100
AcDbLine
 10
-230.7485509999999
 20
226.638267448301
 30
0.0
 11
-230.7485509999999
 21
185.8882674483009
 31
0.0
  0
LINE
  5
340
330
A
100
AcDbEntity
  8
ear
  6
Continuous
100
AcDbLine
 10
-238.7485509999999
 20
186.2632674483009
 30
0.0
 11
-236.7485509999999
 21
184.2632674483009
 31
0.0
  0
LINE
  5
341
330
A
100
AcDbEntity
  8
ear
  6
Continuous
100
AcDbLine
 10
-236.7485509999999
 20
228.2632674483008
 30
0.0
 11
-238.7485509999999
 21
226.2632674483008
 31
0.0
  0
LINE
  5
342
330
A
100
AcDbEntity
  8
ear
  6
Continuous
100
AcDbLine
 10
-207.7485509999999
 20
184.2632674483009
 30
0.0
 11
-236.7485509999999
 21
184.2632674483009
 31
0.0
  0
LINE
  5
343
330
A
100
AcDbEntity
  8
ear
  6
Continuous
100
AcDbLine
 10
-207.7485509999999
 20
228.2632674483008
 30
0.0
 11
-236.7485509999999
 21
228.2632674483008
 31
0.0
  0
ARC
  5
344
330
A
100
AcDbEntity
  8
ear
  6
Continuous
100
AcDbCircle
 10
-232.7485509999999
 20
222.1382674483009
 30
0.0
 40
3.5
100
AcDbArc
 50
90.0
 51
270.0
  0
ARC
  5
345
330
A
100
AcDbEntity
  8
ear
  6
Continuous
100
AcDbCircle
 10
-228.7485509999999
 20
222.1382674483009
 30
0.0
 40
3.5
100
AcDbArc
 50
270.0
 51
90.0
  0
LINE
  5
346
330
A
100
AcDbEntity
  8
ear
  6
Continuous
100
AcDbLine
 10
-228.7485509999999
 20
225.6382674483007
 30
0.0
 11
-232.7485509999999
 21
225.6382674483007
 31
0.0
  0
LINE
  5
347
330
A
100
AcDbEntity
  8
ear
  6
Continuous
100
AcDbLine
 10
-228.7485509999999
 20
218.6382674483009
 30
0.0
 11
-232.7485509999999
 21
218.6382674483009
 31
0.0
  0
LINE
  5
348
330
A
100
AcDbEntity
  8
ear
  6
Continuous
100
AcDbLine
 10
-228.7485509999999
 20
193.8882674483009
 30
0.0
 11
-232.7485509999999
 21
193.8882674483009
 31
0.0
  0
LINE
  5
349
330
A
100
AcDbEntity
  8
ear
  6
Continuous
100
AcDbLine
 10
-228.7485509999999
 20
186.8882674483008
 30
0.0
 11
-232.7485509999999
 21
186.8882674483008
 31
0.0
  0
ARC
  5
34A
330
A
100
AcDbEntity
  8
ear
  6
Continuous
100
AcDbCircle
 10
-228.7485509999999
 20
190.3882674483009
 30
0.0
 40
3.5
100
AcDbArc
 50
270.0
 51
90.0
  0
ARC
  5
34B
330
A
100
AcDbEntity
  8
ear
  6
Continuous
100
AcDbCircle
 10
-232.7485509999999
 20
190.3882674483009
 30
0.0
 40
3.5
100
AcDbArc
 50
90.0
 51
270.0
  0
LINE
  5
34C
330
A
100
AcDbEntity
  8
ear
  6
Continuous
100
AcDbLine
 10
-238.7485509999999
 20
226.2632674483008
 30
0.0
 11
-238.7485509999999
 21
186.2632674483009
 31
0.0
  0
LINE
  5
461
330
A
100
AcDbEntity
  8
ear
  6
Continuous
100
AcDbLine
 10
-207.7488377258708
 20
184.3389935019967
 30
0.0
 11
-207.7485509999999
 21
228.2632674483008
 31
0.0
  0
DIMENSION
  5
E12
330
A
100
AcDbEntity
  8
寸法
  6
Continuous
100
AcDbDimension
  2
*D6
 10
339.4829582826633
 20
269.2687594576344
 30
0.0
 11
339.4829582826632
 21
381.7672594576342
 31
0.0
 70
   160
 71
     5
 42
224.997
  3
ARTICS
100
AcDbAlignedDimension
 13
304.9299213345951
 23
494.2657594576344
 33
0.0
 14
307.1299213345951
 24
269.2687594576344
 34
0.0
 50
90.0
100
AcDbRotatedDimension
1001
ACAD
1000
DSTYLE
1002
{
1070
   340
1005
3E4
1070
   140
1040
8.0
1070
   271
1070
     0
1002
}
  0
DIMENSION
  5
187B
330
A
100
AcDbEntity
  8
寸法
  6
Continuous
100
AcDbDimension
  2
*D10
 10
323.9542674794396
 20
269.2687594576344
 30
0.0
 11
323.9542674794396
 21
277.7654111480801
 31
0.0
 70
   160
 71
     5
 42
16.9969999999999
  3
ARTICS
100
AcDbAlignedDimension
 13
271.1299213345951
 23
286.2657594576343
 33
0.0
 14
307.1299213345951
 24
269.2687594576344
 34
0.0
 50
90.0
100
AcDbRotatedDimension
1001
ACAD
1000
DSTYLE
1002
{
1070
   340
1005
3E4
1070
   140
1040
8.0
1070
   271
1070
     0
1002
}
  0
DIMENSION
  5
18FC
330
A
100
AcDbEntity
  8
寸法
  6
Continuous
100
AcDbDimension
  2
*D11
 10
234.6569087191469
 20
192.7373865876873
 30
0.0
 11
286.5808841052596
 21
165.6768095051893
 31
0.0
 70
   163
  1
4-10×<>(長丸)
 71
     5
 42
6.999999999999971
  3
ARTICS
100
AcDbDiametricDimension
 15
239.8459892808528
 25
188.0391483089144
 35
0.0
 40
0.0
1001
ACAD
1000
DSTYLE
1002
{
1070
   141
1040
0.0
1070
   172
1070
     0
1002
}
  0
ARC
  5
1928
330
A
100
AcDbEntity
  8
ear
  6
Continuous
100
AcDbCircle
 10
-232.7485509999998
 20
635.2258207631207
 30
0.0
 40
3.5
100
AcDbArc
 50
90.00000000000005
 51
270.0
  0
ARC
  5
1929
330
A
100
AcDbEntity
  8
ear
  6
Continuous
100
AcDbCircle
 10
-228.7485509999999
 20
635.2258207631207
 30
0.0
 40
3.5
100
AcDbArc
 50
270.0
 51
90.00000000000005
  0
LINE
  5
192A
330
A
100
AcDbEntity
  8
ear
  6
CENTER
 48
0.5
100
AcDbLine
 10
-230.7485509999998
 20
598.9758207631207
 30
0.0
 11
-230.7485509999998
 21
639.7258207631207
 31
0.0
  0
LINE
  5
192B
330
A
100
AcDbEntity
  8
ear
  6
Continuous
100
AcDbLine
 10
-238.7485509999998
 20
599.3508207631207
 30
0.0
 11
-238.7485509999998
 21
639.3508207631207
 31
0.0
  0
LINE
  5
192C
330
A
100
AcDbEntity
  8
ear
  6
Continuous
100
AcDbLine
 10
-207.7488377258707
 20
641.2750947094249
 30
0.0
 11
-207.7485509999998
 21
597.3508207631207
 31
0.0
  0
LINE
  5
192D
330
A
100
AcDbEntity
  8
ear
  6
Continuous
100
AcDbLine
 10
-207.7485509999998
 20
641.3508207631207
 30
0.0
 11
-236.7485509999998
 21
641.3508207631207
 31
0.0
  0
LINE
  5
192E
330
A
100
AcDbEntity
  8
ear
  6
CENTER
 48
0.2
100
AcDbLine
 10
-237.2485509999999
 20
635.2258207631207
 30
0.0
 11
-224.2485509999998
 21
635.2258207631207
 31
0.0
  0
LINE
  5
192F
330
A
100
AcDbEntity
  8
ear
  6
Continuous
100
AcDbLine
 10
-238.7485509999998
 20
639.3508207631207
 30
0.0
 11
-236.7485509999998
 21
641.3508207631207
 31
0.0
  0
LINE
  5
1930
330
A
100
AcDbEntity
  8
ear
  6
Continuous
100
AcDbLine
 10
-228.7485509999999
 20
638.7258207631207
 30
0.0
 11
-232.7485509999998
 21
638.7258207631207
 31
0.0
  0
LINE
  5
1931
330
A
100
AcDbEntity
  8
ear
  6
Continuous
100
AcDbLine
 10
-207.7485509999998
 20
597.3508207631207
 30
0.0
 11
-236.7485509999998
 21
597.3508207631207
 31
0.0
  0
LINE
  5
1932
330
A
100
AcDbEntity
  8
ear
  6
Continuous
100
AcDbLine
 10
-228.7485509999999
 20
631.7258207631207
 30
0.0
 11
-232.7485509999998
 21
631.7258207631207
 31
0.0
  0
LINE
  5
1933
330
A
100
AcDbEntity
  8
ear
  6
CENTER
 48
0.2
100
AcDbLine
 10
-237.2485509999999
 20
603.4758207631207
 30
0.0
 11
-224.2485509999998
 21
603.4758207631207
 31
0.0
  0
ARC
  5
1934
330
A
100
AcDbEntity
  8
ear
  6
Continuous
100
AcDbCircle
 10
-232.7485509999998
 20
603.4758207631207
 30
0.0
 40
3.5
100
AcDbArc
 50
90.00000000000005
 51
270.0
  0
LINE
  5
1935
330
A
100
AcDbEntity
  8
ear
  6
Continuous
100
AcDbLine
 10
-236.7485509999998
 20
597.3508207631207
 30
0.0
 11
-238.7485509999998
 21
599.3508207631207
 31
0.0
  0
ARC
  5
1936
330
A
100
AcDbEntity
  8
ear
  6
Continuous
100
AcDbCircle
 10
-228.7485509999999
 20
603.4758207631207
 30
0.0
 40
3.5
100
AcDbArc
 50
270.0
 51
90.00000000000005
  0
LINE
  5
1937
330
A
100
AcDbEntity
  8
ear
  6
Continuous
100
AcDbLine
 10
-228.7485509999999
 20
599.9758207631207
 30
0.0
 11
-232.7485509999998
 21
599.9758207631207
 31
0.0
  0
LINE
  5
1938
330
A
100
AcDbEntity
  8
ear
  6
Continuous
100
AcDbLine
 10
-228.7485509999999
 20
606.9758207631207
 30
0.0
 11
-232.7485509999998
 21
606.9758207631207
 31
0.0
  0
LINE
  5
194A
330
A
100
AcDbEntity
  8
ear
  6
Continuous
100
AcDbLine
 10
-209.7488377258707
 20
641.2750947094249
 30
0.0
 11
-209.7485509999998
 21
597.3508207631207
 31
0.0
  0
LINE
  5
1950
330
A
100
AcDbEntity
  8
ear
  6
Continuous
100
AcDbLine
 10
-209.7488377258707
 20
628.6570607094247
 30
0.0
 11
-209.7488377258707
 21
635.8931287094248
 31
0.0
  0
ARC
  5
1951
330
A
100
AcDbEntity
  8
ear
  6
Continuous
100
AcDbCircle
 10
-204.2488377258707
 20
632.2750947094249
 30
0.0
 40
8.0
100
AcDbArc
 50
150.626961
 51
209.3730389999999
  0
ARC
  5
1952
330
A
100
AcDbEntity
  8
ear
  6
Continuous
100
AcDbCircle
 10
-210.7488377258706
 20
629.7750947094247
 30
0.0
 40
1.5
100
AcDbArc
 50
251.677105
 51
311.810315
  0
ARC
  5
1953
330
A
100
AcDbEntity
  8
ear
  6
Continuous
100
AcDbCircle
 10
-210.7488377258706
 20
634.7750947094246
 30
0.0
 40
1.5
100
AcDbArc
 50
48.189685
 51
108.3228949999994
  0
LINE
  5
1954
330
A
100
AcDbEntity
  8
ear
  6
Continuous
100
AcDbLine
 10
-209.7485509999998
 20
602.7327867631206
 30
0.0
 11
-209.7485509999998
 21
609.9688547631203
 31
0.0
  0
ARC
  5
1955
330
A
100
AcDbEntity
  8
ear
  6
Continuous
100
AcDbCircle
 10
-204.2485509999997
 20
606.3508207631206
 30
0.0
 40
8.0
100
AcDbArc
 50
150.626961
 51
209.3730389999999
  0
ARC
  5
1956
330
A
100
AcDbEntity
  8
ear
  6
Continuous
100
AcDbCircle
 10
-210.7485509999996
 20
603.8508207631207
 30
0.0
 40
1.5
100
AcDbArc
 50
251.677105
 51
311.810315
  0
ARC
  5
1957
330
A
100
AcDbEntity
  8
ear
  6
Continuous
100
AcDbCircle
 10
-210.7485509999996
 20
608.8508207631207
 30
0.0
 40
1.5
100
AcDbArc
 50
48.189685
 51
108.3228949999994
  0
LINE
  5
1A85
330
A
100
AcDbEntity
  8
ear
  6
Continuous
100
AcDbLine
 10
-207.7485509999998
 20
599.3508207631207
 30
0.0
 11
-209.7485509999998
 21
599.3508207631207
 31
0.0
  0
LINE
  5
1A86
330
A
100
AcDbEntity
  8
ear
  6
Continuous
100
AcDbLine
 10
-207.7485509999998
 20
639.3508207631207
 30
0.0
 11
-209.7485509999998
 21
639.3508207631207
 31
0.0
  0
LINE
  5
1E82
330
A
100
AcDbEntity
  8
本体
  6
Continuous
 62
    84
100
AcDbLine
 10
2.251448999999979
 20
641.3508207631207
 30
0.0
 11
2.251448999999979
 21
598.3508207631207
 31
0.0
  0
SOLID
  5
1EF3
330
A
100
AcDbEntity
  8
本体
  6
Continuous
 62
    84
100
AcDbTrace
 10
-36.53255100000001
 20
219.2632674483009
 30
0.0
 11
-36.53255300000022
 21
220.063267448301
 31
0.0
 12
-203.7485509999999
 22
219.2632674483009
 32
0.0
 13
-203.7485509999999
 23
220.063267448301
 33
0.0
  0
LINE
  5
1EF4
330
A
100
AcDbEntity
  8
本体
  6
Continuous
 62
    84
100
AcDbLine
 10
-165.448551
 20
196.063267448301
 30
0.0
 11
-158.048551
 21
196.063267448301
 31
0.0
  0
LINE
  5
1EF5
330
A
100
AcDbEntity
  8
本体
  6
Continuous
 62
    84
100
AcDbLine
 10
-165.7485509999998
 20
195.7632674483009
 30
0.0
 11
-157.7485510000001
 21
195.7632674483009
 31
0.0
  0
CIRCLE
  5
1EF6
330
A
100
AcDbEntity
  8
本体
  6
Continuous
 62
    84
100
AcDbCircle
 10
-161.7485510000001
 20
200.563267448301
 30
0.0
 40
3.75
  0
LINE
  5
1EF7
330
A
100
AcDbEntity
  8
本体
  6
Continuous
 62
    84
100
AcDbLine
 10
-165.448551
 20
205.0632674483011
 30
0.0
 11
-158.048551
 21
205.0632674483011
 31
0.0
  0
LINE
  5
1EF8
330
A
100
AcDbEntity
  8
本体
  6
Continuous
 62
    84
100
AcDbLine
 10
-165.7485509999998
 20
205.363267448301
 30
0.0
 11
-157.7485510000001
 21
205.363267448301
 31
0.0
  0
LINE
  5
1EF9
330
A
100
AcDbEntity
  8
本体
  6
Continuous
 62
    84
100
AcDbLine
 10
-156.598551
 20
205.7132674483008
 30
0.0
 11
-166.8985509999999
 21
205.7132674483008
 31
0.0
  0
LINE
  5
1EFA
330
A
100
AcDbEntity
  8
本体
  6
Continuous
 62
    84
100
AcDbLine
 10
-156.598551
 20
195.4132674483009
 30
0.0
 11
-166.8985509999999
 21
195.4132674483009
 31
0.0
  0
LINE
  5
1EFB
330
A
100
AcDbEntity
  8
本体
  6
Continuous
 62
    84
100
AcDbLine
 10
-159.4985509999998
 20
209.813263448301
 30
0.0
 11
-162.4985510000001
 21
209.813263448301
 31
0.0
  0
LINE
  5
1EFC
330
A
100
AcDbEntity
  8
本体
  6
Continuous
 62
    84
100
AcDbLine
 10
-159.4985509999998
 20
211.3132634483009
 30
0.0
 11
-162.4985510000001
 21
211.3132634483009
 31
0.0
  0
LINE
  5
1F08
330
A
100
AcDbEntity
  8
本体
  6
Continuous
 62
    84
100
AcDbLine
 10
-206.748551
 20
228.2632674483008
 30
0.0
 11
1.251448999999865
 21
228.2632674483008
 31
0.0
  0
LINE
  5
1F09
330
A
100
AcDbEntity
  8
本体
  6
Continuous
 62
    84
100
AcDbLine
 10
-207.7485509999999
 20
184.2632674483009
 30
0.0
 11
2.251448999999865
 21
184.2632674483009
 31
0.0
  0
LINE
  5
1F0A
330
A
100
AcDbEntity
  8
本体
  6
Continuous
 62
    84
100
AcDbLine
 10
-203.7485509999999
 20
219.2632674483009
 30
0.0
 11
-36.53255100000001
 21
219.2632674483009
 31
0.0
  0
LINE
  5
1F0B
330
A
100
AcDbEntity
  8
本体
  6
Continuous
 62
    84
100
AcDbLine
 10
-203.7485509999999
 20
220.063267448301
 30
0.0
 11
-36.53255100000001
 21
220.063267448301
 31
0.0
  0
LINE
  5
1F0C
330
A
100
AcDbEntity
  8
本体
  6
Continuous
 62
    84
100
AcDbLine
 10
-204.2485510000001
 20
185.7632674483008
 30
0.0
 11
-1.248551000000132
 21
185.7632674483008
 31
0.0
  0
LINE
  5
1F0D
330
A
100
AcDbEntity
  8
本体
  6
Continuous
 62
    84
100
AcDbLine
 10
-204.2485510000001
 20
226.7632674483007
 30
0.0
 11
-1.248551000000132
 21
226.7632674483007
 31
0.0
  0
LINE
  5
1F15
330
A
100
AcDbEntity
  8
本体
  6
Continuous
 62
    84
100
AcDbLine
 10
2.251448999999979
 20
270.2657594576343
 30
0.0
 11
2.251448999999979
 21
494.2637594576344
 31
0.0
  0
LINE
  5
1FC7
330
A
100
AcDbEntity
  8
本体
  6
Continuous
 62
    84
100
AcDbLine
 10
-207.7485509999999
 20
227.2632674483009
 30
0.0
 11
-207.7485509999999
 21
184.2632674483009
 31
0.0
  0
LINE
  5
1FC8
330
A
100
AcDbEntity
  8
本体
  6
Continuous
 62
    84
100
AcDbLine
 10
-206.2485510000001
 20
224.7632674483007
 30
0.0
 11
-206.2485510000001
 21
187.7632674483009
 31
0.0
  0
ARC
  5
1FC9
330
A
100
AcDbEntity
  8
本体
  6
Continuous
 62
    84
100
AcDbCircle
 10
-204.2485510000001
 20
224.7632674483007
 30
0.0
 40
2.0
100
AcDbArc
 50
89.99999999999998
 51
180.0
  0
ARC
  5
1FD0
330
A
100
AcDbEntity
  8
本体
  6
Continuous
 62
    84
100
AcDbCircle
 10
-206.748551
 20
227.2632674483009
 30
0.0
 40
1.0
100
AcDbArc
 50
89.99999999999998
 51
180.0
  0
ARC
  5
1FD8
330
A
100
AcDbEntity
  8
本体
  6
Continuous
 62
    84
100
AcDbCircle
 10
-204.2485510000001
 20
187.7632674483009
 30
0.0
 40
2.0
100
AcDbArc
 50
180.0
 51
270.0
  0
LINE
  5
1FE0
330
A
100
AcDbEntity
  8
本体
  6
Continuous
 62
    84
100
AcDbLine
 10
-203.7485509999999
 20
220.063267448301
 30
0.0
 11
-203.7485509999999
 21
219.2632674483009
 31
0.0
  0
MTEXT
  5
1FE1
330
A
100
AcDbEntity
  8
本体
  6
Continuous
 62
    84
100
AcDbMText
 10
-180.3211189999999
 20
211.813263448301
 30
0.0
 40
2.5
 41
0.0
 71
     1
 72
     1
  1
\T0.757;\W1.126;\A1;MENU
 73
     1
 44
1.0
  0
LINE
  5
1FE2
330
A
100
AcDbEntity
  8
本体
  6
Continuous
 62
    84
100
AcDbLine
 10
-162.4985510000001
 20
209.813263448301
 30
0.0
 11
-162.4985510000001
 21
209.0632634483009
 31
0.0
  0
LINE
  5
1FE3
330
A
100
AcDbEntity
  8
本体
  6
Continuous
 62
    84
100
AcDbLine
 10
-163.9985510000001
 20
210.563263448301
 30
0.0
 11
-162.4985510000001
 21
209.0632634483009
 31
0.0
  0
LINE
  5
1FE4
330
A
100
AcDbEntity
  8
本体
  6
Continuous
 62
    84
100
AcDbLine
 10
-163.9985510000001
 20
210.563263448301
 30
0.0
 11
-162.4985510000001
 21
212.0632634483011
 31
0.0
  0
LINE
  5
1FE5
330
A
100
AcDbEntity
  8
本体
  6
Continuous
 62
    84
100
AcDbLine
 10
-162.4985510000001
 20
212.0632634483011
 30
0.0
 11
-162.4985510000001
 21
211.3132634483009
 31
0.0
  0
ARC
  5
1FE6
330
A
100
AcDbEntity
  8
本体
  6
Continuous
 62
    84
100
AcDbCircle
 10
-172.048551
 20
196.863267448301
 30
0.0
 40
0.8
100
AcDbArc
 50
270.0
 51
0.0
  0
LINE
  5
1FE7
330
A
100
AcDbEntity
  8
本体
  6
Continuous
 62
    84
100
AcDbLine
 10
-179.748551
 20
195.7632674483009
 30
0.0
 11
-171.7485510000001
 21
195.7632674483009
 31
0.0
  0
ARC
  5
1FE8
330
A
100
AcDbEntity
  8
本体
  6
Continuous
 62
    84
100
AcDbCircle
 10
-172.048551
 20
204.2632674483008
 30
0.0
 40
0.8
100
AcDbArc
 50
0.0
 51
89.99999999999998
  0
LINE
  5
1FE9
330
A
100
AcDbEntity
  8
本体
  6
Continuous
 62
    84
100
AcDbLine
 10
-179.748551
 20
205.363267448301
 30
0.0
 11
-171.7485510000001
 21
205.363267448301
 31
0.0
  0
LINE
  5
1FEA
330
A
100
AcDbEntity
  8
本体
  6
Continuous
 62
    84
100
AcDbLine
 10
-170.598551
 20
205.7132674483008
 30
0.0
 11
-180.898551
 21
205.7132674483008
 31
0.0
  0
LINE
  5
1FEB
330
A
100
AcDbEntity
  8
本体
  6
Continuous
 62
    84
100
AcDbLine
 10
-170.598551
 20
195.4132674483009
 30
0.0
 11
-180.898551
 21
195.4132674483009
 31
0.0
  0
LINE
  5
1FEC
330
A
100
AcDbEntity
  8
本体
  6
Continuous
 62
    84
100
AcDbLine
 10
-180.2485509999999
 20
196.863267448301
 30
0.0
 11
-180.2485509999999
 21
204.2632674483008
 31
0.0
  0
LINE
  5
1FED
330
A
100
AcDbEntity
  8
本体
  6
Continuous
 62
    84
100
AcDbLine
 10
-180.548551
 20
196.563267448301
 30
0.0
 11
-180.548551
 21
204.563267448301
 31
0.0
  0
CIRCLE
  5
1FEE
330
A
100
AcDbEntity
  8
本体
  6
Continuous
 62
    84
100
AcDbCircle
 10
-175.7485509999999
 20
200.563267448301
 30
0.0
 40
3.75
  0
LINE
  5
1FEF
330
A
100
AcDbEntity
  8
本体
  6
Continuous
 62
    84
100
AcDbLine
 10
-180.898551
 20
205.7132674483008
 30
0.0
 11
-180.898551
 21
195.4132674483009
 31
0.0
  0
ARC
  5
1FF0
330
A
100
AcDbEntity
  8
本体
  6
Continuous
 62
    84
100
AcDbCircle
 10
-179.748551
 20
204.563267448301
 30
0.0
 40
0.8
100
AcDbArc
 50
89.99999999999998
 51
180.0
  0
ARC
  5
1FF1
330
A
100
AcDbEntity
  8
本体
  6
Continuous
 62
    84
100
AcDbCircle
 10
-179.448551
 20
204.2632674483008
 30
0.0
 40
0.8
100
AcDbArc
 50
89.99999999999998
 51
180.0
  0
LINE
  5
1FF2
330
A
100
AcDbEntity
  8
本体
  6
Continuous
 62
    84
100
AcDbLine
 10
-179.448551
 20
205.0632674483011
 30
0.0
 11
-172.048551
 21
205.0632674483011
 31
0.0
  0
ARC
  5
1FF3
330
A
100
AcDbEntity
  8
本体
  6
Continuous
 62
    84
100
AcDbCircle
 10
-179.748551
 20
196.563267448301
 30
0.0
 40
0.8
100
AcDbArc
 50
180.0
 51
270.0
  0
ARC
  5
1FF4
330
A
100
AcDbEntity
  8
本体
  6
Continuous
 62
    84
100
AcDbCircle
 10
-179.448551
 20
196.863267448301
 30
0.0
 40
0.8
100
AcDbArc
 50
180.0
 51
270.0
  0
LINE
  5
1FF5
330
A
100
AcDbEntity
  8
本体
  6
Continuous
 62
    84
100
AcDbLine
 10
-179.448551
 20
196.063267448301
 30
0.0
 11
-172.048551
 21
196.063267448301
 31
0.0
  0
LINE
  5
1FF6
330
A
100
AcDbEntity
  8
本体
  6
Continuous
 62
    84
100
AcDbLine
 10
-166.2485510000001
 20
196.863267448301
 30
0.0
 11
-166.2485510000001
 21
204.2632674483008
 31
0.0
  0
LINE
  5
1FF7
330
A
100
AcDbEntity
  8
本体
  6
Continuous
 62
    84
100
AcDbLine
 10
-166.548551
 20
196.563267448301
 30
0.0
 11
-166.548551
 21
204.563267448301
 31
0.0
  0
LINE
  5
1FF8
330
A
100
AcDbEntity
  8
本体
  6
Continuous
 62
    84
100
AcDbLine
 10
-170.9485510000001
 20
196.563267448301
 30
0.0
 11
-170.9485510000001
 21
204.563267448301
 31
0.0
  0
LINE
  5
1FF9
330
A
100
AcDbEntity
  8
本体
  6
Continuous
 62
    84
100
AcDbLine
 10
-171.2485510000001
 20
196.863267448301
 30
0.0
 11
-171.2485510000001
 21
204.2632674483008
 31
0.0
  0
LINE
  5
1FFA
330
A
100
AcDbEntity
  8
本体
  6
Continuous
 62
    84
100
AcDbLine
 10
-170.598551
 20
205.7132674483008
 30
0.0
 11
-170.598551
 21
195.4132674483009
 31
0.0
  0
LINE
  5
1FFB
330
A
100
AcDbEntity
  8
本体
  6
Continuous
 62
    84
100
AcDbLine
 10
-166.8985509999999
 20
205.7132674483008
 30
0.0
 11
-166.8985509999999
 21
195.4132674483009
 31
0.0
  0
ARC
  5
1FFC
330
A
100
AcDbEntity
  8
本体
  6
Continuous
 62
    84
100
AcDbCircle
 10
-165.7485509999998
 20
204.563267448301
 30
0.0
 40
0.8
100
AcDbArc
 50
89.99999999999998
 51
180.0
  0
ARC
  5
1FFD
330
A
100
AcDbEntity
  8
本体
  6
Continuous
 62
    84
100
AcDbCircle
 10
-165.448551
 20
204.2632674483008
 30
0.0
 40
0.8
100
AcDbArc
 50
89.99999999999998
 51
180.0
  0
ARC
  5
1FFE
330
A
100
AcDbEntity
  8
本体
  6
Continuous
 62
    84
100
AcDbCircle
 10
-171.7485510000001
 20
204.563267448301
 30
0.0
 40
0.8
100
AcDbArc
 50
0.0
 51
89.99999999999998
  0
ARC
  5
1FFF
330
A
100
AcDbEntity
  8
本体
  6
Continuous
 62
    84
100
AcDbCircle
 10
-165.7485509999998
 20
196.563267448301
 30
0.0
 40
0.8
100
AcDbArc
 50
180.0
 51
270.0
  0
ARC
  5
2000
330
A
100
AcDbEntity
  8
本体
  6
Continuous
 62
    84
100
AcDbCircle
 10
-165.448551
 20
196.863267448301
 30
0.0
 40
0.8
100
AcDbArc
 50
180.0
 51
270.0
  0
ARC
  5
2001
330
A
100
AcDbEntity
  8
本体
  6
Continuous
 62
    84
100
AcDbCircle
 10
-171.7485510000001
 20
196.563267448301
 30
0.0
 40
0.8
100
AcDbArc
 50
270.0
 51
0.0
  0
MTEXT
  5
20FC
330
A
100
AcDbEntity
  8
本体
  6
Continuous
 62
    84
100
AcDbMText
 10
-123.1349909999997
 20
224.0386434483009
 30
0.0
 40
2.5
 41
0.0
 71
     1
 72
     1
  1
\T0.777;\W1.157;\A1;TITLE GENERATOR
 73
     1
 44
1.0
  0
LINE
  5
2113
330
A
100
AcDbEntity
  8
本体
  6
Continuous
 62
    84
100
AcDbLine
 10
-123.448551
 20
196.063267448301
 30
0.0
 11
-116.0485509999999
 21
196.063267448301
 31
0.0
  0
LINE
  5
2114
330
A
100
AcDbEntity
  8
本体
  6
Continuous
 62
    84
100
AcDbLine
 10
-123.748551
 20
195.7632674483009
 30
0.0
 11
-115.748551
 21
195.7632674483009
 31
0.0
  0
CIRCLE
  5
2115
330
A
100
AcDbEntity
  8
本体
  6
Continuous
 62
    84
100
AcDbCircle
 10
-119.7485510000001
 20
200.563267448301
 30
0.0
 40
3.75
  0
LINE
  5
2116
330
A
100
AcDbEntity
  8
本体
  6
Continuous
 62
    84
100
AcDbLine
 10
-123.448551
 20
205.0632674483011
 30
0.0
 11
-116.0485509999999
 21
205.0632674483011
 31
0.0
  0
LINE
  5
2117
330
A
100
AcDbEntity
  8
本体
  6
Continuous
 62
    84
100
AcDbLine
 10
-123.748551
 20
205.363267448301
 30
0.0
 11
-115.748551
 21
205.363267448301
 31
0.0
  0
LINE
  5
2118
330
A
100
AcDbEntity
  8
本体
  6
Continuous
 62
    84
100
AcDbLine
 10
-114.598551
 20
205.7132674483008
 30
0.0
 11
-124.898551
 21
205.7132674483008
 31
0.0
  0
LINE
  5
2119
330
A
100
AcDbEntity
  8
本体
  6
Continuous
 62
    84
100
AcDbLine
 10
-114.598551
 20
195.4132674483009
 30
0.0
 11
-124.898551
 21
195.4132674483009
 31
0.0
  0
LINE
  5
211A
330
A
100
AcDbEntity
  8
本体
  6
Continuous
 62
    84
100
AcDbLine
 10
-128.598551
 20
205.7132674483008
 30
0.0
 11
-138.8985509999999
 21
205.7132674483008
 31
0.0
  0
LINE
  5
211B
330
A
100
AcDbEntity
  8
本体
  6
Continuous
 62
    84
100
AcDbLine
 10
-128.598551
 20
195.4132674483009
 30
0.0
 11
-138.8985509999999
 21
195.4132674483009
 31
0.0
  0
LINE
  5
211C
330
A
100
AcDbEntity
  8
本体
  6
Continuous
 62
    84
100
AcDbLine
 10
-149.9985510000001
 20
211.3132634483009
 30
0.0
 11
-146.9985509999998
 21
211.3132634483009
 31
0.0
  0
LINE
  5
211D
330
A
100
AcDbEntity
  8
本体
  6
Continuous
 62
    84
100
AcDbLine
 10
-149.9985510000001
 20
209.813263448301
 30
0.0
 11
-146.9985509999998
 21
209.813263448301
 31
0.0
  0
LINE
  5
211E
330
A
100
AcDbEntity
  8
本体
  6
Continuous
 62
    84
100
AcDbLine
 10
-149.9985510000001
 20
211.3132634483009
 30
0.0
 11
-149.9985510000001
 21
209.813263448301
 31
0.0
  0
LINE
  5
211F
330
A
100
AcDbEntity
  8
本体
  6
Continuous
 62
    84
100
AcDbLine
 10
-159.4985509999998
 20
211.3132634483009
 30
0.0
 11
-159.4985509999998
 21
209.813263448301
 31
0.0
  0
LINE
  5
2120
330
A
100
AcDbEntity
  8
本体
  6
Continuous
 62
    84
100
AcDbLine
 10
-146.9985509999998
 20
209.813263448301
 30
0.0
 11
-146.9985509999998
 21
209.0632634483009
 31
0.0
  0
LINE
  5
2121
330
A
100
AcDbEntity
  8
本体
  6
Continuous
 62
    84
100
AcDbLine
 10
-145.4985510000001
 20
210.563263448301
 30
0.0
 11
-146.9985509999998
 21
209.0632634483009
 31
0.0
  0
LINE
  5
2122
330
A
100
AcDbEntity
  8
本体
  6
Continuous
 62
    84
100
AcDbLine
 10
-146.9985509999998
 20
212.0632634483011
 30
0.0
 11
-146.9985509999998
 21
211.3132634483009
 31
0.0
  0
LINE
  5
2123
330
A
100
AcDbEntity
  8
本体
  6
Continuous
 62
    84
100
AcDbLine
 10
-145.4985510000001
 20
210.563263448301
 30
0.0
 11
-146.9985509999998
 21
212.0632634483011
 31
0.0
  0
LINE
  5
2124
330
A
100
AcDbEntity
  8
本体
  6
Continuous
 62
    84
100
AcDbLine
 10
-151.448551
 20
196.063267448301
 30
0.0
 11
-144.048551
 21
196.063267448301
 31
0.0
  0
LINE
  5
2125
330
A
100
AcDbEntity
  8
本体
  6
Continuous
 62
    84
100
AcDbLine
 10
-151.7485510000001
 20
195.7632674483009
 30
0.0
 11
-143.7485510000001
 21
195.7632674483009
 31
0.0
  0
CIRCLE
  5
2126
330
A
100
AcDbEntity
  8
本体
  6
Continuous
 62
    84
100
AcDbCircle
 10
-147.7485510000001
 20
200.563267448301
 30
0.0
 40
3.75
  0
LINE
  5
2127
330
A
100
AcDbEntity
  8
本体
  6
Continuous
 62
    84
100
AcDbLine
 10
-151.448551
 20
205.0632674483011
 30
0.0
 11
-144.048551
 21
205.0632674483011
 31
0.0
  0
LINE
  5
2128
330
A
100
AcDbEntity
  8
本体
  6
Continuous
 62
    84
100
AcDbLine
 10
-151.7485510000001
 20
205.363267448301
 30
0.0
 11
-143.7485510000001
 21
205.363267448301
 31
0.0
  0
LINE
  5
2129
330
A
100
AcDbEntity
  8
本体
  6
Continuous
 62
    84
100
AcDbLine
 10
-142.598551
 20
205.7132674483008
 30
0.0
 11
-152.898551
 21
205.7132674483008
 31
0.0
  0
LINE
  5
212A
330
A
100
AcDbEntity
  8
本体
  6
Continuous
 62
    84
100
AcDbLine
 10
-142.598551
 20
195.4132674483009
 30
0.0
 11
-152.898551
 21
195.4132674483009
 31
0.0
  0
LINE
  5
212B
330
A
100
AcDbEntity
  8
本体
  6
Continuous
 62
    84
100
AcDbLine
 10
-152.2485509999999
 20
196.863267448301
 30
0.0
 11
-152.2485509999999
 21
204.2632674483008
 31
0.0
  0
LINE
  5
212C
330
A
100
AcDbEntity
  8
本体
  6
Continuous
 62
    84
100
AcDbLine
 10
-152.548551
 20
196.563267448301
 30
0.0
 11
-152.548551
 21
204.563267448301
 31
0.0
  0
LINE
  5
212D
330
A
100
AcDbEntity
  8
本体
  6
Continuous
 62
    84
100
AcDbLine
 10
-156.9485509999998
 20
196.563267448301
 30
0.0
 11
-156.9485509999998
 21
204.563267448301
 31
0.0
  0
LINE
  5
212E
330
A
100
AcDbEntity
  8
本体
  6
Continuous
 62
    84
100
AcDbLine
 10
-157.2485509999999
 20
196.863267448301
 30
0.0
 11
-157.2485509999999
 21
204.2632674483008
 31
0.0
  0
LINE
  5
212F
330
A
100
AcDbEntity
  8
本体
  6
Continuous
 62
    84
100
AcDbLine
 10
-156.598551
 20
205.7132674483008
 30
0.0
 11
-156.598551
 21
195.4132674483009
 31
0.0
  0
LINE
  5
2130
330
A
100
AcDbEntity
  8
本体
  6
Continuous
 62
    84
100
AcDbLine
 10
-152.898551
 20
205.7132674483008
 30
0.0
 11
-152.898551
 21
195.4132674483009
 31
0.0
  0
ARC
  5
2131
330
A
100
AcDbEntity
  8
本体
  6
Continuous
 62
    84
100
AcDbCircle
 10
-151.7485510000001
 20
204.563267448301
 30
0.0
 40
0.8
100
AcDbArc
 50
89.99999999999998
 51
180.0
  0
ARC
  5
2132
330
A
100
AcDbEntity
  8
本体
  6
Continuous
 62
    84
100
AcDbCircle
 10
-151.448551
 20
204.2632674483008
 30
0.0
 40
0.8
100
AcDbArc
 50
89.99999999999998
 51
180.0
  0
ARC
  5
2133
330
A
100
AcDbEntity
  8
本体
  6
Continuous
 62
    84
100
AcDbCircle
 10
-158.048551
 20
204.2632674483008
 30
0.0
 40
0.8
100
AcDbArc
 50
0.0
 51
89.99999999999998
  0
ARC
  5
2134
330
A
100
AcDbEntity
  8
本体
  6
Continuous
 62
    84
100
AcDbCircle
 10
-157.7485510000001
 20
204.563267448301
 30
0.0
 40
0.8
100
AcDbArc
 50
0.0
 51
89.99999999999998
  0
ARC
  5
2135
330
A
100
AcDbEntity
  8
本体
  6
Continuous
 62
    84
100
AcDbCircle
 10
-151.7485510000001
 20
196.563267448301
 30
0.0
 40
0.8
100
AcDbArc
 50
180.0
 51
270.0
  0
ARC
  5
2136
330
A
100
AcDbEntity
  8
本体
  6
Continuous
 62
    84
100
AcDbCircle
 10
-151.448551
 20
196.863267448301
 30
0.0
 40
0.8
100
AcDbArc
 50
180.0
 51
270.0
  0
ARC
  5
2137
330
A
100
AcDbEntity
  8
本体
  6
Continuous
 62
    84
100
AcDbCircle
 10
-158.048551
 20
196.863267448301
 30
0.0
 40
0.8
100
AcDbArc
 50
270.0
 51
0.0
  0
ARC
  5
2138
330
A
100
AcDbEntity
  8
本体
  6
Continuous
 62
    84
100
AcDbCircle
 10
-157.7485510000001
 20
196.563267448301
 30
0.0
 40
0.8
100
AcDbArc
 50
270.0
 51
0.0
  0
LINE
  5
2139
330
A
100
AcDbEntity
  8
本体
  6
Continuous
 62
    84
100
AcDbLine
 10
-142.9485510000001
 20
196.563267448301
 30
0.0
 11
-142.9485510000001
 21
204.563267448301
 31
0.0
  0
LINE
  5
213A
330
A
100
AcDbEntity
  8
本体
  6
Continuous
 62
    84
100
AcDbLine
 10
-143.2485510000001
 20
196.863267448301
 30
0.0
 11
-143.2485510000001
 21
204.2632674483008
 31
0.0
  0
LINE
  5
213B
330
A
100
AcDbEntity
  8
本体
  6
Continuous
 62
    84
100
AcDbLine
 10
-142.598551
 20
205.7132674483008
 30
0.0
 11
-142.598551
 21
195.4132674483009
 31
0.0
  0
LINE
  5
213C
330
A
100
AcDbEntity
  8
本体
  6
Continuous
 62
    84
100
AcDbLine
 10
-138.8985509999999
 20
205.7132674483008
 30
0.0
 11
-138.8985509999999
 21
195.4132674483009
 31
0.0
  0
ARC
  5
213D
330
A
100
AcDbEntity
  8
本体
  6
Continuous
 62
    84
100
AcDbCircle
 10
-144.048551
 20
204.2632674483008
 30
0.0
 40
0.8
100
AcDbArc
 50
0.0
 51
89.99999999999998
  0
ARC
  5
213E
330
A
100
AcDbEntity
  8
本体
  6
Continuous
 62
    84
100
AcDbCircle
 10
-143.7485510000001
 20
204.563267448301
 30
0.0
 40
0.8
100
AcDbArc
 50
0.0
 51
89.99999999999998
  0
ARC
  5
213F
330
A
100
AcDbEntity
  8
本体
  6
Continuous
 62
    84
100
AcDbCircle
 10
-144.048551
 20
196.863267448301
 30
0.0
 40
0.8
100
AcDbArc
 50
270.0
 51
0.0
  0
ARC
  5
2140
330
A
100
AcDbEntity
  8
本体
  6
Continuous
 62
    84
100
AcDbCircle
 10
-143.7485510000001
 20
196.563267448301
 30
0.0
 40
0.8
100
AcDbArc
 50
270.0
 51
0.0
  0
LINE
  5
2141
330
A
100
AcDbEntity
  8
本体
  6
Continuous
 62
    84
100
AcDbLine
 10
-132.9985510000001
 20
209.0632634483009
 30
0.0
 11
-134.4985509999997
 21
209.0632634483009
 31
0.0
  0
LINE
  5
2142
330
A
100
AcDbEntity
  8
本体
  6
Continuous
 62
    84
100
AcDbLine
 10
-134.4985509999997
 20
209.0632634483009
 30
0.0
 11
-134.4985509999997
 21
212.0632634483011
 31
0.0
  0
LINE
  5
2143
330
A
100
AcDbEntity
  8
本体
  6
Continuous
 62
    84
100
AcDbLine
 10
-132.9985510000001
 20
209.0632634483009
 30
0.0
 11
-132.9985510000001
 21
212.0632634483011
 31
0.0
  0
LINE
  5
2144
330
A
100
AcDbEntity
  8
本体
  6
Continuous
 62
    84
100
AcDbLine
 10
-132.2485510000001
 20
212.0632634483011
 30
0.0
 11
-132.9985510000001
 21
212.0632634483011
 31
0.0
  0
LINE
  5
2145
330
A
100
AcDbEntity
  8
本体
  6
Continuous
 62
    84
100
AcDbLine
 10
-134.4985509999997
 20
212.0632634483011
 30
0.0
 11
-135.2485510000001
 21
212.0632634483011
 31
0.0
  0
LINE
  5
2146
330
A
100
AcDbEntity
  8
本体
  6
Continuous
 62
    84
100
AcDbLine
 10
-133.7485510000001
 20
213.5632634483008
 30
0.0
 11
-132.2485510000001
 21
212.0632634483011
 31
0.0
  0
LINE
  5
2147
330
A
100
AcDbEntity
  8
本体
  6
Continuous
 62
    84
100
AcDbLine
 10
-133.7485510000001
 20
213.5632634483008
 30
0.0
 11
-135.2485510000001
 21
212.0632634483011
 31
0.0
  0
LINE
  5
2148
330
A
100
AcDbEntity
  8
本体
  6
Continuous
 62
    84
100
AcDbLine
 10
-120.4985509999999
 20
213.5632634483008
 30
0.0
 11
-118.998551
 21
213.5632634483008
 31
0.0
  0
LINE
  5
2149
330
A
100
AcDbEntity
  8
本体
  6
Continuous
 62
    84
100
AcDbLine
 10
-119.7485510000001
 20
209.0632634483009
 30
0.0
 11
-121.248551
 21
210.563263448301
 31
0.0
  0
LINE
  5
214A
330
A
100
AcDbEntity
  8
本体
  6
Continuous
 62
    84
100
AcDbLine
 10
-119.7485510000001
 20
209.0632634483009
 30
0.0
 11
-118.248551
 21
210.563263448301
 31
0.0
  0
LINE
  5
214B
330
A
100
AcDbEntity
  8
本体
  6
Continuous
 62
    84
100
AcDbLine
 10
-118.998551
 20
210.563263448301
 30
0.0
 11
-118.248551
 21
210.563263448301
 31
0.0
  0
LINE
  5
214C
330
A
100
AcDbEntity
  8
本体
  6
Continuous
 62
    84
100
AcDbLine
 10
-121.248551
 20
210.563263448301
 30
0.0
 11
-120.4985509999999
 21
210.563263448301
 31
0.0
  0
LINE
  5
214D
330
A
100
AcDbEntity
  8
本体
  6
Continuous
 62
    84
100
AcDbLine
 10
-120.4985509999999
 20
213.5632634483008
 30
0.0
 11
-120.4985509999999
 21
210.563263448301
 31
0.0
  0
LINE
  5
214E
330
A
100
AcDbEntity
  8
本体
  6
Continuous
 62
    84
100
AcDbLine
 10
-118.998551
 20
213.5632634483008
 30
0.0
 11
-118.998551
 21
210.563263448301
 31
0.0
  0
LINE
  5
214F
330
A
100
AcDbEntity
  8
本体
  6
Continuous
 62
    84
100
AcDbLine
 10
-128.948551
 20
196.563267448301
 30
0.0
 11
-128.948551
 21
204.563267448301
 31
0.0
  0
LINE
  5
2150
330
A
100
AcDbEntity
  8
本体
  6
Continuous
 62
    84
100
AcDbLine
 10
-138.2485510000001
 20
196.863267448301
 30
0.0
 11
-138.2485510000001
 21
204.2632674483008
 31
0.0
  0
LINE
  5
2151
330
A
100
AcDbEntity
  8
本体
  6
Continuous
 62
    84
100
AcDbLine
 10
-138.548551
 20
196.563267448301
 30
0.0
 11
-138.548551
 21
204.563267448301
 31
0.0
  0
CIRCLE
  5
2152
330
A
100
AcDbEntity
  8
本体
  6
Continuous
 62
    84
100
AcDbCircle
 10
-133.7485510000001
 20
200.563267448301
 30
0.0
 40
3.75
  0
LINE
  5
2153
330
A
100
AcDbEntity
  8
本体
  6
Continuous
 62
    84
100
AcDbLine
 10
-129.2485510000001
 20
196.863267448301
 30
0.0
 11
-129.2485510000001
 21
204.2632674483008
 31
0.0
  0
LINE
  5
2154
330
A
100
AcDbEntity
  8
本体
  6
Continuous
 62
    84
100
AcDbLine
 10
-128.598551
 20
205.7132674483008
 30
0.0
 11
-128.598551
 21
195.4132674483009
 31
0.0
  0
ARC
  5
2155
330
A
100
AcDbEntity
  8
本体
  6
Continuous
 62
    84
100
AcDbCircle
 10
-137.7485510000001
 20
204.563267448301
 30
0.0
 40
0.8
100
AcDbArc
 50
89.99999999999998
 51
180.0
  0
ARC
  5
2156
330
A
100
AcDbEntity
  8
本体
  6
Continuous
 62
    84
100
AcDbCircle
 10
-137.4485510000001
 20
204.2632674483008
 30
0.0
 40
0.8
100
AcDbArc
 50
89.99999999999998
 51
180.0
  0
ARC
  5
2157
330
A
100
AcDbEntity
  8
本体
  6
Continuous
 62
    84
100
AcDbCircle
 10
-130.0485510000001
 20
204.2632674483008
 30
0.0
 40
0.8
100
AcDbArc
 50
0.0
 51
89.99999999999998
  0
ARC
  5
2158
330
A
100
AcDbEntity
  8
本体
  6
Continuous
 62
    84
100
AcDbCircle
 10
-129.7485510000001
 20
204.563267448301
 30
0.0
 40
0.8
100
AcDbArc
 50
0.0
 51
89.99999999999998
  0
LINE
  5
2159
330
A
100
AcDbEntity
  8
本体
  6
Continuous
 62
    84
100
AcDbLine
 10
-137.4485510000001
 20
205.0632674483011
 30
0.0
 11
-130.0485510000001
 21
205.0632674483011
 31
0.0
  0
LINE
  5
215A
330
A
100
AcDbEntity
  8
本体
  6
Continuous
 62
    84
100
AcDbLine
 10
-137.7485510000001
 20
205.363267448301
 30
0.0
 11
-129.7485510000001
 21
205.363267448301
 31
0.0
  0
ARC
  5
215B
330
A
100
AcDbEntity
  8
本体
  6
Continuous
 62
    84
100
AcDbCircle
 10
-130.0485510000001
 20
196.863267448301
 30
0.0
 40
0.8
100
AcDbArc
 50
270.0
 51
0.0
  0
ARC
  5
215C
330
A
100
AcDbEntity
  8
本体
  6
Continuous
 62
    84
100
AcDbCircle
 10
-129.7485510000001
 20
196.563267448301
 30
0.0
 40
0.8
100
AcDbArc
 50
270.0
 51
0.0
  0
ARC
  5
215D
330
A
100
AcDbEntity
  8
本体
  6
Continuous
 62
    84
100
AcDbCircle
 10
-137.7485510000001
 20
196.563267448301
 30
0.0
 40
0.8
100
AcDbArc
 50
180.0
 51
270.0
  0
ARC
  5
215E
330
A
100
AcDbEntity
  8
本体
  6
Continuous
 62
    84
100
AcDbCircle
 10
-137.4485510000001
 20
196.863267448301
 30
0.0
 40
0.8
100
AcDbArc
 50
180.0
 51
270.0
  0
LINE
  5
215F
330
A
100
AcDbEntity
  8
本体
  6
Continuous
 62
    84
100
AcDbLine
 10
-137.4485510000001
 20
196.063267448301
 30
0.0
 11
-130.0485510000001
 21
196.063267448301
 31
0.0
  0
LINE
  5
2160
330
A
100
AcDbEntity
  8
本体
  6
Continuous
 62
    84
100
AcDbLine
 10
-137.7485510000001
 20
195.7632674483009
 30
0.0
 11
-129.7485510000001
 21
195.7632674483009
 31
0.0
  0
LINE
  5
2161
330
A
100
AcDbEntity
  8
本体
  6
Continuous
 62
    84
100
AcDbLine
 10
-124.248551
 20
196.863267448301
 30
0.0
 11
-124.248551
 21
204.2632674483008
 31
0.0
  0
LINE
  5
2162
330
A
100
AcDbEntity
  8
本体
  6
Continuous
 62
    84
100
AcDbLine
 10
-124.5485509999999
 20
196.563267448301
 30
0.0
 11
-124.5485509999999
 21
204.563267448301
 31
0.0
  0
LINE
  5
2163
330
A
100
AcDbEntity
  8
本体
  6
Continuous
 62
    84
100
AcDbLine
 10
-124.898551
 20
205.7132674483008
 30
0.0
 11
-124.898551
 21
195.4132674483009
 31
0.0
  0
ARC
  5
2164
330
A
100
AcDbEntity
  8
本体
  6
Continuous
 62
    84
100
AcDbCircle
 10
-123.748551
 20
204.563267448301
 30
0.0
 40
0.8
100
AcDbArc
 50
89.99999999999998
 51
180.0
  0
ARC
  5
2165
330
A
100
AcDbEntity
  8
本体
  6
Continuous
 62
    84
100
AcDbCircle
 10
-123.448551
 20
204.2632674483008
 30
0.0
 40
0.8
100
AcDbArc
 50
89.99999999999998
 51
180.0
  0
ARC
  5
2166
330
A
100
AcDbEntity
  8
本体
  6
Continuous
 62
    84
100
AcDbCircle
 10
-123.748551
 20
196.563267448301
 30
0.0
 40
0.8
100
AcDbArc
 50
180.0
 51
270.0
  0
ARC
  5
2167
330
A
100
AcDbEntity
  8
本体
  6
Continuous
 62
    84
100
AcDbCircle
 10
-123.448551
 20
196.863267448301
 30
0.0
 40
0.8
100
AcDbArc
 50
180.0
 51
270.0
  0
MTEXT
  5
2168
330
A
100
AcDbEntity
  8
本体
  6
Continuous
 62
    84
100
AcDbMText
 10
-111.492995
 20
211.813263448301
 30
0.0
 40
2.5
 41
0.0
 71
     1
 72
     1
  1
\T0.757;\W1.126;\A1;ENTER
 73
     1
 44
1.0
  0
LINE
  5
2169
330
A
100
AcDbEntity
  8
本体
  6
Continuous
 62
    84
100
AcDbLine
 10
-109.4485510000001
 20
196.063267448301
 30
0.0
 11
-102.048551
 21
196.063267448301
 31
0.0
  0
LINE
  5
216A
330
A
100
AcDbEntity
  8
本体
  6
Continuous
 62
    84
100
AcDbLine
 10
-109.748551
 20
195.7632674483009
 30
0.0
 11
-101.7485509999999
 21
195.7632674483009
 31
0.0
  0
CIRCLE
  5
216B
330
A
100
AcDbEntity
  8
本体
  6
Continuous
 62
    84
100
AcDbCircle
 10
-105.748551
 20
200.563267448301
 30
0.0
 40
3.75
  0
LINE
  5
216C
330
A
100
AcDbEntity
  8
本体
  6
Continuous
 62
    84
100
AcDbLine
 10
-109.4485510000001
 20
205.0632674483011
 30
0.0
 11
-102.048551
 21
205.0632674483011
 31
0.0
  0
LINE
  5
216D
330
A
100
AcDbEntity
  8
本体
  6
Continuous
 62
    84
100
AcDbLine
 10
-109.748551
 20
205.363267448301
 30
0.0
 11
-101.7485509999999
 21
205.363267448301
 31
0.0
  0
LINE
  5
216E
330
A
100
AcDbEntity
  8
本体
  6
Continuous
 62
    84
100
AcDbLine
 10
-100.5985509999999
 20
205.7132674483008
 30
0.0
 11
-110.8985509999999
 21
205.7132674483008
 31
0.0
  0
LINE
  5
216F
330
A
100
AcDbEntity
  8
本体
  6
Continuous
 62
    84
100
AcDbLine
 10
-100.5985509999999
 20
195.4132674483009
 30
0.0
 11
-110.8985509999999
 21
195.4132674483009
 31
0.0
  0
LINE
  5
2170
330
A
100
AcDbEntity
  8
本体
  6
Continuous
 62
    84
100
AcDbLine
 10
-110.248551
 20
196.863267448301
 30
0.0
 11
-110.248551
 21
204.2632674483008
 31
0.0
  0
LINE
  5
2171
330
A
100
AcDbEntity
  8
本体
  6
Continuous
 62
    84
100
AcDbLine
 10
-110.548551
 20
196.563267448301
 30
0.0
 11
-110.548551
 21
204.563267448301
 31
0.0
  0
LINE
  5
2172
330
A
100
AcDbEntity
  8
本体
  6
Continuous
 62
    84
100
AcDbLine
 10
-114.9485509999999
 20
196.563267448301
 30
0.0
 11
-114.9485509999999
 21
204.563267448301
 31
0.0
  0
LINE
  5
2173
330
A
100
AcDbEntity
  8
本体
  6
Continuous
 62
    84
100
AcDbLine
 10
-115.2485509999999
 20
196.863267448301
 30
0.0
 11
-115.2485509999999
 21
204.2632674483008
 31
0.0
  0
LINE
  5
2174
330
A
100
AcDbEntity
  8
本体
  6
Continuous
 62
    84
100
AcDbLine
 10
-114.598551
 20
205.7132674483008
 30
0.0
 11
-114.598551
 21
195.4132674483009
 31
0.0
  0
LINE
  5
2175
330
A
100
AcDbEntity
  8
本体
  6
Continuous
 62
    84
100
AcDbLine
 10
-110.8985509999999
 20
205.7132674483008
 30
0.0
 11
-110.8985509999999
 21
195.4132674483009
 31
0.0
  0
ARC
  5
2176
330
A
100
AcDbEntity
  8
本体
  6
Continuous
 62
    84
100
AcDbCircle
 10
-109.748551
 20
204.563267448301
 30
0.0
 40
0.8
100
AcDbArc
 50
89.99999999999998
 51
180.0
  0
ARC
  5
2177
330
A
100
AcDbEntity
  8
本体
  6
Continuous
 62
    84
100
AcDbCircle
 10
-109.4485510000001
 20
204.2632674483008
 30
0.0
 40
0.8
100
AcDbArc
 50
89.99999999999998
 51
180.0
  0
ARC
  5
2178
330
A
100
AcDbEntity
  8
本体
  6
Continuous
 62
    84
100
AcDbCircle
 10
-116.0485509999999
 20
204.2632674483008
 30
0.0
 40
0.8
100
AcDbArc
 50
0.0
 51
89.99999999999998
  0
ARC
  5
2179
330
A
100
AcDbEntity
  8
本体
  6
Continuous
 62
    84
100
AcDbCircle
 10
-115.748551
 20
204.563267448301
 30
0.0
 40
0.8
100
AcDbArc
 50
0.0
 51
89.99999999999998
  0
ARC
  5
217A
330
A
100
AcDbEntity
  8
本体
  6
Continuous
 62
    84
100
AcDbCircle
 10
-109.748551
 20
196.563267448301
 30
0.0
 40
0.8
100
AcDbArc
 50
180.0
 51
270.0
  0
ARC
  5
217B
330
A
100
AcDbEntity
  8
本体
  6
Continuous
 62
    84
100
AcDbCircle
 10
-109.4485510000001
 20
196.863267448301
 30
0.0
 40
0.8
100
AcDbArc
 50
180.0
 51
270.0
  0
ARC
  5
217C
330
A
100
AcDbEntity
  8
本体
  6
Continuous
 62
    84
100
AcDbCircle
 10
-116.0485509999999
 20
196.863267448301
 30
0.0
 40
0.8
100
AcDbArc
 50
270.0
 51
0.0
  0
ARC
  5
217D
330
A
100
AcDbEntity
  8
本体
  6
Continuous
 62
    84
100
AcDbCircle
 10
-115.748551
 20
196.563267448301
 30
0.0
 40
0.8
100
AcDbArc
 50
270.0
 51
0.0
  0
LINE
  5
217E
330
A
100
AcDbEntity
  8
本体
  6
Continuous
 62
    84
100
AcDbLine
 10
-100.9485509999999
 20
196.563267448301
 30
0.0
 11
-100.9485509999999
 21
204.563267448301
 31
0.0
  0
LINE
  5
217F
330
A
100
AcDbEntity
  8
本体
  6
Continuous
 62
    84
100
AcDbLine
 10
-101.248551
 20
196.863267448301
 30
0.0
 11
-101.248551
 21
204.2632674483008
 31
0.0
  0
LINE
  5
2180
330
A
100
AcDbEntity
  8
本体
  6
Continuous
 62
    84
100
AcDbLine
 10
-100.5985509999999
 20
205.7132674483008
 30
0.0
 11
-100.5985509999999
 21
195.4132674483009
 31
0.0
  0
ARC
  5
2181
330
A
100
AcDbEntity
  8
本体
  6
Continuous
 62
    84
100
AcDbCircle
 10
-102.048551
 20
204.2632674483008
 30
0.0
 40
0.8
100
AcDbArc
 50
0.0
 51
89.99999999999998
  0
ARC
  5
2182
330
A
100
AcDbEntity
  8
本体
  6
Continuous
 62
    84
100
AcDbCircle
 10
-101.7485509999999
 20
204.563267448301
 30
0.0
 40
0.8
100
AcDbArc
 50
0.0
 51
89.99999999999998
  0
ARC
  5
2183
330
A
100
AcDbEntity
  8
本体
  6
Continuous
 62
    84
100
AcDbCircle
 10
-102.048551
 20
196.863267448301
 30
0.0
 40
0.8
100
AcDbArc
 50
270.0
 51
0.0
  0
ARC
  5
2184
330
A
100
AcDbEntity
  8
本体
  6
Continuous
 62
    84
100
AcDbCircle
 10
-101.7485509999999
 20
196.563267448301
 30
0.0
 40
0.8
100
AcDbArc
 50
270.0
 51
0.0
  0
LINE
  5
2186
330
A
100
AcDbEntity
  8
本体
  6
Continuous
 62
    84
100
AcDbLine
 10
2.251448999999865
 20
227.2632674483009
 30
0.0
 11
2.251448999999865
 21
184.2632674483009
 31
0.0
  0
LINE
  5
2187
330
A
100
AcDbEntity
  8
本体
  6
Continuous
 62
    84
100
AcDbLine
 10
0.751448999999866
 20
224.7632674483007
 30
0.0
 11
0.751448999999866
 21
187.7632674483009
 31
0.0
  0
ARC
  5
219B
330
A
100
AcDbEntity
  8
本体
  6
Continuous
 62
    84
100
AcDbCircle
 10
1.251448999999865
 20
227.2632674483009
 30
0.0
 40
1.0
100
AcDbArc
 50
0.0
 51
89.99999999999998
  0
ARC
  5
219C
330
A
100
AcDbEntity
  8
本体
  6
Continuous
 62
    84
100
AcDbCircle
 10
-1.248551000000132
 20
224.7632674483007
 30
0.0
 40
2.0
100
AcDbArc
 50
0.0
 51
89.99999999999998
  0
LINE
  5
219E
330
A
100
AcDbEntity
  8
本体
  6
Continuous
 62
    84
100
AcDbLine
 10
-32.73855100000012
 20
194.7632674483008
 30
0.0
 11
-22.73855100000014
 21
194.7632674483008
 31
0.0
  0
LINE
  5
219F
330
A
100
AcDbEntity
  8
本体
  6
Continuous
 62
    84
100
AcDbLine
 10
-32.73855100000012
 20
209.7632674483008
 30
0.0
 11
-22.73855100000014
 21
209.7632674483008
 31
0.0
  0
LINE
  5
21A0
330
A
100
AcDbEntity
  8
本体
  6
Continuous
 62
    84
100
AcDbLine
 10
-35.23855100000013
 20
212.7632674483009
 30
0.0
 11
-20.23855100000014
 21
212.7632674483009
 31
0.0
  0
LINE
  5
21A1
330
A
100
AcDbEntity
  8
本体
  6
Continuous
 62
    84
100
AcDbLine
 10
-35.23855100000013
 20
191.7632674483009
 30
0.0
 11
-20.23855100000014
 21
191.7632674483009
 31
0.0
  0
LINE
  5
21A2
330
A
100
AcDbEntity
  8
本体
  6
Continuous
 62
    84
100
AcDbLine
 10
-39.23855100000013
 20
214.2632674483007
 30
0.0
 11
-16.23855100000014
 21
214.2632674483007
 31
0.0
  0
LINE
  5
21A3
330
A
100
AcDbEntity
  8
本体
  6
Continuous
 62
    84
100
AcDbLine
 10
-39.23855100000013
 20
190.2632674483008
 30
0.0
 11
-16.23855100000014
 21
190.2632674483008
 31
0.0
  0
LINE
  5
21A4
330
A
100
AcDbEntity
  8
本体
  6
Continuous
 62
    84
100
AcDbLine
 10
-21.23855100000012
 20
212.7632674483009
 30
0.0
 11
-34.23855100000013
 21
212.7632674483009
 31
0.0
  0
LINE
  5
21A5
330
A
100
AcDbEntity
  8
本体
  6
Continuous
 62
    84
100
AcDbLine
 10
-21.23855100000012
 20
191.7632674483009
 30
0.0
 11
-34.23855100000013
 21
191.7632674483009
 31
0.0
  0
LINE
  5
21A6
330
A
100
AcDbEntity
  8
本体
  6
Continuous
 62
    84
100
AcDbLine
 10
-22.73855100000014
 20
206.5132674483009
 30
0.0
 11
-32.73855100000012
 21
206.5132674483009
 31
0.0
  0
LINE
  5
21A7
330
A
100
AcDbEntity
  8
本体
  6
Continuous
 62
    84
100
AcDbLine
 10
-39.74855100000013
 20
214.7632674483009
 30
0.0
 11
-15.74855100000013
 21
214.7632674483009
 31
0.0
  0
LINE
  5
21A8
330
A
100
AcDbEntity
  8
本体
  6
Continuous
 62
    84
100
AcDbLine
 10
-39.74855100000013
 20
189.7632674483008
 30
0.0
 11
-15.74855100000013
 21
189.7632674483008
 31
0.0
  0
MTEXT
  5
21A9
330
A
100
AcDbEntity
  8
本体
  6
Continuous
 62
    84
100
AcDbMText
 10
-35.08855300000004
 20
221.2632674483009
 30
0.0
 40
3.2
 41
0.0
 71
     1
 72
     1
  1
\T0.750;\W1.065;\A1;POWER
 73
     1
 44
1.0
  0
LINE
  5
21AA
330
A
100
AcDbEntity
  8
本体
  6
Continuous
 62
    84
100
AcDbLine
 10
-35.23855100000013
 20
214.2632674483007
 30
0.0
 11
-35.23855100000013
 21
190.2632674483008
 31
0.0
  0
LINE
  5
21AB
330
A
100
AcDbEntity
  8
本体
  6
Continuous
 62
    84
100
AcDbLine
 10
-39.23855100000013
 20
196.2632674483008
 30
0.0
 11
-39.23855100000013
 21
190.2632674483008
 31
0.0
  0
LINE
  5
21AC
330
A
100
AcDbEntity
  8
本体
  6
Continuous
 62
    84
100
AcDbLine
 10
-39.74855100000013
 20
195.7632674483009
 30
0.0
 11
-39.74855100000013
 21
189.7632674483008
 31
0.0
  0
LINE
  5
21AD
330
A
100
AcDbEntity
  8
本体
  6
Continuous
 62
    84
100
AcDbLine
 10
-32.73855100000012
 20
209.7632674483008
 30
0.0
 11
-32.73855100000012
 21
194.7632674483008
 31
0.0
  0
LINE
  5
21AE
330
A
100
AcDbEntity
  8
本体
  6
Continuous
 62
    84
100
AcDbLine
 10
-45.23855100000014
 20
208.2632674483007
 30
0.0
 11
-45.23855100000014
 21
196.2632674483008
 31
0.0
  0
LINE
  5
21AF
330
A
100
AcDbEntity
  8
本体
  6
Continuous
 62
    84
100
AcDbLine
 10
-35.23855100000013
 20
192.7632674483009
 30
0.0
 11
-35.23855100000013
 21
211.7632674483008
 31
0.0
  0
LINE
  5
21B0
330
A
100
AcDbEntity
  8
本体
  6
Continuous
 62
    84
100
AcDbLine
 10
-45.74855100000013
 20
208.7632674483009
 30
0.0
 11
-45.74855100000013
 21
195.7632674483009
 31
0.0
  0
LINE
  5
21B1
330
A
100
AcDbEntity
  8
本体
  6
Continuous
 62
    84
100
AcDbLine
 10
-45.23855100000014
 20
208.2632674483007
 30
0.0
 11
-39.23855100000013
 21
208.2632674483007
 31
0.0
  0
LINE
  5
21B2
330
A
100
AcDbEntity
  8
本体
  6
Continuous
 62
    84
100
AcDbLine
 10
-39.74855100000013
 20
214.7632674483009
 30
0.0
 11
-39.74855100000013
 21
208.7632674483009
 31
0.0
  0
MTEXT
  5
21B3
330
A
100
AcDbEntity
  8
本体
  6
Continuous
 62
    84
100
AcDbMText
 10
-45.57605099999999
 20
212.2632674483007
 30
0.0
 40
2.0
 41
0.0
 71
     1
 72
     1
  1
\T0.750;\W1.136;\A1;ON
 73
     1
 44
1.0
  0
LINE
  5
21B4
330
A
100
AcDbEntity
  8
本体
  6
Continuous
 62
    84
100
AcDbLine
 10
-45.74855100000013
 20
208.7632674483009
 30
0.0
 11
-39.74855100000013
 21
208.7632674483009
 31
0.0
  0
LINE
  5
21B5
330
A
100
AcDbEntity
  8
本体
  6
Continuous
 62
    84
100
AcDbLine
 10
-39.23855100000013
 20
214.2632674483007
 30
0.0
 11
-39.23855100000013
 21
208.2632674483007
 31
0.0
  0
LINE
  5
21B6
330
A
100
AcDbEntity
  8
本体
  6
Continuous
 62
    84
100
AcDbLine
 10
-36.53255100000001
 20
220.063267448301
 30
0.0
 11
-36.53255100000001
 21
219.2632674483009
 31
0.0
  0
ARC
  5
21B7
330
A
100
AcDbEntity
  8
本体
  6
Continuous
 62
    84
100
AcDbCircle
 10
-34.23855100000013
 20
211.7632674483008
 30
0.0
 40
1.0
100
AcDbArc
 50
89.99999999999998
 51
180.0
  0
LINE
  5
21B8
330
A
100
AcDbEntity
  8
本体
  6
Continuous
 62
    84
100
AcDbLine
 10
-42.73855100000013
 20
199.7632674483009
 30
0.0
 11
-37.73855100000013
 21
199.7632674483009
 31
0.0
  0
LINE
  5
21B9
330
A
100
AcDbEntity
  8
本体
  6
Continuous
 62
    84
100
AcDbLine
 10
-42.73855100000013
 20
204.7632674483009
 30
0.0
 11
-37.73855100000013
 21
204.7632674483009
 31
0.0
  0
LINE
  5
21BA
330
A
100
AcDbEntity
  8
本体
  6
Continuous
 62
    84
100
AcDbLine
 10
-45.23855100000014
 20
205.2632674483009
 30
0.0
 11
-35.23855100000013
 21
205.2632674483009
 31
0.0
  0
LINE
  5
21BB
330
A
100
AcDbEntity
  8
本体
  6
Continuous
 62
    84
100
AcDbLine
 10
-45.23855100000014
 20
199.2632674483008
 30
0.0
 11
-35.23855100000013
 21
199.2632674483008
 31
0.0
  0
LINE
  5
21BC
330
A
100
AcDbEntity
  8
本体
  6
Continuous
 62
    84
100
AcDbLine
 10
-45.23855100000014
 20
196.2632674483008
 30
0.0
 11
-39.23855100000013
 21
196.2632674483008
 31
0.0
  0
LINE
  5
21BD
330
A
100
AcDbEntity
  8
本体
  6
Continuous
 62
    84
100
AcDbLine
 10
-42.73855100000013
 20
204.7632674483009
 30
0.0
 11
-42.73855100000013
 21
199.7632674483009
 31
0.0
  0
MTEXT
  5
21BE
330
A
100
AcDbEntity
  8
本体
  6
Continuous
 62
    84
100
AcDbMText
 10
-46.51355099999999
 20
194.2632674483005
 30
0.0
 40
2.0
 41
0.0
 71
     1
 72
     1
  1
\T0.750;\W1.136;\A1;OFF
 73
     1
 44
1.0
  0
LINE
  5
21BF
330
A
100
AcDbEntity
  8
本体
  6
Continuous
 62
    84
100
AcDbLine
 10
-45.74855100000013
 20
195.7632674483009
 30
0.0
 11
-39.74855100000013
 21
195.7632674483009
 31
0.0
  0
LINE
  5
21C0
330
A
100
AcDbEntity
  8
本体
  6
Continuous
 62
    84
100
AcDbLine
 10
-37.73855100000013
 20
204.7632674483009
 30
0.0
 11
-37.73855100000013
 21
199.7632674483009
 31
0.0
  0
ARC
  5
21C1
330
A
100
AcDbEntity
  8
本体
  6
Continuous
 62
    84
100
AcDbCircle
 10
-34.23855100000013
 20
192.7632674483009
 30
0.0
 40
1.0
100
AcDbArc
 50
180.0
 51
270.0
  0
LINE
  5
21C6
330
A
100
AcDbEntity
  8
本体
  6
Continuous
 62
    84
100
AcDbLine
 10
-20.23855100000014
 20
214.2632674483007
 30
0.0
 11
-20.23855100000014
 21
190.2632674483008
 31
0.0
  0
LINE
  5
21C7
330
A
100
AcDbEntity
  8
本体
  6
Continuous
 62
    84
100
AcDbLine
 10
-16.23855100000014
 20
214.2632674483007
 30
0.0
 11
-16.23855100000014
 21
190.2632674483008
 31
0.0
  0
LINE
  5
21C8
330
A
100
AcDbEntity
  8
本体
  6
Continuous
 62
    84
100
AcDbLine
 10
-15.74855100000013
 20
214.7632674483009
 30
0.0
 11
-15.74855100000013
 21
189.7632674483008
 31
0.0
  0
SOLID
  5
21C9
330
A
100
AcDbEntity
  8
本体
  6
Continuous
 62
    84
100
AcDbTrace
 10
-1.738551000000139
 20
219.2632674483009
 30
0.0
 11
-1.738551000000139
 21
220.063267448301
 31
0.0
 12
-18.76955100000009
 22
219.2632674483009
 32
0.0
 13
-18.76955100000009
 23
220.063267448301
 33
0.0
  0
LINE
  5
21CA
330
A
100
AcDbEntity
  8
本体
  6
Continuous
 62
    84
100
AcDbLine
 10
-18.76955100000009
 20
220.063267448301
 30
0.0
 11
-1.738551000000139
 21
220.063267448301
 31
0.0
  0
LINE
  5
21CB
330
A
100
AcDbEntity
  8
本体
  6
Continuous
 62
    84
100
AcDbLine
 10
-18.76955100000009
 20
219.2632674483009
 30
0.0
 11
-1.738551000000139
 21
219.2632674483009
 31
0.0
  0
LINE
  5
21CC
330
A
100
AcDbEntity
  8
本体
  6
Continuous
 62
    84
100
AcDbLine
 10
-22.73855100000014
 20
209.7632674483008
 30
0.0
 11
-22.73855100000014
 21
194.7632674483008
 31
0.0
  0
LINE
  5
21CD
330
A
100
AcDbEntity
  8
本体
  6
Continuous
 62
    84
100
AcDbLine
 10
-20.23855100000014
 20
192.7632674483009
 30
0.0
 11
-20.23855100000014
 21
211.7632674483008
 31
0.0
  0
LINE
  5
21CE
330
A
100
AcDbEntity
  8
本体
  6
Continuous
 62
    84
100
AcDbLine
 10
-18.76955100000009
 20
220.063267448301
 30
0.0
 11
-18.76955100000009
 21
219.2632674483009
 31
0.0
  0
ARC
  5
21CF
330
A
100
AcDbEntity
  8
本体
  6
Continuous
 62
    84
100
AcDbCircle
 10
-21.23855100000012
 20
211.7632674483008
 30
0.0
 40
1.0
100
AcDbArc
 50
0.0
 51
89.99999999999998
  0
LINE
  5
21D0
330
A
100
AcDbEntity
  8
本体
  6
Continuous
 62
    84
100
AcDbLine
 10
-20.23855100000014
 20
205.2632674483009
 30
0.0
 11
-16.23855100000014
 21
205.2632674483009
 31
0.0
  0
LINE
  5
21D1
330
A
100
AcDbEntity
  8
本体
  6
Continuous
 62
    84
100
AcDbLine
 10
-20.23855100000014
 20
199.2632674483008
 30
0.0
 11
-16.23855100000014
 21
199.2632674483008
 31
0.0
  0
ARC
  5
21D2
330
A
100
AcDbEntity
  8
本体
  6
Continuous
 62
    84
100
AcDbCircle
 10
-21.23855100000012
 20
192.7632674483009
 30
0.0
 40
1.0
100
AcDbArc
 50
270.0
 51
0.0
  0
LINE
  5
21D5
330
A
100
AcDbEntity
  8
本体
  6
Continuous
 62
    84
100
AcDbLine
 10
-1.738551000000139
 20
220.063267448301
 30
0.0
 11
-1.738551000000139
 21
219.2632674483009
 31
0.0
  0
ARC
  5
21DD
330
A
100
AcDbEntity
  8
本体
  6
Continuous
 62
    84
100
AcDbCircle
 10
-1.248551000000132
 20
187.7632674483009
 30
0.0
 40
2.0
100
AcDbArc
 50
270.0
 51
0.0
  0
LINE
  5
225A
330
A
100
AcDbEntity
  8
本体
  6
Continuous
 62
    84
100
AcDbLine
 10
2.251448999999979
 20
641.3508207631207
 30
0.0
 11
-207.7485509999999
 21
641.3508207631207
 31
0.0
  0
LINE
  5
225B
330
A
100
AcDbEntity
  8
本体
  6
Continuous
 62
    84
100
AcDbLine
 10
-206.748551
 20
640.1508207631209
 30
0.0
 11
1.251448999999978
 21
640.1508207631209
 31
0.0
  0
LINE
  5
225C
330
A
100
AcDbEntity
  8
本体
  6
Continuous
 62
    84
100
AcDbLine
 10
-203.2485509999999
 20
638.6508207631209
 30
0.0
 11
-2.248551000000019
 21
638.6508207631209
 31
0.0
  0
LINE
  5
225D
330
A
100
AcDbEntity
  8
本体
  6
Continuous
 62
    84
100
AcDbLine
 10
-152.4485509999998
 20
600.7508207631206
 30
0.0
 11
-119.4485509999999
 21
600.7508207631206
 31
0.0
  0
CIRCLE
  5
225E
330
A
100
AcDbEntity
  8
本体
  6
Continuous
 62
    84
100
AcDbCircle
 10
-144.9485509999998
 20
609.2508207631206
 30
0.0
 40
4.549999999999998
  0
CIRCLE
  5
225F
330
A
100
AcDbEntity
  8
本体
  6
Continuous
 62
    84
100
AcDbCircle
 10
-144.9485509999998
 20
609.2508207631206
 30
0.0
 40
4.75
  0
CIRCLE
  5
2260
330
A
100
AcDbEntity
  8
本体
  6
Continuous
 62
    84
100
AcDbCircle
 10
-144.9485509999998
 20
609.2508207631206
 30
0.0
 40
6.75
  0
CIRCLE
  5
2261
330
A
100
AcDbEntity
  8
本体
  6
Continuous
 62
    84
100
AcDbCircle
 10
-144.9485509999998
 20
609.2508207631206
 30
0.0
 40
6.5
  0
CIRCLE
  5
2262
330
A
100
AcDbEntity
  8
本体
  6
Continuous
 62
    84
100
AcDbCircle
 10
-144.9485509999998
 20
609.2508207631206
 30
0.0
 40
6.75
  0
HATCH
  5
2263
330
A
100
AcDbEntity
  8
本体
  6
Continuous
 62
    84
100
AcDbHatch
 10
0.0
 20
0.0
 30
0.0
210
0.0
220
0.0
230
1.0
  2
SOLID
 70
     1
 71
     0
 91
        1
 92
        1
 93
        4
 72
     2
 10
-144.9485519995269
 20
626.2508198621667
 40
6.599999999999997
 50
402.4233419999998
 51
497.5766580000001
 73
     0
 72
     2
 10
-154.2496272061899
 20
617.7508198621667
 40
6.0
 50
317.576658
 51
402.4233419999998
 73
     0
 72
     2
 10
-144.9485519995269
 20
609.2508198621665
 40
6.599999999999997
 50
222.423342
 51
317.576658
 73
     0
 72
     2
 10
-135.6474767928645
 20
617.7508198621667
 40
6.0
 50
137.576658
 51
222.423342
 73
     0
 97
        0
 75
     0
 76
     1
 98
        1
 10
-160.922051
 20
623.8596147631207
  0
LINE
  5
2264
330
A
100
AcDbEntity
  8
本体
  6
Continuous
 62
    84
100
AcDbLine
 10
-152.4485509999998
 20
636.7508207631207
 30
0.0
 11
-119.4485509999999
 21
636.7508207631207
 31
0.0
  0
CIRCLE
  5
2265
330
A
100
AcDbEntity
  8
本体
  6
Continuous
 62
    84
100
AcDbCircle
 10
-144.9485509999998
 20
626.2508207631205
 30
0.0
 40
6.75
  0
CIRCLE
  5
2266
330
A
100
AcDbEntity
  8
本体
  6
Continuous
 62
    84
100
AcDbCircle
 10
-144.9485509999998
 20
626.2508207631205
 30
0.0
 40
4.75
  0
CIRCLE
  5
2267
330
A
100
AcDbEntity
  8
本体
  6
Continuous
 62
    84
100
AcDbCircle
 10
-144.9485509999998
 20
626.2508207631205
 30
0.0
 40
4.549999999999998
  0
CIRCLE
  5
2268
330
A
100
AcDbEntity
  8
本体
  6
Continuous
 62
    84
100
AcDbCircle
 10
-144.9485509999998
 20
626.2508207631205
 30
0.0
 40
6.5
  0
CIRCLE
  5
2269
330
A
100
AcDbEntity
  8
本体
  6
Continuous
 62
    84
100
AcDbCircle
 10
-144.9485509999998
 20
626.2508207631205
 30
0.0
 40
6.75
  0
LINE
  5
226A
330
A
100
AcDbEntity
  8
本体
  6
Continuous
 62
    84
100
AcDbLine
 10
-203.2485509999999
 20
599.8508207631207
 30
0.0
 11
-2.248551000000019
 21
599.8508207631207
 31
0.0
  0
LINE
  5
226B
330
A
100
AcDbEntity
  8
本体
  6
Continuous
 62
    84
100
AcDbLine
 10
-205.7485509999999
 20
598.3508207631207
 30
0.0
 11
0.2514489999999796
 21
598.3508207631207
 31
0.0
  0
LINE
  5
226C
330
A
100
AcDbEntity
  8
本体
  6
Continuous
 62
    84
100
AcDbLine
 10
-206.748551
 20
598.3508207631207
 30
0.0
 11
1.251448999999978
 21
598.3508207631207
 31
0.0
  0
LINE
  5
226D
330
A
100
AcDbEntity
  8
本体
  6
Continuous
 62
    84
100
AcDbLine
 10
-206.748551
 20
597.3508207631207
 30
0.0
 11
1.251448999999978
 21
597.3508207631207
 31
0.0
  0
LINE
  5
226E
330
A
100
AcDbEntity
  8
本体
  6
Continuous
 62
    84
100
AcDbLine
 10
-205.2485509999999
 20
636.6508207631209
 30
0.0
 11
-205.2485509999999
 21
601.8508207631207
 31
0.0
  0
LINE
  5
226F
330
A
100
AcDbEntity
  8
本体
  6
Continuous
 62
    84
100
AcDbLine
 10
-207.7485509999999
 20
641.3508207631207
 30
0.0
 11
-207.7485509999999
 21
598.3508207631207
 31
0.0
  0
LINE
  5
2270
330
A
100
AcDbEntity
  8
本体
  6
Continuous
 62
    84
100
AcDbLine
 10
-206.748551
 20
641.3508207631207
 30
0.0
 11
-206.748551
 21
598.3508207631207
 31
0.0
  0
LINE
  5
2271
330
A
100
AcDbEntity
  8
本体
  6
Continuous
 62
    84
100
AcDbLine
 10
-206.748551
 20
641.3508207631207
 30
0.0
 11
-206.748551
 21
599.3508207631207
 31
0.0
  0
LINE
  5
2272
330
A
100
AcDbEntity
  8
本体
  6
Continuous
 62
    84
100
AcDbLine
 10
-206.748551
 20
599.3508207631207
 30
0.0
 11
-205.7485509999999
 21
598.3508207631207
 31
0.0
  0
ARC
  5
2273
330
A
100
AcDbEntity
  8
本体
  6
Continuous
 62
    84
100
AcDbCircle
 10
-206.748551
 20
598.3508207631207
 30
0.0
 40
1.0
100
AcDbArc
 50
180.0
 51
270.0
  0
ARC
  5
2274
330
A
100
AcDbEntity
  8
本体
  6
Continuous
 62
    84
100
AcDbCircle
 10
-203.2485509999999
 20
601.8508207631207
 30
0.0
 40
2.0
100
AcDbArc
 50
180.0
 51
270.0
  0
ARC
  5
2275
330
A
100
AcDbEntity
  8
本体
  6
Continuous
 62
    84
100
AcDbCircle
 10
-208.4485509999999
 20
617.4758207631207
 30
0.0
 40
1.324999999999999
100
AcDbArc
 50
238.1091999999986
 51
301.890791000001
  0
ARC
  5
2276
330
A
100
AcDbEntity
  8
本体
  6
Continuous
 62
    84
100
AcDbCircle
 10
-208.4485509999999
 20
621.2258207631207
 30
0.0
 40
1.324999999999999
100
AcDbArc
 50
58.10919999999864
 51
121.890789999999
  0
ARC
  5
2277
330
A
100
AcDbEntity
  8
本体
  6
Continuous
 62
    84
100
AcDbCircle
 10
-201.9485509999999
 20
619.3508207631207
 30
0.0
 40
7.799999999999998
100
AcDbArc
 50
157.3801299999995
 51
202.6198599999994
  0
LINE
  5
2278
330
A
100
AcDbEntity
  8
本体
  6
Continuous
 62
    84
100
AcDbLine
 10
-207.7485509999999
 20
622.3508207631207
 30
0.0
 11
-207.7485509999999
 21
616.3508207631207
 31
0.0
  0
ARC
  5
2279
330
A
100
AcDbEntity
  8
本体
  6
Continuous
 62
    84
100
AcDbCircle
 10
-203.2485509999999
 20
636.6508207631209
 30
0.0
 40
2.0
100
AcDbArc
 50
89.99999999999998
 51
180.0
  0
LINE
  5
227A
330
A
100
AcDbEntity
  8
本体
  6
Continuous
 62
    84
100
AcDbLine
 10
-158.443551
 20
623.5648207631209
 30
0.0
 11
-160.943551
 21
625.0108207631207
 31
0.0
  0
LINE
  5
227B
330
A
100
AcDbEntity
  8
本体
  6
Continuous
 62
    84
100
AcDbLine
 10
-155.943551
 20
625.0078207631209
 30
0.0
 11
-158.443551
 21
623.5678207631207
 31
0.0
  0
LINE
  5
227C
330
A
100
AcDbEntity
  8
本体
  6
Continuous
 62
    84
100
AcDbLine
 10
-183.433551
 20
623.5648207631209
 30
0.0
 11
-185.933551
 21
625.0108207631207
 31
0.0
  0
LINE
  5
227D
330
A
100
AcDbEntity
  8
本体
  6
Continuous
 62
    84
100
AcDbLine
 10
-180.933551
 20
625.0078207631209
 30
0.0
 11
-183.433551
 21
623.5678207631207
 31
0.0
  0
CIRCLE
  5
227E
330
A
100
AcDbEntity
  8
本体
  6
Continuous
 62
    84
100
AcDbCircle
 10
-144.9485509999998
 20
626.2508207631205
 30
0.0
 40
2.5
  0
LINE
  5
227F
330
A
100
AcDbEntity
  8
本体
  6
Continuous
 62
    84
100
AcDbLine
 10
-153.4485509999998
 20
635.7508207631207
 30
0.0
 11
-153.4485509999998
 21
620.7508207631207
 31
0.0
  0
LINE
  5
2280
330
A
100
AcDbEntity
  8
本体
  6
Continuous
 62
    84
100
AcDbLine
 10
-160.6485509999999
 20
620.4508207631207
 30
0.0
 11
-156.8807229999999
 21
624.4680087631209
 31
0.0
  0
ARC
  5
2281
330
A
100
AcDbEntity
  8
本体
  6
Continuous
 62
    84
100
AcDbCircle
 10
-176.7885509999999
 20
624.8498207631207
 30
0.0
 40
1.8
100
AcDbArc
 50
171.0505400000009
 51
271.6556699999999
  0
ARC
  5
2282
330
A
100
AcDbEntity
  8
本体
  6
Continuous
 62
    84
100
AcDbCircle
 10
-165.098551
 20
624.8498207631207
 30
0.0
 40
1.8
100
AcDbArc
 50
270.0
 51
8.949449999999902
  0
ARC
  5
2283
330
A
100
AcDbEntity
  8
本体
  6
Continuous
 62
    84
100
AcDbCircle
 10
-165.098551
 20
624.8498207631207
 30
0.0
 40
2.299999999999998
100
AcDbArc
 50
270.0
 51
9.179789999998329
  0
ARC
  5
2284
330
A
100
AcDbEntity
  8
本体
  6
Continuous
 62
    84
100
AcDbCircle
 10
-176.7885509999999
 20
624.8498207631207
 30
0.0
 40
2.299999999999998
100
AcDbArc
 50
170.8202000000003
 51
270.0
  0
LINE
  5
2285
330
A
100
AcDbEntity
  8
本体
  6
Continuous
 62
    84
100
AcDbLine
 10
-181.2485509999999
 20
620.4508207631207
 30
0.0
 11
-185.041635
 21
624.4949347631209
 31
0.0
  0
MTEXT
  5
2286
330
A
100
AcDbEntity
  8
本体
  6
Continuous
 62
    84
100
AcDbMText
 10
-158.8243229999999
 20
608.0931347631207
 30
0.0
 40
2.5
 41
0.0
 71
     1
 72
     1
  1
\T0.763;\W0.953;\A1;CAMERA2
 11
-1.0
 21
0.0000000000000002
 31
0.0
 73
     1
 44
1.0
  0
LINE
  5
2287
330
A
100
AcDbEntity
  8
本体
  6
Continuous
 62
    84
100
AcDbLine
 10
-160.6485509999999
 20
620.4508207631207
 30
0.0
 11
-181.2485509999999
 21
620.4508207631207
 31
0.0
  0
LINE
  5
2288
330
A
100
AcDbEntity
  8
本体
  6
Continuous
 62
    84
100
AcDbLine
 10
-160.6485509999999
 20
620.4508207631207
 30
0.0
 11
-181.2485509999999
 21
620.4508207631207
 31
0.0
  0
LINE
  5
2289
330
A
100
AcDbEntity
  8
本体
  6
Continuous
 62
    84
100
AcDbLine
 10
-160.6485509999999
 20
620.4508207631207
 30
0.0
 11
-181.2485509999999
 21
620.4508207631207
 31
0.0
  0
MTEXT
  5
228A
330
A
100
AcDbEntity
  8
本体
  6
Continuous
 62
    84
100
AcDbMText
 10
-165.0385529999998
 20
618.4508207631209
 30
0.0
 40
2.5
 41
0.0
 71
     4
 72
     1
  1
\T0.763;\W0.953;\A1;RS-232C
 11
-1.0
 21
0.0000000000000002
 31
0.0
 73
     1
 44
1.0
  0
LINE
  5
228B
330
A
100
AcDbEntity
  8
本体
  6
Continuous
 62
    84
100
AcDbLine
 10
-165.098551
 20
622.5498207631207
 30
0.0
 11
-176.7885509999999
 21
622.5498207631207
 31
0.0
  0
LINE
  5
228C
330
A
100
AcDbEntity
  8
本体
  6
Continuous
 62
    84
100
AcDbLine
 10
-176.7365449999999
 20
623.0505707631207
 30
0.0
 11
-165.098551
 21
623.0505707631207
 31
0.0
  0
LINE
  5
228D
330
A
100
AcDbEntity
  8
本体
  6
Continuous
 62
    84
100
AcDbLine
 10
-158.4485509999999
 20
609.2508207631206
 30
0.0
 11
-153.4485509999998
 21
609.2508207631206
 31
0.0
  0
CIRCLE
  5
228E
330
A
100
AcDbEntity
  8
本体
  6
Continuous
 62
    84
100
AcDbCircle
 10
-151.9485509999999
 20
617.7508207631206
 30
0.0
 40
2.64
  0
LINE
  5
228F
330
A
100
AcDbEntity
  8
本体
  6
Continuous
 62
    84
100
AcDbLine
 10
-153.4485509999998
 20
614.7508207631207
 30
0.0
 11
-153.4485509999998
 21
601.7508207631207
 31
0.0
  0
CIRCLE
  5
2290
330
A
100
AcDbEntity
  8
本体
  6
Continuous
 62
    84
100
AcDbCircle
 10
-144.9485509999998
 20
609.2508207631206
 30
0.0
 40
2.5
  0
ARC
  5
2291
330
A
100
AcDbEntity
  8
本体
  6
Continuous
 62
    84
100
AcDbCircle
 10
-152.4485509999998
 20
601.7508207631207
 30
0.0
 40
1.0
100
AcDbArc
 50
180.0
 51
270.0
  0
LINE
  5
2292
330
A
100
AcDbEntity
  8
本体
  6
Continuous
 62
    84
100
AcDbLine
 10
-150.498551
 20
610.2408207631206
 30
0.0
 11
-150.498551
 21
608.2608207631206
 31
0.0
  0
LINE
  5
2293
330
A
100
AcDbEntity
  8
本体
  6
Continuous
 62
    84
100
AcDbLine
 10
-150.498551
 20
608.2608207631206
 30
0.0
 11
-149.594551
 21
608.2608207631206
 31
0.0
  0
LINE
  5
2294
330
A
100
AcDbEntity
  8
本体
  6
Continuous
 62
    84
100
AcDbLine
 10
-150.498551
 20
610.2408207631206
 30
0.0
 11
-149.594551
 21
610.2408207631206
 31
0.0
  0
LINE
  5
2295
330
A
100
AcDbEntity
  8
本体
  6
Continuous
 62
    84
100
AcDbLine
 10
-153.2745509999999
 20
616.9548207631208
 30
0.0
 11
-152.9035509999999
 21
617.3268207631207
 31
0.0
  0
ARC
  5
2296
330
A
100
AcDbEntity
  8
本体
  6
Continuous
 62
    84
100
AcDbCircle
 10
-151.9485509999999
 20
616.3728207631207
 30
0.0
 40
0.6
100
AcDbArc
 50
44.93235400000194
 51
135.0676399999975
  0
ARC
  5
2297
330
A
100
AcDbEntity
  8
本体
  6
Continuous
 62
    84
100
AcDbCircle
 10
-150.570551
 20
617.7508207631206
 30
0.0
 40
0.6
100
AcDbArc
 50
134.9323499999977
 51
225.0676399999998
  0
LINE
  5
2298
330
A
100
AcDbEntity
  8
本体
  6
Continuous
 62
    84
100
AcDbLine
 10
-150.993551
 20
617.3268207631207
 30
0.0
 11
-150.6225509999999
 21
616.9548207631208
 31
0.0
  0
LINE
  5
2299
330
A
100
AcDbEntity
  8
本体
  6
Continuous
 62
    84
100
AcDbLine
 10
-151.152551
 20
619.0768207631207
 30
0.0
 11
-150.6225509999999
 21
618.5468207631209
 31
0.0
  0
LINE
  5
229A
330
A
100
AcDbEntity
  8
本体
  6
Continuous
 62
    84
100
AcDbLine
 10
-150.993551
 20
618.1748207631207
 30
0.0
 11
-150.6225509999999
 21
618.5468207631209
 31
0.0
  0
CIRCLE
  5
229B
330
A
100
AcDbEntity
  8
本体
  6
Continuous
 62
    84
100
AcDbCircle
 10
-151.9475509999999
 20
619.1298207631207
 30
0.0
 40
0.3
  0
LINE
  5
229C
330
A
100
AcDbEntity
  8
本体
  6
Continuous
 62
    84
100
AcDbLine
 10
-151.5245509999999
 20
618.7058207631207
 30
0.0
 11
-151.152551
 21
619.0768207631207
 31
0.0
  0
ARC
  5
229D
330
A
100
AcDbEntity
  8
本体
  6
Continuous
 62
    84
100
AcDbCircle
 10
-151.9485509999999
 20
619.1288207631207
 30
0.0
 40
0.6
100
AcDbArc
 50
224.9323500000012
 51
315.0676399999973
  0
LINE
  5
229E
330
A
100
AcDbEntity
  8
本体
  6
Continuous
 62
    84
100
AcDbLine
 10
-152.7445509999999
 20
619.0768207631207
 30
0.0
 11
-152.372551
 21
618.7058207631207
 31
0.0
  0
LINE
  5
229F
330
A
100
AcDbEntity
  8
本体
  6
Continuous
 62
    84
100
AcDbLine
 10
-153.2745509999999
 20
618.5468207631209
 30
0.0
 11
-152.7445509999999
 21
619.0768207631207
 31
0.0
  0
ARC
  5
22A0
330
A
100
AcDbEntity
  8
本体
  6
Continuous
 62
    84
100
AcDbCircle
 10
-153.3265509999999
 20
617.7508207631206
 30
0.0
 40
0.6
100
AcDbArc
 50
314.9323499999976
 51
45.06764500000044
  0
LINE
  5
22A1
330
A
100
AcDbEntity
  8
本体
  6
Continuous
 62
    84
100
AcDbLine
 10
-153.2745509999999
 20
618.5468207631209
 30
0.0
 11
-152.9035509999999
 21
618.1748207631207
 31
0.0
  0
LINE
  5
22A2
330
A
100
AcDbEntity
  8
本体
  6
Continuous
 62
    84
100
AcDbLine
 10
-153.2745509999999
 20
616.9548207631208
 30
0.0
 11
-152.7445509999999
 21
616.4248207631207
 31
0.0
  0
LINE
  5
22A3
330
A
100
AcDbEntity
  8
本体
  6
Continuous
 62
    84
100
AcDbLine
 10
-152.7445509999999
 20
616.4248207631207
 30
0.0
 11
-152.372551
 21
616.7958207631206
 31
0.0
  0
LINE
  5
22A4
330
A
100
AcDbEntity
  8
本体
  6
Continuous
 62
    84
100
AcDbLine
 10
-151.5245509999999
 20
616.7958207631206
 30
0.0
 11
-151.152551
 21
616.4248207631207
 31
0.0
  0
LINE
  5
22A5
330
A
100
AcDbEntity
  8
本体
  6
Continuous
 62
    84
100
AcDbLine
 10
-151.152551
 20
616.4248207631207
 30
0.0
 11
-150.6225509999999
 21
616.9548207631208
 31
0.0
  0
CIRCLE
  5
22A6
330
A
100
AcDbEntity
  8
本体
  6
Continuous
 62
    84
100
AcDbCircle
 10
-166.8335509999999
 20
627.8708207631207
 30
0.0
 40
0.6
  0
LINE
  5
22A7
330
A
100
AcDbEntity
  8
本体
  6
Continuous
 62
    84
100
AcDbLine
 10
-160.6485509999999
 20
632.4508207631208
 30
0.0
 11
-181.2485509999999
 21
632.4508207631208
 31
0.0
  0
LINE
  5
22A8
330
A
100
AcDbEntity
  8
本体
  6
Continuous
 62
    84
100
AcDbLine
 10
-160.6485509999999
 20
632.4508207631208
 30
0.0
 11
-181.2485509999999
 21
632.4508207631208
 31
0.0
  0
LINE
  5
22A9
330
A
100
AcDbEntity
  8
本体
  6
Continuous
 62
    84
100
AcDbLine
 10
-160.6485509999999
 20
632.4508207631208
 30
0.0
 11
-181.2485509999999
 21
632.4508207631208
 31
0.0
  0
LINE
  5
22AA
330
A
100
AcDbEntity
  8
本体
  6
Continuous
 62
    84
100
AcDbLine
 10
-165.6175409999999
 20
629.8502307631207
 30
0.0
 11
-176.223551
 21
629.8502307631207
 31
0.0
  0
LINE
  5
22AB
330
A
100
AcDbEntity
  8
本体
  6
Continuous
 62
    84
100
AcDbLine
 10
-176.1775609999999
 20
630.3503607631207
 30
0.0
 11
-165.7095429999999
 21
630.3503607631207
 31
0.0
  0
LINE
  5
22AC
330
A
100
AcDbEntity
  8
本体
  6
Continuous
 62
    84
100
AcDbLine
 10
-183.433551
 20
629.3388207631206
 30
0.0
 11
-185.933551
 21
627.8978207631207
 31
0.0
  0
LINE
  5
22AD
330
A
100
AcDbEntity
  8
本体
  6
Continuous
 62
    84
100
AcDbLine
 10
-185.933551
 20
627.8978207631207
 30
0.0
 11
-185.933551
 21
625.0108207631207
 31
0.0
  0
LINE
  5
22AE
330
A
100
AcDbEntity
  8
本体
  6
Continuous
 62
    84
100
AcDbLine
 10
-180.933551
 20
627.8948207631207
 30
0.0
 11
-180.933551
 21
625.0078207631209
 31
0.0
  0
CIRCLE
  5
22AF
330
A
100
AcDbEntity
  8
本体
  6
Continuous
 62
    84
100
AcDbCircle
 10
-183.433551
 20
626.4508207631209
 30
0.0
 40
1.6
  0
LINE
  5
22B0
330
A
100
AcDbEntity
  8
本体
  6
Continuous
 62
    84
100
AcDbLine
 10
-180.933551
 20
627.8948207631207
 30
0.0
 11
-183.433551
 21
629.3408207631207
 31
0.0
  0
LINE
  5
22B1
330
A
100
AcDbEntity
  8
本体
  6
Continuous
 62
    84
100
AcDbLine
 10
-181.2485509999999
 20
632.4508207631208
 30
0.0
 11
-185.030985
 21
628.4180587631206
 31
0.0
  0
CIRCLE
  5
22B2
330
A
100
AcDbEntity
  8
本体
  6
Continuous
 62
    84
100
AcDbCircle
 10
-173.6835509999999
 20
625.0308207631206
 30
0.0
 40
0.6
  0
CIRCLE
  5
22B3
330
A
100
AcDbEntity
  8
本体
  6
Continuous
 62
    84
100
AcDbCircle
 10
-175.0535509999999
 20
627.8708207631207
 30
0.0
 40
0.6
  0
CIRCLE
  5
22B4
330
A
100
AcDbEntity
  8
本体
  6
Continuous
 62
    84
100
AcDbCircle
 10
-176.4235509999999
 20
625.0308207631206
 30
0.0
 40
0.6
  0
CIRCLE
  5
22B5
330
A
100
AcDbEntity
  8
本体
  6
Continuous
 62
    84
100
AcDbCircle
 10
-175.0535509999999
 20
627.8708207631207
 30
0.0
 40
0.6
  0
CIRCLE
  5
22B6
330
A
100
AcDbEntity
  8
本体
  6
Continuous
 62
    84
100
AcDbCircle
 10
-176.4235509999999
 20
625.0308207631206
 30
0.0
 40
0.6
  0
LINE
  5
22B7
330
A
100
AcDbEntity
  8
本体
  6
Continuous
 62
    84
100
AcDbLine
 10
-178.0005509999999
 20
628.3458207631207
 30
0.0
 11
-178.5675509999999
 21
625.1298207631207
 31
0.0
  0
LINE
  5
22B8
330
A
100
AcDbEntity
  8
本体
  6
Continuous
 62
    84
100
AcDbLine
 10
-178.4925509999999
 20
628.4328207631207
 30
0.0
 11
-179.0595509999999
 21
625.2168207631207
 31
0.0
  0
ARC
  5
22B9
330
A
100
AcDbEntity
  8
本体
  6
Continuous
 62
    84
100
AcDbCircle
 10
-176.223551
 20
628.0508207631207
 30
0.0
 40
1.8
100
AcDbArc
 50
89.99999999999998
 51
170.5690700000016
  0
ARC
  5
22BA
330
A
100
AcDbEntity
  8
本体
  6
Continuous
 62
    84
100
AcDbCircle
 10
-176.223551
 20
628.0508207631207
 30
0.0
 40
2.299999999999998
100
AcDbArc
 50
88.85423000000008
 51
170.4393800000006
  0
CIRCLE
  5
22BB
330
A
100
AcDbEntity
  8
本体
  6
Continuous
 62
    84
100
AcDbCircle
 10
-169.5735509999998
 20
627.8708207631207
 30
0.0
 40
0.6
  0
CIRCLE
  5
22BC
330
A
100
AcDbEntity
  8
本体
  6
Continuous
 62
    84
100
AcDbCircle
 10
-170.943551
 20
625.0308207631206
 30
0.0
 40
0.6
  0
CIRCLE
  5
22BD
330
A
100
AcDbEntity
  8
本体
  6
Continuous
 62
    84
100
AcDbCircle
 10
-172.3135509999999
 20
627.8708207631207
 30
0.0
 40
0.6
  0
CIRCLE
  5
22BE
330
A
100
AcDbEntity
  8
本体
  6
Continuous
 62
    84
100
AcDbCircle
 10
-168.203551
 20
625.0308207631206
 30
0.0
 40
0.6
  0
LINE
  5
22BF
330
A
100
AcDbEntity
  8
本体
  6
Continuous
 62
    84
100
AcDbLine
 10
-160.6485509999999
 20
632.4508207631208
 30
0.0
 11
-156.8873849999999
 21
628.4407327631209
 31
0.0
  0
LINE
  5
22C0
330
A
100
AcDbEntity
  8
本体
  6
Continuous
 62
    84
100
AcDbLine
 10
-158.443551
 20
629.3388207631206
 30
0.0
 11
-160.943551
 21
627.8978207631207
 31
0.0
  0
CIRCLE
  5
22C1
330
A
100
AcDbEntity
  8
本体
  6
Continuous
 62
    84
100
AcDbCircle
 10
-165.463551
 20
625.0308207631206
 30
0.0
 40
0.6
  0
LINE
  5
22C2
330
A
100
AcDbEntity
  8
本体
  6
Continuous
 62
    84
100
AcDbLine
 10
-163.319551
 20
625.1298207631207
 30
0.0
 11
-163.886551
 21
628.3458207631207
 31
0.0
  0
LINE
  5
22C3
330
A
100
AcDbEntity
  8
本体
  6
Continuous
 62
    84
100
AcDbLine
 10
-162.8275509999999
 20
625.2168207631207
 30
0.0
 11
-163.3945509999998
 21
628.4328207631207
 31
0.0
  0
LINE
  5
22C4
330
A
100
AcDbEntity
  8
本体
  6
Continuous
 62
    84
100
AcDbLine
 10
-160.943551
 20
627.8978207631207
 30
0.0
 11
-160.943551
 21
625.0108207631207
 31
0.0
  0
ARC
  5
22C5
330
A
100
AcDbEntity
  8
本体
  6
Continuous
 62
    84
100
AcDbCircle
 10
-165.6635509999999
 20
628.0508207631207
 30
0.0
 40
1.8
100
AcDbArc
 50
9.430929999998372
 51
88.53527999999972
  0
ARC
  5
22C6
330
A
100
AcDbEntity
  8
本体
  6
Continuous
 62
    84
100
AcDbCircle
 10
-165.6635509999999
 20
628.0508207631207
 30
0.0
 40
2.299999999999998
100
AcDbArc
 50
9.5606100000023
 51
91.14575999999924
  0
LINE
  5
22C7
330
A
100
AcDbEntity
  8
本体
  6
Continuous
 62
    84
100
AcDbLine
 10
-155.943551
 20
627.8948207631207
 30
0.0
 11
-155.943551
 21
625.0078207631209
 31
0.0
  0
CIRCLE
  5
22C8
330
A
100
AcDbEntity
  8
本体
  6
Continuous
 62
    84
100
AcDbCircle
 10
-158.443551
 20
626.4508207631209
 30
0.0
 40
1.6
  0
LINE
  5
22C9
330
A
100
AcDbEntity
  8
本体
  6
Continuous
 62
    84
100
AcDbLine
 10
-155.943551
 20
627.8948207631207
 30
0.0
 11
-158.443551
 21
629.3408207631207
 31
0.0
  0
ARC
  5
22CA
330
A
100
AcDbEntity
  8
本体
  6
Continuous
 62
    84
100
AcDbCircle
 10
-152.4485509999998
 20
635.7508207631207
 30
0.0
 40
1.0
100
AcDbArc
 50
89.99999999999998
 51
180.0
  0
LINE
  5
22CB
330
A
100
AcDbEntity
  8
本体
  6
Continuous
 62
    84
100
AcDbLine
 10
-150.498551
 20
627.2408207631207
 30
0.0
 11
-150.498551
 21
625.2608207631206
 31
0.0
  0
LINE
  5
22CC
330
A
100
AcDbEntity
  8
本体
  6
Continuous
 62
    84
100
AcDbLine
 10
-150.498551
 20
625.2608207631206
 30
0.0
 11
-149.594551
 21
625.2608207631206
 31
0.0
  0
LINE
  5
22CD
330
A
100
AcDbEntity
  8
本体
  6
Continuous
 62
    84
100
AcDbLine
 10
-150.498551
 20
627.2408207631207
 30
0.0
 11
-149.594551
 21
627.2408207631207
 31
0.0
  0
MTEXT
  5
22CE
330
A
100
AcDbEntity
  8
本体
  6
Continuous
 62
    84
100
AcDbMText
 10
-142.5272569999999
 20
633.8836127631207
 30
0.0
 40
2.0
 41
0.0
 71
     1
 72
     1
  1
\T0.757;\A1;OUT
 11
-1.0
 21
0.0000000000000002
 31
0.0
 73
     1
 44
1.0
  0
MTEXT
  5
22CF
330
A
100
AcDbEntity
  8
本体
  6
Continuous
 62
    84
100
AcDbMText
 10
-40.82230100000002
 20
610.9029487631207
 30
0.0
 40
2.25
 41
0.0
 71
     2
 72
     1
  1
\T0.750;\W1.204;\A1;SIGNAL\PGND
 11
-1.0
 21
0.0000000000000002
 31
0.0
 73
     1
 44
1.0
  0
LINE
  5
22D0
330
A
100
AcDbEntity
  8
本体
  6
Continuous
 62
    84
100
AcDbLine
 10
-41.14622499999994
 20
622.4318207631207
 30
0.0
 11
-41.88906700000006
 21
621.6889767631207
 31
0.0
  0
LINE
  5
22D1
330
A
100
AcDbEntity
  8
本体
  6
Continuous
 62
    84
100
AcDbLine
 10
-42.72222499999997
 20
632.3508207631207
 30
0.0
 11
-38.72222499999995
 21
632.3508207631207
 31
0.0
  0
ARC
  5
22D2
330
A
100
AcDbEntity
  8
本体
  6
Continuous
 62
    84
100
AcDbCircle
 10
-42.06622500000003
 20
623.3508207631207
 30
0.0
 40
0.6
100
AcDbArc
 50
315.0674859999988
 51
44.93250999999919
  0
LINE
  5
22D3
330
A
100
AcDbEntity
  8
本体
  6
Continuous
 62
    84
100
AcDbLine
 10
-41.88906700000006
 20
625.0126627631207
 30
0.0
 11
-41.14622499999994
 21
624.2698207631207
 31
0.0
  0
CIRCLE
  5
22D4
330
A
100
AcDbEntity
  8
本体
  6
Continuous
 62
    84
100
AcDbCircle
 10
-40.72222499999996
 20
623.3508207631207
 30
0.0
 40
4.0
  0
CIRCLE
  5
22D5
330
A
100
AcDbEntity
  8
本体
  6
Continuous
 62
    84
100
AcDbCircle
 10
-40.72222499999996
 20
623.3508207631207
 30
0.0
 40
3.5
  0
LINE
  5
22D6
330
A
100
AcDbEntity
  8
本体
  6
Continuous
 62
    84
100
AcDbLine
 10
-116.4485509999999
 20
600.7508207631206
 30
0.0
 11
-83.44855099999994
 21
600.7508207631206
 31
0.0
  0
CIRCLE
  5
22D7
330
A
100
AcDbEntity
  8
本体
  6
Continuous
 62
    84
100
AcDbCircle
 10
-90.94855099999994
 20
609.2508207631206
 30
0.0
 40
6.75
  0
CIRCLE
  5
22D8
330
A
100
AcDbEntity
  8
本体
  6
Continuous
 62
    84
100
AcDbCircle
 10
-90.94855099999994
 20
609.2508207631206
 30
0.0
 40
6.5
  0
CIRCLE
  5
22D9
330
A
100
AcDbEntity
  8
本体
  6
Continuous
 62
    84
100
AcDbCircle
 10
-90.94855099999994
 20
609.2508207631206
 30
0.0
 40
6.75
  0
CIRCLE
  5
22DA
330
A
100
AcDbEntity
  8
本体
  6
Continuous
 62
    84
100
AcDbCircle
 10
-90.94855099999994
 20
609.2508207631206
 30
0.0
 40
2.5
  0
CIRCLE
  5
22DB
330
A
100
AcDbEntity
  8
本体
  6
Continuous
 62
    84
100
AcDbCircle
 10
-90.94855099999994
 20
609.2508207631206
 30
0.0
 40
4.549999999999998
  0
CIRCLE
  5
22DC
330
A
100
AcDbEntity
  8
本体
  6
Continuous
 62
    84
100
AcDbCircle
 10
-90.94855099999994
 20
609.2508207631206
 30
0.0
 40
4.75
  0
HATCH
  5
22DD
330
A
100
AcDbEntity
  8
本体
  6
Continuous
 62
    84
100
AcDbHatch
 10
0.0
 20
0.0
 30
0.0
210
0.0
220
0.0
230
1.0
  2
SOLID
 70
     1
 71
     0
 91
        1
 92
        1
 93
        4
 72
     2
 10
-90.94855199952736
 20
626.2508198621667
 40
6.599999999999997
 50
402.4233419999998
 51
497.5766580000001
 73
     0
 72
     2
 10
-100.2496272061899
 20
617.7508198621667
 40
6.0
 50
317.576658
 51
402.4233419999998
 73
     0
 72
     2
 10
-90.94855199952736
 20
609.2508198621665
 40
6.599999999999997
 50
222.423342
 51
317.576658
 73
     0
 72
     2
 10
-81.64747679286461
 20
617.7508198621667
 40
6.0
 50
137.576658
 51
222.423342
 73
     0
 97
        0
 75
     0
 76
     1
 98
        1
 10
-160.922051
 20
623.8596147631207
  0
MTEXT
  5
22DE
330
A
100
AcDbEntity
  8
本体
  6
Continuous
 62
    84
100
AcDbMText
 10
-89.74664899999996
 20
634.9508207631209
 30
0.0
 40
2.0
 41
0.0
 71
     4
 72
     1
  1
\T0.750;\W1.091;\A1;IN
 11
-1.0
 21
0.0000000000000002
 31
0.0
 73
     1
 44
1.0
  0
LINE
  5
22DF
330
A
100
AcDbEntity
  8
本体
  6
Continuous
 62
    84
100
AcDbLine
 10
-116.4485509999999
 20
636.7508207631207
 30
0.0
 11
-83.44855099999994
 21
636.7508207631207
 31
0.0
  0
CIRCLE
  5
22E0
330
A
100
AcDbEntity
  8
本体
  6
Continuous
 62
    84
100
AcDbCircle
 10
-90.94855099999994
 20
626.2508207631205
 30
0.0
 40
2.5
  0
CIRCLE
  5
22E1
330
A
100
AcDbEntity
  8
本体
  6
Continuous
 62
    84
100
AcDbCircle
 10
-90.94855099999994
 20
626.2508207631205
 30
0.0
 40
6.75
  0
CIRCLE
  5
22E2
330
A
100
AcDbEntity
  8
本体
  6
Continuous
 62
    84
100
AcDbCircle
 10
-90.94855099999994
 20
626.2508207631205
 30
0.0
 40
4.75
  0
CIRCLE
  5
22E3
330
A
100
AcDbEntity
  8
本体
  6
Continuous
 62
    84
100
AcDbCircle
 10
-90.94855099999994
 20
626.2508207631205
 30
0.0
 40
4.549999999999998
  0
CIRCLE
  5
22E4
330
A
100
AcDbEntity
  8
本体
  6
Continuous
 62
    84
100
AcDbCircle
 10
-90.94855099999994
 20
626.2508207631205
 30
0.0
 40
6.5
  0
CIRCLE
  5
22E5
330
A
100
AcDbEntity
  8
本体
  6
Continuous
 62
    84
100
AcDbCircle
 10
-90.94855099999994
 20
626.2508207631205
 30
0.0
 40
6.75
  0
CIRCLE
  5
22E6
330
A
100
AcDbEntity
  8
本体
  6
Continuous
 62
    84
100
AcDbCircle
 10
-108.9485509999999
 20
626.2508207631205
 30
0.0
 40
2.5
  0
CIRCLE
  5
22E7
330
A
100
AcDbEntity
  8
本体
  6
Continuous
 62
    84
100
AcDbCircle
 10
-126.9485509999999
 20
626.2508207631205
 30
0.0
 40
2.5
  0
CIRCLE
  5
22E8
330
A
100
AcDbEntity
  8
本体
  6
Continuous
 62
    84
100
AcDbCircle
 10
-108.9485509999999
 20
626.2508207631205
 30
0.0
 40
6.75
  0
CIRCLE
  5
22E9
330
A
100
AcDbEntity
  8
本体
  6
Continuous
 62
    84
100
AcDbCircle
 10
-126.9485509999999
 20
626.2508207631205
 30
0.0
 40
6.75
  0
LINE
  5
22EA
330
A
100
AcDbEntity
  8
本体
  6
Continuous
 62
    84
100
AcDbLine
 10
-117.4485509999999
 20
635.7508207631207
 30
0.0
 11
-117.4485509999999
 21
601.7508207631207
 31
0.0
  0
LINE
  5
22EB
330
A
100
AcDbEntity
  8
本体
  6
Continuous
 62
    84
100
AcDbLine
 10
-118.4485509999999
 20
635.7508207631207
 30
0.0
 11
-118.4485509999999
 21
601.7508207631207
 31
0.0
  0
CIRCLE
  5
22EC
330
A
100
AcDbEntity
  8
本体
  6
Continuous
 62
    84
100
AcDbCircle
 10
-108.9485509999999
 20
626.2508207631205
 30
0.0
 40
4.75
  0
CIRCLE
  5
22ED
330
A
100
AcDbEntity
  8
本体
  6
Continuous
 62
    84
100
AcDbCircle
 10
-108.9485509999999
 20
626.2508207631205
 30
0.0
 40
4.549999999999998
  0
CIRCLE
  5
22EE
330
A
100
AcDbEntity
  8
本体
  6
Continuous
 62
    84
100
AcDbCircle
 10
-108.9485509999999
 20
626.2508207631205
 30
0.0
 40
6.5
  0
CIRCLE
  5
22EF
330
A
100
AcDbEntity
  8
本体
  6
Continuous
 62
    84
100
AcDbCircle
 10
-126.9485509999999
 20
626.2508207631205
 30
0.0
 40
4.75
  0
CIRCLE
  5
22F0
330
A
100
AcDbEntity
  8
本体
  6
Continuous
 62
    84
100
AcDbCircle
 10
-126.9485509999999
 20
626.2508207631205
 30
0.0
 40
4.549999999999998
  0
CIRCLE
  5
22F1
330
A
100
AcDbEntity
  8
本体
  6
Continuous
 62
    84
100
AcDbCircle
 10
-126.9485509999999
 20
626.2508207631205
 30
0.0
 40
6.5
  0
CIRCLE
  5
22F2
330
A
100
AcDbEntity
  8
本体
  6
Continuous
 62
    84
100
AcDbCircle
 10
-108.9485509999999
 20
626.2508207631205
 30
0.0
 40
6.75
  0
CIRCLE
  5
22F3
330
A
100
AcDbEntity
  8
本体
  6
Continuous
 62
    84
100
AcDbCircle
 10
-126.9485509999999
 20
626.2508207631205
 30
0.0
 40
6.75
  0
ARC
  5
22F4
330
A
100
AcDbEntity
  8
本体
  6
Continuous
 62
    84
100
AcDbCircle
 10
-116.4485509999999
 20
601.7508207631207
 30
0.0
 40
1.0
100
AcDbArc
 50
180.0
 51
270.0
  0
HATCH
  5
22F5
330
A
100
AcDbEntity
  8
本体
  6
Continuous
 62
    84
100
AcDbHatch
 10
0.0
 20
0.0
 30
0.0
210
0.0
220
0.0
230
1.0
  2
SOLID
 70
     1
 71
     0
 91
        1
 92
        1
 93
        4
 72
     2
 10
-126.9485519995273
 20
626.2508198621667
 40
6.599999999999997
 50
402.4233419999998
 51
497.5766580000001
 73
     0
 72
     2
 10
-136.2496272061898
 20
617.7508198621667
 40
6.0
 50
317.576658
 51
402.4233419999998
 73
     0
 72
     2
 10
-126.9485519995273
 20
609.2508198621665
 40
6.599999999999997
 50
222.423342
 51
317.576658
 73
     0
 72
     2
 10
-117.6474767928646
 20
617.7508198621667
 40
6.0
 50
137.576658
 51
222.423342
 73
     0
 97
        0
 75
     0
 76
     1
 98
        1
 10
-160.922051
 20
623.8596147631207
  0
CIRCLE
  5
22F6
330
A
100
AcDbEntity
  8
本体
  6
Continuous
 62
    84
100
AcDbCircle
 10
-126.9485509999999
 20
609.2508207631206
 30
0.0
 40
6.75
  0
CIRCLE
  5
22F7
330
A
100
AcDbEntity
  8
本体
  6
Continuous
 62
    84
100
AcDbCircle
 10
-126.9485509999999
 20
609.2508207631206
 30
0.0
 40
2.5
  0
CIRCLE
  5
22F8
330
A
100
AcDbEntity
  8
本体
  6
Continuous
 62
    84
100
AcDbCircle
 10
-126.9485509999999
 20
609.2508207631206
 30
0.0
 40
4.549999999999998
  0
CIRCLE
  5
22F9
330
A
100
AcDbEntity
  8
本体
  6
Continuous
 62
    84
100
AcDbCircle
 10
-126.9485509999999
 20
609.2508207631206
 30
0.0
 40
4.75
  0
CIRCLE
  5
22FA
330
A
100
AcDbEntity
  8
本体
  6
Continuous
 62
    84
100
AcDbCircle
 10
-126.9485509999999
 20
609.2508207631206
 30
0.0
 40
6.5
  0
CIRCLE
  5
22FB
330
A
100
AcDbEntity
  8
本体
  6
Continuous
 62
    84
100
AcDbCircle
 10
-126.9485509999999
 20
609.2508207631206
 30
0.0
 40
6.75
  0
LINE
  5
22FC
330
A
100
AcDbEntity
  8
本体
  6
Continuous
 62
    84
100
AcDbLine
 10
-140.3025509999999
 20
610.2398207631209
 30
0.0
 11
-139.398551
 21
610.2398207631209
 31
0.0
  0
LINE
  5
22FD
330
A
100
AcDbEntity
  8
本体
  6
Continuous
 62
    84
100
AcDbLine
 10
-139.398551
 20
610.2398207631209
 30
0.0
 11
-139.398551
 21
608.2608207631206
 31
0.0
  0
LINE
  5
22FE
330
A
100
AcDbEntity
  8
本体
  6
Continuous
 62
    84
100
AcDbLine
 10
-140.3025509999999
 20
608.2608207631206
 30
0.0
 11
-139.398551
 21
608.2608207631206
 31
0.0
  0
LINE
  5
22FF
330
A
100
AcDbEntity
  8
本体
  6
Continuous
 62
    84
100
AcDbLine
 10
-132.4985509999999
 20
610.2408207631206
 30
0.0
 11
-132.4985509999999
 21
608.2608207631206
 31
0.0
  0
LINE
  5
2300
330
A
100
AcDbEntity
  8
本体
  6
Continuous
 62
    84
100
AcDbLine
 10
-132.4985509999999
 20
608.2608207631206
 30
0.0
 11
-131.5945509999999
 21
608.2608207631206
 31
0.0
  0
LINE
  5
2301
330
A
100
AcDbEntity
  8
本体
  6
Continuous
 62
    84
100
AcDbLine
 10
-132.4985509999999
 20
610.2408207631206
 30
0.0
 11
-131.5945509999999
 21
610.2408207631206
 31
0.0
  0
ARC
  5
2302
330
A
100
AcDbEntity
  8
本体
  6
Continuous
 62
    84
100
AcDbCircle
 10
-119.4485509999999
 20
601.7508207631207
 30
0.0
 40
1.0
100
AcDbArc
 50
270.0
 51
0.0
  0
LINE
  5
2303
330
A
100
AcDbEntity
  8
本体
  6
Continuous
 62
    84
100
AcDbLine
 10
-122.302551
 20
610.2398207631209
 30
0.0
 11
-121.398551
 21
610.2398207631209
 31
0.0
  0
LINE
  5
2304
330
A
100
AcDbEntity
  8
本体
  6
Continuous
 62
    84
100
AcDbLine
 10
-121.398551
 20
610.2398207631209
 30
0.0
 11
-121.398551
 21
608.2608207631206
 31
0.0
  0
LINE
  5
2305
330
A
100
AcDbEntity
  8
本体
  6
Continuous
 62
    84
100
AcDbLine
 10
-122.302551
 20
608.2608207631206
 30
0.0
 11
-121.398551
 21
608.2608207631206
 31
0.0
  0
LINE
  5
2306
330
A
100
AcDbEntity
  8
本体
  6
Continuous
 62
    84
100
AcDbLine
 10
-104.3025509999999
 20
610.2398207631209
 30
0.0
 11
-103.3985509999999
 21
610.2398207631209
 31
0.0
  0
LINE
  5
2307
330
A
100
AcDbEntity
  8
本体
  6
Continuous
 62
    84
100
AcDbLine
 10
-104.3025509999999
 20
608.2608207631206
 30
0.0
 11
-103.3985509999999
 21
608.2608207631206
 31
0.0
  0
HATCH
  5
2308
330
A
100
AcDbEntity
  8
本体
  6
Continuous
 62
    84
100
AcDbHatch
 10
0.0
 20
0.0
 30
0.0
210
0.0
220
0.0
230
1.0
  2
SOLID
 70
     1
 71
     0
 91
        1
 92
        1
 93
        4
 72
     2
 10
-108.9485519995273
 20
626.2508198621667
 40
6.599999999999997
 50
402.4233419999998
 51
497.5766580000001
 73
     0
 72
     2
 10
-118.24962720619
 20
617.7508198621667
 40
6.0
 50
317.576658
 51
402.4233419999998
 73
     0
 72
     2
 10
-108.9485519995273
 20
609.2508198621665
 40
6.599999999999997
 50
222.423342
 51
317.576658
 73
     0
 72
     2
 10
-99.6474767928646
 20
617.7508198621667
 40
6.0
 50
137.576658
 51
222.423342
 73
     0
 97
        0
 75
     0
 76
     1
 98
        1
 10
-160.922051
 20
623.8596147631207
  0
CIRCLE
  5
2309
330
A
100
AcDbEntity
  8
本体
  6
Continuous
 62
    84
100
AcDbCircle
 10
-108.9485509999999
 20
609.2508207631206
 30
0.0
 40
6.75
  0
CIRCLE
  5
230A
330
A
100
AcDbEntity
  8
本体
  6
Continuous
 62
    84
100
AcDbCircle
 10
-108.9485509999999
 20
609.2508207631206
 30
0.0
 40
6.5
  0
CIRCLE
  5
230B
330
A
100
AcDbEntity
  8
本体
  6
Continuous
 62
    84
100
AcDbCircle
 10
-108.9485509999999
 20
609.2508207631206
 30
0.0
 40
6.75
  0
CIRCLE
  5
230C
330
A
100
AcDbEntity
  8
本体
  6
Continuous
 62
    84
100
AcDbCircle
 10
-108.9485509999999
 20
609.2508207631206
 30
0.0
 40
2.5
  0
CIRCLE
  5
230D
330
A
100
AcDbEntity
  8
本体
  6
Continuous
 62
    84
100
AcDbCircle
 10
-108.9485509999999
 20
609.2508207631206
 30
0.0
 40
4.549999999999998
  0
CIRCLE
  5
230E
330
A
100
AcDbEntity
  8
本体
  6
Continuous
 62
    84
100
AcDbCircle
 10
-108.9485509999999
 20
609.2508207631206
 30
0.0
 40
4.75
  0
LINE
  5
230F
330
A
100
AcDbEntity
  8
本体
  6
Continuous
 62
    84
100
AcDbLine
 10
-114.498551
 20
610.2408207631206
 30
0.0
 11
-114.498551
 21
608.2608207631206
 31
0.0
  0
LINE
  5
2310
330
A
100
AcDbEntity
  8
本体
  6
Continuous
 62
    84
100
AcDbLine
 10
-114.498551
 20
608.2608207631206
 30
0.0
 11
-113.5945509999999
 21
608.2608207631206
 31
0.0
  0
LINE
  5
2311
330
A
100
AcDbEntity
  8
本体
  6
Continuous
 62
    84
100
AcDbLine
 10
-114.498551
 20
610.2408207631206
 30
0.0
 11
-113.5945509999999
 21
610.2408207631206
 31
0.0
  0
LINE
  5
2312
330
A
100
AcDbEntity
  8
本体
  6
Continuous
 62
    84
100
AcDbLine
 10
-103.3985509999999
 20
610.2398207631209
 30
0.0
 11
-103.3985509999999
 21
608.2608207631206
 31
0.0
  0
LINE
  5
2313
330
A
100
AcDbEntity
  8
本体
  6
Continuous
 62
    84
100
AcDbLine
 10
-96.49855100000003
 20
610.2408207631206
 30
0.0
 11
-96.49855100000003
 21
608.2608207631206
 31
0.0
  0
LINE
  5
2314
330
A
100
AcDbEntity
  8
本体
  6
Continuous
 62
    84
100
AcDbLine
 10
-96.49855100000003
 20
608.2608207631206
 30
0.0
 11
-95.59455100000002
 21
608.2608207631206
 31
0.0
  0
LINE
  5
2315
330
A
100
AcDbEntity
  8
本体
  6
Continuous
 62
    84
100
AcDbLine
 10
-96.49855100000003
 20
610.2408207631206
 30
0.0
 11
-95.59455100000002
 21
610.2408207631206
 31
0.0
  0
CIRCLE
  5
2316
330
A
100
AcDbEntity
  8
本体
  6
Continuous
 62
    84
100
AcDbCircle
 10
-97.94755099999996
 20
619.1298207631207
 30
0.0
 40
0.3
  0
ARC
  5
2317
330
A
100
AcDbEntity
  8
本体
  6
Continuous
 62
    84
100
AcDbCircle
 10
-97.94855099999997
 20
619.1288207631207
 30
0.0
 40
0.6
100
AcDbArc
 50
224.9323500000012
 51
315.0676399999973
  0
ARC
  5
2318
330
A
100
AcDbEntity
  8
本体
  6
Continuous
 62
    84
100
AcDbCircle
 10
-97.94855099999997
 20
616.3728207631207
 30
0.0
 40
0.6
100
AcDbArc
 50
44.93235400000194
 51
135.0676399999975
  0
CIRCLE
  5
2319
330
A
100
AcDbEntity
  8
本体
  6
Continuous
 62
    84
100
AcDbCircle
 10
-97.94855099999997
 20
617.7508207631206
 30
0.0
 40
2.64
  0
LINE
  5
231A
330
A
100
AcDbEntity
  8
本体
  6
Continuous
 62
    84
100
AcDbLine
 10
-99.27455099999995
 20
618.5468207631209
 30
0.0
 11
-98.744551
 21
619.0768207631207
 31
0.0
  0
LINE
  5
231B
330
A
100
AcDbEntity
  8
本体
  6
Continuous
 62
    84
100
AcDbLine
 10
-99.27455099999995
 20
616.9548207631208
 30
0.0
 11
-98.903551
 21
617.3268207631207
 31
0.0
  0
LINE
  5
231C
330
A
100
AcDbEntity
  8
本体
  6
Continuous
 62
    84
100
AcDbLine
 10
-98.744551
 20
619.0768207631207
 30
0.0
 11
-98.37255100000005
 21
618.7058207631207
 31
0.0
  0
LINE
  5
231D
330
A
100
AcDbEntity
  8
本体
  6
Continuous
 62
    84
100
AcDbLine
 10
-99.27455099999995
 20
618.5468207631209
 30
0.0
 11
-98.903551
 21
618.1748207631207
 31
0.0
  0
ARC
  5
231E
330
A
100
AcDbEntity
  8
本体
  6
Continuous
 62
    84
100
AcDbCircle
 10
-99.32655099999999
 20
617.7508207631206
 30
0.0
 40
0.6
100
AcDbArc
 50
314.9323499999976
 51
45.06764500000044
  0
LINE
  5
231F
330
A
100
AcDbEntity
  8
本体
  6
Continuous
 62
    84
100
AcDbLine
 10
-99.27455099999995
 20
616.9548207631208
 30
0.0
 11
-98.744551
 21
616.4248207631207
 31
0.0
  0
LINE
  5
2320
330
A
100
AcDbEntity
  8
本体
  6
Continuous
 62
    84
100
AcDbLine
 10
-98.744551
 20
616.4248207631207
 30
0.0
 11
-98.37255100000005
 21
616.7958207631206
 31
0.0
  0
LINE
  5
2321
330
A
100
AcDbEntity
  8
本体
  6
Continuous
 62
    84
100
AcDbLine
 10
-97.15255100000002
 20
619.0768207631207
 30
0.0
 11
-96.62255100000004
 21
618.5468207631209
 31
0.0
  0
LINE
  5
2322
330
A
100
AcDbEntity
  8
本体
  6
Continuous
 62
    84
100
AcDbLine
 10
-97.52455099999998
 20
618.7058207631207
 30
0.0
 11
-97.15255100000002
 21
619.0768207631207
 31
0.0
  0
LINE
  5
2323
330
A
100
AcDbEntity
  8
本体
  6
Continuous
 62
    84
100
AcDbLine
 10
-96.99355100000005
 20
617.3268207631207
 30
0.0
 11
-96.62255100000004
 21
616.9548207631208
 31
0.0
  0
LINE
  5
2324
330
A
100
AcDbEntity
  8
本体
  6
Continuous
 62
    84
100
AcDbLine
 10
-96.99355100000005
 20
618.1748207631207
 30
0.0
 11
-96.62255100000004
 21
618.5468207631209
 31
0.0
  0
ARC
  5
2325
330
A
100
AcDbEntity
  8
本体
  6
Continuous
 62
    84
100
AcDbCircle
 10
-96.57055100000002
 20
617.7508207631206
 30
0.0
 40
0.6
100
AcDbArc
 50
134.9323499999977
 51
225.0676399999998
  0
LINE
  5
2326
330
A
100
AcDbEntity
  8
本体
  6
Continuous
 62
    84
100
AcDbLine
 10
-97.15255100000002
 20
616.4248207631207
 30
0.0
 11
-96.62255100000004
 21
616.9548207631208
 31
0.0
  0
LINE
  5
2327
330
A
100
AcDbEntity
  8
本体
  6
Continuous
 62
    84
100
AcDbLine
 10
-97.52455099999998
 20
616.7958207631206
 30
0.0
 11
-97.15255100000002
 21
616.4248207631207
 31
0.0
  0
ARC
  5
2328
330
A
100
AcDbEntity
  8
本体
  6
Continuous
 62
    84
100
AcDbCircle
 10
-116.4485509999999
 20
635.7508207631207
 30
0.0
 40
1.0
100
AcDbArc
 50
89.99999999999998
 51
180.0
  0
LINE
  5
2329
330
A
100
AcDbEntity
  8
本体
  6
Continuous
 62
    84
100
AcDbLine
 10
-140.3025509999999
 20
627.2398207631209
 30
0.0
 11
-139.398551
 21
627.2398207631209
 31
0.0
  0
LINE
  5
232A
330
A
100
AcDbEntity
  8
本体
  6
Continuous
 62
    84
100
AcDbLine
 10
-139.398551
 20
627.2398207631209
 30
0.0
 11
-139.398551
 21
625.2608207631206
 31
0.0
  0
LINE
  5
232B
330
A
100
AcDbEntity
  8
本体
  6
Continuous
 62
    84
100
AcDbLine
 10
-140.3025509999999
 20
625.2608207631206
 30
0.0
 11
-139.398551
 21
625.2608207631206
 31
0.0
  0
LINE
  5
232C
330
A
100
AcDbEntity
  8
本体
  6
Continuous
 62
    84
100
AcDbLine
 10
-132.4985509999999
 20
627.2408207631207
 30
0.0
 11
-132.4985509999999
 21
625.2608207631206
 31
0.0
  0
LINE
  5
232D
330
A
100
AcDbEntity
  8
本体
  6
Continuous
 62
    84
100
AcDbLine
 10
-132.4985509999999
 20
625.2608207631206
 30
0.0
 11
-131.5945509999999
 21
625.2608207631206
 31
0.0
  0
LINE
  5
232E
330
A
100
AcDbEntity
  8
本体
  6
Continuous
 62
    84
100
AcDbLine
 10
-132.4985509999999
 20
627.2408207631207
 30
0.0
 11
-131.5945509999999
 21
627.2408207631207
 31
0.0
  0
ARC
  5
232F
330
A
100
AcDbEntity
  8
本体
  6
Continuous
 62
    84
100
AcDbCircle
 10
-119.4485509999999
 20
635.7508207631207
 30
0.0
 40
1.0
100
AcDbArc
 50
0.0
 51
89.99999999999998
  0
MTEXT
  5
2330
330
A
100
AcDbEntity
  8
本体
  6
Continuous
 62
    84
100
AcDbMText
 10
-125.7466489999995
 20
634.9893767631207
 30
0.0
 40
2.0
 41
0.0
 71
     4
 72
     1
  1
\T0.750;\W1.091;\A1;IN
 11
-1.0
 21
0.0000000000000002
 31
0.0
 73
     1
 44
1.0
  0
LINE
  5
2331
330
A
100
AcDbEntity
  8
本体
  6
Continuous
 62
    84
100
AcDbLine
 10
-122.302551
 20
627.2398207631209
 30
0.0
 11
-121.398551
 21
627.2398207631209
 31
0.0
  0
LINE
  5
2332
330
A
100
AcDbEntity
  8
本体
  6
Continuous
 62
    84
100
AcDbLine
 10
-121.398551
 20
627.2398207631209
 30
0.0
 11
-121.398551
 21
625.2608207631206
 31
0.0
  0
LINE
  5
2333
330
A
100
AcDbEntity
  8
本体
  6
Continuous
 62
    84
100
AcDbLine
 10
-122.302551
 20
625.2608207631206
 30
0.0
 11
-121.398551
 21
625.2608207631206
 31
0.0
  0
LINE
  5
2334
330
A
100
AcDbEntity
  8
本体
  6
Continuous
 62
    84
100
AcDbLine
 10
-104.3025509999999
 20
627.2398207631209
 30
0.0
 11
-103.3985509999999
 21
627.2398207631209
 31
0.0
  0
LINE
  5
2335
330
A
100
AcDbEntity
  8
本体
  6
Continuous
 62
    84
100
AcDbLine
 10
-104.3025509999999
 20
625.2608207631206
 30
0.0
 11
-103.3985509999999
 21
625.2608207631206
 31
0.0
  0
MTEXT
  5
2336
330
A
100
AcDbEntity
  8
本体
  6
Continuous
 62
    84
100
AcDbMText
 10
-106.5272569999995
 20
633.8836127631207
 30
0.0
 40
2.0
 41
0.0
 71
     1
 72
     1
  1
\T0.757;\A1;OUT
 11
-1.0
 21
0.0000000000000002
 31
0.0
 73
     1
 44
1.0
  0
LINE
  5
2337
330
A
100
AcDbEntity
  8
本体
  6
Continuous
 62
    84
100
AcDbLine
 10
-114.498551
 20
627.2408207631207
 30
0.0
 11
-114.498551
 21
625.2608207631206
 31
0.0
  0
LINE
  5
2338
330
A
100
AcDbEntity
  8
本体
  6
Continuous
 62
    84
100
AcDbLine
 10
-114.498551
 20
625.2608207631206
 30
0.0
 11
-113.5945509999999
 21
625.2608207631206
 31
0.0
  0
LINE
  5
2339
330
A
100
AcDbEntity
  8
本体
  6
Continuous
 62
    84
100
AcDbLine
 10
-114.498551
 20
627.2408207631207
 30
0.0
 11
-113.5945509999999
 21
627.2408207631207
 31
0.0
  0
LINE
  5
233A
330
A
100
AcDbEntity
  8
本体
  6
Continuous
 62
    84
100
AcDbLine
 10
-103.3985509999999
 20
627.2398207631209
 30
0.0
 11
-103.3985509999999
 21
625.2608207631206
 31
0.0
  0
LINE
  5
233B
330
A
100
AcDbEntity
  8
本体
  6
Continuous
 62
    84
100
AcDbLine
 10
-96.49855100000003
 20
627.2408207631207
 30
0.0
 11
-96.49855100000003
 21
625.2608207631206
 31
0.0
  0
LINE
  5
233C
330
A
100
AcDbEntity
  8
本体
  6
Continuous
 62
    84
100
AcDbLine
 10
-96.49855100000003
 20
625.2608207631206
 30
0.0
 11
-95.59455100000002
 21
625.2608207631206
 31
0.0
  0
LINE
  5
233D
330
A
100
AcDbEntity
  8
本体
  6
Continuous
 62
    84
100
AcDbLine
 10
-96.49855100000003
 20
627.2408207631207
 30
0.0
 11
-95.59455100000002
 21
627.2408207631207
 31
0.0
  0
LINE
  5
233E
330
A
100
AcDbEntity
  8
本体
  6
Continuous
 62
    84
100
AcDbLine
 10
-42.38406699999996
 20
624.5176627631207
 30
0.0
 11
-41.64122500000007
 21
623.7748207631207
 31
0.0
  0
LINE
  5
233F
330
A
100
AcDbEntity
  8
本体
  6
Continuous
 62
    84
100
AcDbLine
 10
-82.44855099999995
 20
635.7508207631207
 30
0.0
 11
-82.44855099999995
 21
601.7508207631207
 31
0.0
  0
MTEXT
  5
2340
330
A
100
AcDbEntity
  8
本体
  6
Continuous
 62
    84
100
AcDbMText
 10
-63.54855300000007
 20
608.0008207631207
 30
0.0
 40
2.5
 41
0.0
 71
     1
 72
     1
  1
\T0.782;\W0.977;\A1;CAMERA1
 11
-1.0
 21
0.0000000000000002
 31
0.0
 73
     1
 44
1.0
  0
LINE
  5
2341
330
A
100
AcDbEntity
  8
本体
  6
Continuous
 62
    84
100
AcDbLine
 10
-82.44855099999995
 20
609.2508207631206
 30
0.0
 11
-77.44855099999995
 21
609.2508207631206
 31
0.0
  0
LINE
  5
2342
330
A
100
AcDbEntity
  8
本体
  6
Continuous
 62
    84
100
AcDbLine
 10
-86.30255099999997
 20
610.2398207631209
 30
0.0
 11
-85.398551
 21
610.2398207631209
 31
0.0
  0
LINE
  5
2343
330
A
100
AcDbEntity
  8
本体
  6
Continuous
 62
    84
100
AcDbLine
 10
-85.398551
 20
610.2398207631209
 30
0.0
 11
-85.398551
 21
608.2608207631206
 31
0.0
  0
LINE
  5
2344
330
A
100
AcDbEntity
  8
本体
  6
Continuous
 62
    84
100
AcDbLine
 10
-86.30255099999997
 20
608.2608207631206
 30
0.0
 11
-85.398551
 21
608.2608207631206
 31
0.0
  0
ARC
  5
2345
330
A
100
AcDbEntity
  8
本体
  6
Continuous
 62
    84
100
AcDbCircle
 10
-83.44855099999994
 20
601.7508207631207
 30
0.0
 40
1.0
100
AcDbArc
 50
270.0
 51
0.0
  0
LINE
  5
2346
330
A
100
AcDbEntity
  8
本体
  6
Continuous
 62
    84
100
AcDbLine
 10
-42.38406699999996
 20
622.1839767631209
 30
0.0
 11
-41.88906700000006
 21
621.6889767631207
 31
0.0
  0
CIRCLE
  5
2347
330
A
100
AcDbEntity
  8
本体
  6
Continuous
 62
    84
100
AcDbCircle
 10
-42.13622499999996
 20
623.3508207631207
 30
0.0
 40
0.3
  0
LINE
  5
2348
330
A
100
AcDbEntity
  8
本体
  6
Continuous
 62
    84
100
AcDbLine
 10
-41.64122500000007
 20
622.9268207631207
 30
0.0
 11
-42.38406699999996
 21
622.1839767631209
 31
0.0
  0
MTEXT
  5
2349
330
A
100
AcDbEntity
  8
本体
  6
Continuous
 62
    84
100
AcDbMText
 10
-55.70222499999999
 20
635.6508207631207
 30
0.0
 40
2.0
 41
0.0
 71
     1
 72
     1
  1
\T0.802;\A1;MADE IN JAPAN
 11
-1.0
 21
0.0000000000000002
 31
0.0
 73
     1
 44
1.0
  0
ARC
  5
234A
330
A
100
AcDbEntity
  8
本体
  6
Continuous
 62
    84
100
AcDbCircle
 10
-83.44855099999994
 20
635.7508207631207
 30
0.0
 40
1.0
100
AcDbArc
 50
0.0
 51
89.99999999999998
  0
LINE
  5
234B
330
A
100
AcDbEntity
  8
本体
  6
Continuous
 62
    84
100
AcDbLine
 10
-86.30255099999997
 20
627.2398207631209
 30
0.0
 11
-85.398551
 21
627.2398207631209
 31
0.0
  0
LINE
  5
234C
330
A
100
AcDbEntity
  8
本体
  6
Continuous
 62
    84
100
AcDbLine
 10
-85.398551
 20
627.2398207631209
 30
0.0
 11
-85.398551
 21
625.2608207631206
 31
0.0
  0
LINE
  5
234D
330
A
100
AcDbEntity
  8
本体
  6
Continuous
 62
    84
100
AcDbLine
 10
-86.30255099999997
 20
625.2608207631206
 30
0.0
 11
-85.398551
 21
625.2608207631206
 31
0.0
  0
LINE
  5
234E
330
A
100
AcDbEntity
  8
本体
  6
Continuous
 62
    84
100
AcDbLine
 10
-41.88906700000006
 20
625.0126627631207
 30
0.0
 11
-42.38406699999996
 21
624.5176627631207
 31
0.0
  0
LINE
  5
234F
330
A
100
AcDbEntity
  8
本体
  6
Continuous
 62
    84
100
AcDbLine
 10
-42.05222500000002
 20
634.8508207631207
 30
0.0
 11
-42.72222499999997
 21
632.3508207631207
 31
0.0
  0
LINE
  5
2350
330
A
100
AcDbEntity
  8
本体
  6
Continuous
 62
    84
100
AcDbLine
 10
-39.06038099999999
 20
624.5176627631207
 30
0.0
 11
-39.80322499999999
 21
623.7748207631207
 31
0.0
  0
LINE
  5
2351
330
A
100
AcDbEntity
  8
本体
  6
Continuous
 62
    84
100
AcDbLine
 10
-0.2485510000000204
 20
636.6508207631209
 30
0.0
 11
-0.2485510000000204
 21
601.8508207631207
 31
0.0
  0
LINE
  5
2353
330
A
100
AcDbEntity
  8
本体
  6
Continuous
 62
    84
100
AcDbLine
 10
1.251448999999978
 20
640.1508207631209
 30
0.0
 11
1.251448999999978
 21
598.3508207631207
 31
0.0
  0
LINE
  5
2354
330
A
100
AcDbEntity
  8
本体
  6
Continuous
 62
    84
100
AcDbLine
 10
1.251448999999978
 20
641.3508207631207
 30
0.0
 11
1.251448999999978
 21
599.3508207631207
 31
0.0
  0
LINE
  5
2355
330
A
100
AcDbEntity
  8
本体
  6
Continuous
 62
    84
100
AcDbLine
 10
-20.69855099999994
 20
621.5781847631206
 30
0.0
 11
-20.69855099999994
 21
627.1234547631209
 31
0.0
  0
LINE
  5
2356
330
A
100
AcDbEntity
  8
本体
  6
Continuous
 62
    84
100
AcDbLine
 10
-20.69855099999994
 20
621.5781847631206
 30
0.0
 11
-20.69855099999994
 21
627.1234547631209
 31
0.0
  0
LINE
  5
2357
330
A
100
AcDbEntity
  8
本体
  6
Continuous
 62
    84
100
AcDbLine
 10
-11.19855099999994
 20
621.5781847631206
 30
0.0
 11
-11.19855099999994
 21
627.1234547631209
 31
0.0
  0
LINE
  5
2358
330
A
100
AcDbEntity
  8
本体
  6
Continuous
 62
    84
100
AcDbLine
 10
-11.19855099999994
 20
621.5781847631206
 30
0.0
 11
-11.19855099999994
 21
627.1234547631209
 31
0.0
  0
MTEXT
  5
2359
330
A
100
AcDbEntity
  8
本体
  6
Continuous
 62
    84
100
AcDbMText
 10
-16.02222500000005
 20
611.1469227631207
 30
0.0
 40
2.25
 41
0.0
 71
     2
 72
     1
  1
\T0.750;\W1.241;\A1;AC100-120V\P～50/60Hz
 11
-1.0
 21
0.0000000000000002
 31
0.0
 73
     1
 44
1.0
  0
ARC
  5
235A
330
A
100
AcDbEntity
  8
本体
  6
Continuous
 62
    84
100
AcDbCircle
 10
-15.94855099999995
 20
624.3508207631207
 30
0.0
 40
5.5
100
AcDbArc
 50
210.2726410000016
 51
329.727358999998
  0
ARC
  5
235B
330
A
100
AcDbEntity
  8
本体
  6
Continuous
 62
    84
100
AcDbCircle
 10
-15.94855099999995
 20
624.3508207631207
 30
0.0
 40
5.5
100
AcDbArc
 50
210.2726410000016
 51
329.727358999998
  0
LINE
  5
235C
330
A
100
AcDbEntity
  8
本体
  6
Continuous
 62
    84
100
AcDbLine
 10
-40.298225
 20
622.4318207631207
 30
0.0
 11
-39.55538100000001
 21
621.6889767631207
 31
0.0
  0
ARC
  5
235D
330
A
100
AcDbEntity
  8
本体
  6
Continuous
 62
    84
100
AcDbCircle
 10
-40.72222499999996
 20
622.0068207631209
 30
0.0
 40
0.6
100
AcDbArc
 50
45.06748000000192
 51
134.9325100000003
  0
LINE
  5
235E
330
A
100
AcDbEntity
  8
本体
  6
Continuous
 62
    84
100
AcDbLine
 10
-39.06038099999999
 20
622.1839767631209
 30
0.0
 11
-39.55538100000001
 21
621.6889767631207
 31
0.0
  0
ARC
  5
235F
330
A
100
AcDbEntity
  8
本体
  6
Continuous
 62
    84
100
AcDbCircle
 10
-39.37822500000003
 20
623.3508207631207
 30
0.0
 40
0.6
100
AcDbArc
 50
135.0674799999995
 51
224.9325099999992
  0
LINE
  5
2360
330
A
100
AcDbEntity
  8
本体
  6
Continuous
 62
    84
100
AcDbLine
 10
-39.80322499999999
 20
622.9268207631207
 30
0.0
 11
-39.06038099999999
 21
622.1839767631209
 31
0.0
  0
LINE
  5
2361
330
A
100
AcDbEntity
  8
本体
  6
Continuous
 62
    84
100
AcDbLine
 10
1.251448999999978
 20
599.3508207631207
 30
0.0
 11
0.2514489999999796
 21
598.3508207631207
 31
0.0
  0
ARC
  5
2362
330
A
100
AcDbEntity
  8
本体
  6
Continuous
 62
    84
100
AcDbCircle
 10
1.251448999999978
 20
598.3508207631207
 30
0.0
 40
1.0
100
AcDbArc
 50
270.0
 51
0.0
  0
ARC
  5
2363
330
A
100
AcDbEntity
  8
本体
  6
Continuous
 62
    84
100
AcDbCircle
 10
-2.248551000000019
 20
601.8508207631207
 30
0.0
 40
2.0
100
AcDbArc
 50
270.0
 51
0.0
  0
ARC
  5
2368
330
A
100
AcDbEntity
  8
本体
  6
Continuous
 62
    84
100
AcDbCircle
 10
-15.94855099999995
 20
624.3508187631207
 30
0.0
 40
5.5
100
AcDbArc
 50
30.27264100000171
 51
149.7273589999981
  0
ARC
  5
2369
330
A
100
AcDbEntity
  8
本体
  6
Continuous
 62
    84
100
AcDbCircle
 10
-40.72222499999996
 20
624.6948207631207
 30
0.0
 40
0.6
100
AcDbArc
 50
225.0674800000019
 51
314.9325130000011
  0
LINE
  5
236A
330
A
100
AcDbEntity
  8
本体
  6
Continuous
 62
    84
100
AcDbLine
 10
-39.55538100000001
 20
625.0126627631207
 30
0.0
 11
-40.298225
 21
624.2698207631207
 31
0.0
  0
LINE
  5
236B
330
A
100
AcDbEntity
  8
本体
  6
Continuous
 62
    84
100
AcDbLine
 10
-39.55538100000001
 20
625.0126627631207
 30
0.0
 11
-39.06038099999999
 21
624.5176627631207
 31
0.0
  0
LINE
  5
236C
330
A
100
AcDbEntity
  8
本体
  6
Continuous
 62
    84
100
AcDbLine
 10
-38.05222500000002
 20
634.8508207631207
 30
0.0
 11
-38.72222499999995
 21
632.3508207631207
 31
0.0
  0
LINE
  5
236D
330
A
100
AcDbEntity
  8
本体
  6
Continuous
 62
    84
100
AcDbLine
 10
-40.05222500000002
 20
634.8508207631207
 30
0.0
 11
-40.72222499999996
 21
632.3508207631207
 31
0.0
  0
LINE
  5
236E
330
A
100
AcDbEntity
  8
本体
  6
Continuous
 62
    84
100
AcDbLine
 10
-40.72222499999996
 20
632.3508207631207
 30
0.0
 11
-40.72222499999996
 21
627.8508207631207
 31
0.0
  0
ARC
  5
236F
330
A
100
AcDbEntity
  8
本体
  6
Continuous
 62
    84
100
AcDbCircle
 10
-2.248551000000019
 20
636.6508207631209
 30
0.0
 40
2.0
100
AcDbArc
 50
0.0
 51
89.99999999999998
  0
SPLINE
  5
2371
330
A
100
AcDbEntity
  8
本体
  6
Continuous
 62
    84
100
AcDbSpline
210
0.0
220
0.0
230
1.0
 70
     8
 71
     3
 72
    13
 73
     9
 74
     7
 42
0.0000000001
 43
0.0000000001
 44
0.000001
 12
-0.7930986738278535
 22
-0.6090931731455378
 32
0.0
 13
-0.5819426908718715
 23
-0.813229798114165
 33
0.0
 40
0.0
 40
0.0
 40
0.0
 40
0.0
 40
1.975341128390697
 40
3.802034394030883
 40
6.007531397646111
 40
8.112862450055374
 40
10.29817921766075
 40
12.82269205303884
 40
12.82269205303884
 40
12.82269205303884
 40
12.82269205303884
 10
-10.06670346885221
 20
520.5460713835471
 30
0.0
 10
-10.5889169452803
 20
520.1450157849015
 30
0.0
 10
-11.62031876897581
 20
519.4257864651214
 30
0.0
 10
-13.78036370932011
 20
518.972800845127
 30
0.0
 10
-15.36441600943664
 20
520.4316648626856
 30
0.0
 10
-17.13846253993878
 20
522.0352134579156
 30
0.0
 10
-19.50638001392433
 20
520.8455965738566
 30
0.0
 10
-20.47669878611913
 20
519.6653222391553
 30
0.0
 10
-20.96640605030597
 20
518.9809858846716
 30
0.0
 11
-10.06670346885221
 21
520.5460713835471
 31
0.0
 11
-11.75124381039177
 21
519.5144228611143
 31
0.0
 11
-13.56019788598485
 21
519.2604654380422
 31
0.0
 11
-15.40719249838184
 21
520.4657997543962
 31
0.0
 11
-17.19343207980273
 21
521.5801457310183
 31
0.0
 11
-19.24512301287052
 21
520.827700099849
 31
0.0
 11
-20.96640605030597
 21
518.9809858846716
 31
0.0
  0
LINE
  5
2372
330
A
100
AcDbEntity
  8
本体
  6
Continuous
 62
    84
100
AcDbLine
 10
-16.25055099999997
 20
269.2657594576343
 30
0.0
 11
-45.25055099999997
 21
269.2657594576343
 31
0.0
  0
LINE
  5
2373
330
A
100
AcDbEntity
  8
本体
  6
Continuous
 62
    84
100
AcDbLine
 10
-39.25055099999996
 20
267.2657594576343
 30
0.0
 11
-16.25055099999997
 21
267.2657594576343
 31
0.0
  0
LINE
  5
2374
330
A
100
AcDbEntity
  8
本体
  6
Continuous
 62
    84
100
AcDbLine
 10
-206.748551
 20
269.2657594576345
 30
0.0
 11
1.251448999999978
 21
269.2657594576343
 31
0.0
  0
ARC
  5
2375
330
A
100
AcDbEntity
  8
本体
  6
Continuous
 62
    84
100
AcDbCircle
 10
-20.21855099999993
 20
496.0677594576345
 30
0.0
 40
2.0
100
AcDbArc
 50
89.99999999999998
 51
180.0
  0
LINE
  5
2376
330
A
100
AcDbEntity
  8
本体
  6
Continuous
 62
    84
100
AcDbLine
 10
-207.7485509999999
 20
494.2657594576345
 30
0.0
 11
2.251448999999979
 21
494.2657594576344
 31
0.0
  0
LINE
  5
2377
330
A
100
AcDbEntity
  8
本体
  6
Continuous
 62
    84
100
AcDbLine
 10
-207.7485509999999
 20
270.2657594576343
 30
0.0
 11
-207.7485509999999
 21
494.2657594576345
 31
0.0
  0
LINE
  5
2378
330
A
100
AcDbEntity
  8
本体
  6
Continuous
 62
    84
100
AcDbLine
 10
-124.3510509999999
 20
267.7657594576343
 30
0.0
 11
-114.751051
 21
267.7657594576343
 31
0.0
  0
ARC
  5
2379
330
A
100
AcDbEntity
  8
本体
  6
Continuous
 62
    84
100
AcDbCircle
 10
-206.748551
 20
270.2657594576343
 30
0.0
 40
1.0
100
AcDbArc
 50
180.0
 51
270.0
  0
LINE
  5
237A
330
A
100
AcDbEntity
  8
本体
  6
Continuous
 62
    84
100
AcDbLine
 10
-180.3510509999999
 20
267.7657594576345
 30
0.0
 11
-170.7510509999998
 21
267.7657594576343
 31
0.0
  0
LINE
  5
237B
330
A
100
AcDbEntity
  8
本体
  6
Continuous
 62
    84
100
AcDbLine
 10
-180.5510509999999
 20
267.9657594576345
 30
0.0
 11
-180.5510509999999
 21
269.2657594576345
 31
0.0
  0
LINE
  5
237C
330
A
100
AcDbEntity
  8
本体
  6
Continuous
 62
    84
100
AcDbLine
 10
-180.5510509999999
 20
267.9657594576345
 30
0.0
 11
-180.3510509999999
 21
267.7657594576345
 31
0.0
  0
LINE
  5
237D
330
A
100
AcDbEntity
  8
本体
  6
Continuous
 62
    84
100
AcDbLine
 10
-170.551051
 20
267.9657594576344
 30
0.0
 11
-170.551051
 21
269.2657594576343
 31
0.0
  0
LINE
  5
237E
330
A
100
AcDbEntity
  8
本体
  6
Continuous
 62
    84
100
AcDbLine
 10
-170.551051
 20
267.9657594576344
 30
0.0
 11
-170.7510509999998
 21
267.7657594576343
 31
0.0
  0
LINE
  5
237F
330
A
100
AcDbEntity
  8
本体
  6
Continuous
 62
    84
100
AcDbLine
 10
-152.3510509999999
 20
267.7657594576343
 30
0.0
 11
-142.7510509999999
 21
267.7657594576343
 31
0.0
  0
LINE
  5
2380
330
A
100
AcDbEntity
  8
本体
  6
Continuous
 62
    84
100
AcDbLine
 10
-166.3510509999998
 20
267.7657594576343
 30
0.0
 11
-156.7510509999999
 21
267.7657594576343
 31
0.0
  0
LINE
  5
2381
330
A
100
AcDbEntity
  8
本体
  6
Continuous
 62
    84
100
AcDbLine
 10
-166.551051
 20
267.9657594576344
 30
0.0
 11
-166.551051
 21
269.2657594576343
 31
0.0
  0
LINE
  5
2382
330
A
100
AcDbEntity
  8
本体
  6
Continuous
 62
    84
100
AcDbLine
 10
-166.3510509999998
 20
267.7657594576343
 30
0.0
 11
-166.551051
 21
267.9657594576344
 31
0.0
  0
LINE
  5
2383
330
A
100
AcDbEntity
  8
本体
  6
Continuous
 62
    84
100
AcDbLine
 10
-156.551051
 20
267.9657594576344
 30
0.0
 11
-156.551051
 21
269.2657594576343
 31
0.0
  0
LINE
  5
2384
330
A
100
AcDbEntity
  8
本体
  6
Continuous
 62
    84
100
AcDbLine
 10
-152.551051
 20
267.9657594576344
 30
0.0
 11
-152.551051
 21
269.2657594576343
 31
0.0
  0
LINE
  5
2385
330
A
100
AcDbEntity
  8
本体
  6
Continuous
 62
    84
100
AcDbLine
 10
-156.7510509999999
 20
267.7657594576343
 30
0.0
 11
-156.551051
 21
267.9657594576344
 31
0.0
  0
LINE
  5
2386
330
A
100
AcDbEntity
  8
本体
  6
Continuous
 62
    84
100
AcDbLine
 10
-152.3510509999999
 20
267.7657594576343
 30
0.0
 11
-152.551051
 21
267.9657594576344
 31
0.0
  0
LINE
  5
2387
330
A
100
AcDbEntity
  8
本体
  6
Continuous
 62
    84
100
AcDbLine
 10
-138.3510509999995
 20
267.7657594576343
 30
0.0
 11
-128.7510509999999
 21
267.7657594576343
 31
0.0
  0
LINE
  5
2388
330
A
100
AcDbEntity
  8
本体
  6
Continuous
 62
    84
100
AcDbLine
 10
-142.551051
 20
267.9657594576344
 30
0.0
 11
-142.551051
 21
269.2657594576343
 31
0.0
  0
LINE
  5
2389
330
A
100
AcDbEntity
  8
本体
  6
Continuous
 62
    84
100
AcDbLine
 10
-142.7510509999999
 20
267.7657594576343
 30
0.0
 11
-142.551051
 21
267.9657594576344
 31
0.0
  0
LINE
  5
238A
330
A
100
AcDbEntity
  8
本体
  6
Continuous
 62
    84
100
AcDbLine
 10
-138.551051
 20
267.9657594576344
 30
0.0
 11
-138.551051
 21
269.2657594576343
 31
0.0
  0
LINE
  5
238B
330
A
100
AcDbEntity
  8
本体
  6
Continuous
 62
    84
100
AcDbLine
 10
-138.3510509999995
 20
267.7657594576343
 30
0.0
 11
-138.551051
 21
267.9657594576344
 31
0.0
  0
LINE
  5
238C
330
A
100
AcDbEntity
  8
本体
  6
Continuous
 62
    84
100
AcDbLine
 10
-128.5510509999999
 20
267.9657594576344
 30
0.0
 11
-128.5510509999999
 21
269.2657594576343
 31
0.0
  0
LINE
  5
238D
330
A
100
AcDbEntity
  8
本体
  6
Continuous
 62
    84
100
AcDbLine
 10
-128.7510509999999
 20
267.7657594576343
 30
0.0
 11
-128.5510509999999
 21
267.9657594576344
 31
0.0
  0
LINE
  5
238E
330
A
100
AcDbEntity
  8
本体
  6
Continuous
 62
    84
100
AcDbLine
 10
-124.551051
 20
267.9657594576344
 30
0.0
 11
-124.551051
 21
269.2657594576343
 31
0.0
  0
LINE
  5
238F
330
A
100
AcDbEntity
  8
本体
  6
Continuous
 62
    84
100
AcDbLine
 10
-124.3510509999999
 20
267.7657594576343
 30
0.0
 11
-124.551051
 21
267.9657594576344
 31
0.0
  0
LINE
  5
2390
330
A
100
AcDbEntity
  8
本体
  6
Continuous
 62
    84
100
AcDbLine
 10
-110.3510509999999
 20
267.7657594576343
 30
0.0
 11
-100.751051
 21
267.7657594576343
 31
0.0
  0
LINE
  5
2391
330
A
100
AcDbEntity
  8
本体
  6
Continuous
 62
    84
100
AcDbLine
 10
-114.551051
 20
267.9657594576344
 30
0.0
 11
-114.551051
 21
269.2657594576343
 31
0.0
  0
LINE
  5
2392
330
A
100
AcDbEntity
  8
本体
  6
Continuous
 62
    84
100
AcDbLine
 10
-114.751051
 20
267.7657594576343
 30
0.0
 11
-114.551051
 21
267.9657594576344
 31
0.0
  0
LINE
  5
2393
330
A
100
AcDbEntity
  8
本体
  6
Continuous
 62
    84
100
AcDbLine
 10
-110.551051
 20
267.9657594576344
 30
0.0
 11
-110.551051
 21
269.2657594576343
 31
0.0
  0
LINE
  5
2394
330
A
100
AcDbEntity
  8
本体
  6
Continuous
 62
    84
100
AcDbLine
 10
-110.3510509999999
 20
267.7657594576343
 30
0.0
 11
-110.551051
 21
267.9657594576344
 31
0.0
  0
LINE
  5
2395
330
A
100
AcDbEntity
  8
本体
  6
Continuous
 62
    84
100
AcDbLine
 10
-100.551051
 20
267.9657594576344
 30
0.0
 11
-100.551051
 21
269.2657594576343
 31
0.0
  0
LINE
  5
2396
330
A
100
AcDbEntity
  8
本体
  6
Continuous
 62
    84
100
AcDbLine
 10
-100.751051
 20
267.7657594576343
 30
0.0
 11
-100.551051
 21
267.9657594576344
 31
0.0
  0
LINE
  5
2397
330
A
100
AcDbEntity
  8
本体
  6
Continuous
 62
    84
100
AcDbLine
 10
-45.25055099999997
 20
263.7657594576343
 30
0.0
 11
-35.25055099999995
 21
263.7657594576343
 31
0.0
  0
LINE
  5
2398
330
A
100
AcDbEntity
  8
本体
  6
Continuous
 62
    84
100
AcDbLine
 10
-45.25055099999997
 20
264.7657594576343
 30
0.0
 11
-39.25055099999996
 21
264.7657594576343
 31
0.0
  0
LINE
  5
2399
330
A
100
AcDbEntity
  8
本体
  6
Continuous
 62
    84
100
AcDbLine
 10
-39.25055099999996
 20
269.2657594576343
 30
0.0
 11
-39.25055099999996
 21
264.7657594576343
 31
0.0
  0
LINE
  5
239A
330
A
100
AcDbEntity
  8
本体
  6
Continuous
 62
    84
100
AcDbLine
 10
-45.25055099999997
 20
269.2657594576343
 30
0.0
 11
-45.25055099999997
 21
263.7657594576343
 31
0.0
  0
LINE
  5
239B
330
A
100
AcDbEntity
  8
本体
  6
Continuous
 62
    84
100
AcDbLine
 10
-35.25055099999995
 20
267.2657594576343
 30
0.0
 11
-35.25055099999995
 21
263.7657594576343
 31
0.0
  0
LINE
  5
239C
330
A
100
AcDbEntity
  8
本体
  6
Continuous
 62
    84
100
AcDbLine
 10
-32.65055100000003
 20
263.9657594576344
 30
0.0
 11
-22.85055100000011
 21
263.9657594576344
 31
0.0
  0
LINE
  5
239D
330
A
100
AcDbEntity
  8
本体
  6
Continuous
 62
    84
100
AcDbLine
 10
-32.65055100000003
 20
267.2657594576343
 30
0.0
 11
-32.65055100000003
 21
263.9657594576344
 31
0.0
  0
LINE
  5
239E
330
A
100
AcDbEntity
  8
本体
  6
Continuous
 62
    84
100
AcDbLine
 10
-22.85055100000011
 20
267.2657594576343
 30
0.0
 11
-22.85055100000011
 21
263.9657594576344
 31
0.0
  0
LINE
  5
239F
330
A
100
AcDbEntity
  8
本体
  6
Continuous
 62
    84
100
AcDbLine
 10
-163.411051
 20
499.4457594576345
 30
0.0
 11
-179.7010509999999
 21
499.4457594576346
 31
0.0
  0
LINE
  5
23A0
330
A
100
AcDbEntity
  8
本体
  6
Continuous
 62
    84
100
AcDbLine
 10
-207.7485509999999
 20
476.2657594576346
 30
0.0
 11
-207.7485509999999
 21
482.2657594576346
 31
0.0
  0
ARC
  5
23A1
330
A
100
AcDbEntity
  8
本体
  6
Continuous
 62
    84
100
AcDbCircle
 10
-201.9485509999999
 20
479.2657594576346
 30
0.0
 40
7.799999999999998
100
AcDbArc
 50
157.3801359999998
 51
202.6198700000004
  0
ARC
  5
23A2
330
A
100
AcDbEntity
  8
本体
  6
Continuous
 62
    84
100
AcDbCircle
 10
-208.4485509999999
 20
477.3907594576346
 30
0.0
 40
1.324999999999999
100
AcDbArc
 50
238.1092100000008
 51
301.8908000000013
  0
ARC
  5
23A3
330
A
100
AcDbEntity
  8
本体
  6
Continuous
 62
    84
100
AcDbCircle
 10
-208.4485509999999
 20
481.1407594576346
 30
0.0
 40
1.324999999999999
100
AcDbArc
 50
58.10921000000081
 51
121.8907920000007
  0
LINE
  5
23A4
330
A
100
AcDbEntity
  8
本体
  6
Continuous
 62
    84
100
AcDbLine
 10
-185.9285510000001
 20
496.7657594576341
 30
0.0
 11
-180.928551
 21
496.7657594576341
 31
0.0
  0
LINE
  5
23A5
330
A
100
AcDbEntity
  8
本体
  6
Continuous
 62
    84
100
AcDbLine
 10
-185.9285510000001
 20
495.2657594576344
 30
0.0
 11
-180.928551
 21
495.2657594576344
 31
0.0
  0
LINE
  5
23A6
330
A
100
AcDbEntity
  8
本体
  6
Continuous
 62
    84
100
AcDbLine
 10
-185.9285510000001
 20
499.2657594576344
 30
0.0
 11
-180.928551
 21
499.2657594576344
 31
0.0
  0
LINE
  5
23A7
330
A
100
AcDbEntity
  8
本体
  6
Continuous
 62
    84
100
AcDbLine
 10
-185.9285510000001
 20
499.2657594576344
 30
0.0
 11
-185.9285510000001
 21
494.2657594576345
 31
0.0
  0
LINE
  5
23A8
330
A
100
AcDbEntity
  8
本体
  6
Continuous
 62
    84
100
AcDbLine
 10
-183.4285509999999
 20
499.2657594576344
 30
0.0
 11
-183.4285509999999
 21
494.2657594576345
 31
0.0
  0
LINE
  5
23A9
330
A
100
AcDbEntity
  8
本体
  6
Continuous
 62
    84
100
AcDbLine
 10
-179.7010509999999
 20
494.2657594576345
 30
0.0
 11
-179.7010509999999
 21
499.4457594576346
 31
0.0
  0
LINE
  5
23AA
330
A
100
AcDbEntity
  8
本体
  6
Continuous
 62
    84
100
AcDbLine
 10
-180.928551
 20
499.2657594576344
 30
0.0
 11
-180.928551
 21
494.2657594576345
 31
0.0
  0
LINE
  5
23AB
330
A
100
AcDbEntity
  8
本体
  6
Continuous
 62
    84
100
AcDbLine
 10
-149.696051
 20
505.7677594576346
 30
0.0
 11
-149.696051
 21
494.7677594576346
 31
0.0
  0
LINE
  5
23AC
330
A
100
AcDbEntity
  8
本体
  6
Continuous
 62
    84
100
AcDbLine
 10
-140.196051
 20
505.7677594576346
 30
0.0
 11
-140.196051
 21
494.7677594576346
 31
0.0
  0
LINE
  5
23AD
330
A
100
AcDbEntity
  8
本体
  6
Continuous
 62
    84
100
AcDbLine
 10
-122.1960509999999
 20
505.7677594576346
 30
0.0
 11
-122.1960509999999
 21
494.7677594576346
 31
0.0
  0
LINE
  5
23AE
330
A
100
AcDbEntity
  8
本体
  6
Continuous
 62
    84
100
AcDbLine
 10
-131.696051
 20
505.7677594576346
 30
0.0
 11
-131.696051
 21
494.7677594576346
 31
0.0
  0
LINE
  5
23AF
330
A
100
AcDbEntity
  8
本体
  6
Continuous
 62
    84
100
AcDbLine
 10
-138.446051
 20
494.7677594576346
 30
0.0
 11
-151.446051
 21
494.7677594576346
 31
0.0
  0
LINE
  5
23B0
330
A
100
AcDbEntity
  8
本体
  6
Continuous
 62
    84
100
AcDbLine
 10
-157.1835509999999
 20
495.2657594576344
 30
0.0
 11
-162.1835509999999
 21
495.2657594576344
 31
0.0
  0
LINE
  5
23B1
330
A
100
AcDbEntity
  8
本体
  6
Continuous
 62
    84
100
AcDbLine
 10
-157.1835509999999
 20
496.7657594576341
 30
0.0
 11
-162.1835509999999
 21
496.7657594576341
 31
0.0
  0
LINE
  5
23B2
330
A
100
AcDbEntity
  8
本体
  6
Continuous
 62
    84
100
AcDbLine
 10
-157.1835509999999
 20
499.2657594576344
 30
0.0
 11
-162.1835509999999
 21
499.2657594576344
 31
0.0
  0
LINE
  5
23B3
330
A
100
AcDbEntity
  8
本体
  6
Continuous
 62
    84
100
AcDbLine
 10
-163.411051
 20
494.2657594576344
 30
0.0
 11
-163.411051
 21
499.4457594576345
 31
0.0
  0
LINE
  5
23B4
330
A
100
AcDbEntity
  8
本体
  6
Continuous
 62
    84
100
AcDbLine
 10
-162.1835509999999
 20
499.2657594576344
 30
0.0
 11
-162.1835509999999
 21
494.2657594576344
 31
0.0
  0
LINE
  5
23B5
330
A
100
AcDbEntity
  8
本体
  6
Continuous
 62
    84
100
AcDbLine
 10
-159.6835509999999
 20
499.2657594576344
 30
0.0
 11
-159.6835509999999
 21
494.2657594576344
 31
0.0
  0
LINE
  5
23B6
330
A
100
AcDbEntity
  8
本体
  6
Continuous
 62
    84
100
AcDbLine
 10
-157.1835509999999
 20
499.2657594576344
 30
0.0
 11
-157.1835509999999
 21
494.2657594576344
 31
0.0
  0
LINE
  5
23B7
330
A
100
AcDbEntity
  8
本体
  6
Continuous
 62
    84
100
AcDbLine
 10
-151.446051
 20
494.7677594576346
 30
0.0
 11
-151.446051
 21
494.2657594576344
 31
0.0
  0
LINE
  5
23B8
330
A
100
AcDbEntity
  8
本体
  6
Continuous
 62
    84
100
AcDbLine
 10
-150.4960509999999
 20
502.5277594576346
 30
0.0
 11
-150.4960509999999
 21
500.5277594576345
 31
0.0
  0
LINE
  5
23B9
330
A
100
AcDbEntity
  8
本体
  6
Continuous
 62
    84
100
AcDbLine
 10
-149.696051
 20
500.5277594576345
 30
0.0
 11
-150.4960509999999
 21
500.5277594576345
 31
0.0
  0
LINE
  5
23BA
330
A
100
AcDbEntity
  8
本体
  6
Continuous
 62
    84
100
AcDbLine
 10
-149.696051
 20
502.5277594576346
 30
0.0
 11
-150.4960509999999
 21
502.5277594576346
 31
0.0
  0
LINE
  5
23BB
330
A
100
AcDbEntity
  8
本体
  6
Continuous
 62
    84
100
AcDbLine
 10
-120.446051
 20
494.7677594576346
 30
0.0
 11
-133.446051
 21
494.7677594576346
 31
0.0
  0
LINE
  5
23BC
330
A
100
AcDbEntity
  8
本体
  6
Continuous
 62
    84
100
AcDbLine
 10
-139.396051
 20
500.5277594576345
 30
0.0
 11
-140.196051
 21
500.5277594576345
 31
0.0
  0
LINE
  5
23BD
330
A
100
AcDbEntity
  8
本体
  6
Continuous
 62
    84
100
AcDbLine
 10
-139.396051
 20
502.5277594576346
 30
0.0
 11
-140.196051
 21
502.5277594576346
 31
0.0
  0
LINE
  5
23BE
330
A
100
AcDbEntity
  8
本体
  6
Continuous
 62
    84
100
AcDbLine
 10
-139.396051
 20
502.5277594576346
 30
0.0
 11
-139.396051
 21
500.5277594576345
 31
0.0
  0
LINE
  5
23BF
330
A
100
AcDbEntity
  8
本体
  6
Continuous
 62
    84
100
AcDbLine
 10
-138.446051
 20
494.7677594576346
 30
0.0
 11
-138.446051
 21
494.2657594576344
 31
0.0
  0
LINE
  5
23C0
330
A
100
AcDbEntity
  8
本体
  6
Continuous
 62
    84
100
AcDbLine
 10
-133.446051
 20
494.7677594576346
 30
0.0
 11
-133.446051
 21
494.2657594576344
 31
0.0
  0
LINE
  5
23C1
330
A
100
AcDbEntity
  8
本体
  6
Continuous
 62
    84
100
AcDbLine
 10
-131.696051
 20
500.5277594576345
 30
0.0
 11
-132.4960509999999
 21
500.5277594576345
 31
0.0
  0
LINE
  5
23C2
330
A
100
AcDbEntity
  8
本体
  6
Continuous
 62
    84
100
AcDbLine
 10
-131.696051
 20
502.5277594576346
 30
0.0
 11
-132.4960509999999
 21
502.5277594576346
 31
0.0
  0
LINE
  5
23C3
330
A
100
AcDbEntity
  8
本体
  6
Continuous
 62
    84
100
AcDbLine
 10
-132.4960509999999
 20
502.5277594576346
 30
0.0
 11
-132.4960509999999
 21
500.5277594576345
 31
0.0
  0
LINE
  5
23C4
330
A
100
AcDbEntity
  8
本体
  6
Continuous
 62
    84
100
AcDbLine
 10
-120.446051
 20
494.7677594576346
 30
0.0
 11
-120.446051
 21
494.2657594576344
 31
0.0
  0
LINE
  5
23C5
330
A
100
AcDbEntity
  8
本体
  6
Continuous
 62
    84
100
AcDbLine
 10
-121.3960509999999
 20
500.5277594576345
 30
0.0
 11
-122.1960509999999
 21
500.5277594576345
 31
0.0
  0
LINE
  5
23C6
330
A
100
AcDbEntity
  8
本体
  6
Continuous
 62
    84
100
AcDbLine
 10
-121.3960509999999
 20
502.5277594576346
 30
0.0
 11
-122.1960509999999
 21
502.5277594576346
 31
0.0
  0
LINE
  5
23C7
330
A
100
AcDbEntity
  8
本体
  6
Continuous
 62
    84
100
AcDbLine
 10
-121.3960509999999
 20
502.5277594576346
 30
0.0
 11
-121.3960509999999
 21
500.5277594576345
 31
0.0
  0
LINE
  5
23C8
330
A
100
AcDbEntity
  8
本体
  6
Continuous
 62
    84
100
AcDbLine
 10
-140.196051
 20
505.7677594576346
 30
0.0
 11
-149.696051
 21
505.7677594576346
 31
0.0
  0
LINE
  5
23C9
330
A
100
AcDbEntity
  8
本体
  6
Continuous
 62
    84
100
AcDbLine
 10
-122.1960509999999
 20
505.7677594576346
 30
0.0
 11
-131.696051
 21
505.7677594576346
 31
0.0
  0
LINE
  5
23CA
330
A
100
AcDbEntity
  8
本体
  6
Continuous
 62
    84
100
AcDbLine
 10
-86.19605100000002
 20
505.7677594576346
 30
0.0
 11
-86.19605100000002
 21
494.7677594576346
 31
0.0
  0
LINE
  5
23CB
330
A
100
AcDbEntity
  8
本体
  6
Continuous
 62
    84
100
AcDbLine
 10
-95.69605100000002
 20
505.7677594576346
 30
0.0
 11
-95.69605100000002
 21
494.7677594576346
 31
0.0
  0
LINE
  5
23CC
330
A
100
AcDbEntity
  8
本体
  6
Continuous
 62
    84
100
AcDbLine
 10
-104.196051
 20
505.7677594576346
 30
0.0
 11
-104.196051
 21
494.7677594576346
 31
0.0
  0
LINE
  5
23CD
330
A
100
AcDbEntity
  8
本体
  6
Continuous
 62
    84
100
AcDbLine
 10
-113.6960509999999
 20
505.7677594576346
 30
0.0
 11
-113.6960509999999
 21
494.7677594576346
 31
0.0
  0
LINE
  5
23CE
330
A
100
AcDbEntity
  8
本体
  6
Continuous
 62
    84
100
AcDbLine
 10
-84.44605100000002
 20
494.7677594576346
 30
0.0
 11
-97.44605100000001
 21
494.7677594576346
 31
0.0
  0
LINE
  5
23CF
330
A
100
AcDbEntity
  8
本体
  6
Continuous
 62
    84
100
AcDbLine
 10
-102.4460509999999
 20
494.7677594576346
 30
0.0
 11
-115.446051
 21
494.7677594576346
 31
0.0
  0
LINE
  5
23D0
330
A
100
AcDbEntity
  8
本体
  6
Continuous
 62
    84
100
AcDbLine
 10
-113.6960509999999
 20
500.5277594576345
 30
0.0
 11
-114.4960509999999
 21
500.5277594576345
 31
0.0
  0
LINE
  5
23D1
330
A
100
AcDbEntity
  8
本体
  6
Continuous
 62
    84
100
AcDbLine
 10
-113.6960509999999
 20
502.5277594576346
 30
0.0
 11
-114.4960509999999
 21
502.5277594576346
 31
0.0
  0
LINE
  5
23D2
330
A
100
AcDbEntity
  8
本体
  6
Continuous
 62
    84
100
AcDbLine
 10
-115.446051
 20
494.7677594576346
 30
0.0
 11
-115.446051
 21
494.2657594576344
 31
0.0
  0
LINE
  5
23D3
330
A
100
AcDbEntity
  8
本体
  6
Continuous
 62
    84
100
AcDbLine
 10
-114.4960509999999
 20
502.5277594576346
 30
0.0
 11
-114.4960509999999
 21
500.5277594576345
 31
0.0
  0
LINE
  5
23D4
330
A
100
AcDbEntity
  8
本体
  6
Continuous
 62
    84
100
AcDbLine
 10
-101.864551
 20
489.6467594576343
 30
0.0
 11
-101.369551
 21
489.1517594576343
 31
0.0
  0
LINE
  5
23D5
330
A
100
AcDbEntity
  8
本体
  6
Continuous
 62
    84
100
AcDbLine
 10
-101.369551
 20
487.3837594576346
 30
0.0
 11
-101.864551
 21
486.8887594576341
 31
0.0
  0
LINE
  5
23D6
330
A
100
AcDbEntity
  8
本体
  6
Continuous
 62
    84
100
AcDbLine
 10
-101.369551
 20
489.1517594576343
 30
0.0
 11
-101.8295509999999
 21
488.6917594576345
 31
0.0
  0
LINE
  5
23D7
330
A
100
AcDbEntity
  8
本体
  6
Continuous
 62
    84
100
AcDbLine
 10
-101.8295509999999
 20
487.843759457634
 30
0.0
 11
-101.369551
 21
487.3837594576346
 31
0.0
  0
CIRCLE
  5
23D8
330
A
100
AcDbEntity
  8
本体
  6
Continuous
 62
    84
100
AcDbCircle
 10
-102.7485509999999
 20
488.2677594576346
 30
0.0
 40
3.049999999999998
  0
CIRCLE
  5
23D9
330
A
100
AcDbEntity
  8
本体
  6
Continuous
 62
    84
100
AcDbCircle
 10
-102.7485509999999
 20
488.2677594576346
 30
0.0
 40
2.85
  0
LINE
  5
23DA
330
A
100
AcDbEntity
  8
本体
  6
Continuous
 62
    84
100
AcDbLine
 10
-104.1275509999999
 20
487.3837594576346
 30
0.0
 11
-103.632551
 21
486.8887594576341
 31
0.0
  0
LINE
  5
23DB
330
A
100
AcDbEntity
  8
本体
  6
Continuous
 62
    84
100
AcDbLine
 10
-103.632551
 20
489.6467594576343
 30
0.0
 11
-104.1275509999999
 21
489.1517594576343
 31
0.0
  0
CIRCLE
  5
23DC
330
A
100
AcDbEntity
  8
本体
  6
Continuous
 62
    84
100
AcDbCircle
 10
-104.1625509999998
 20
488.2677594576346
 30
0.0
 40
0.3
  0
LINE
  5
23DD
330
A
100
AcDbEntity
  8
本体
  6
Continuous
 62
    84
100
AcDbLine
 10
-104.1275509999999
 20
489.1517594576343
 30
0.0
 11
-103.667551
 21
488.6917594576345
 31
0.0
  0
LINE
  5
23DE
330
A
100
AcDbEntity
  8
本体
  6
Continuous
 62
    84
100
AcDbLine
 10
-102.3245509999999
 20
487.3487594576345
 30
0.0
 11
-101.864551
 21
486.8887594576341
 31
0.0
  0
LINE
  5
23DF
330
A
100
AcDbEntity
  8
本体
  6
Continuous
 62
    84
100
AcDbLine
 10
-101.864551
 20
489.6467594576343
 30
0.0
 11
-102.3245509999999
 21
489.1867594576345
 31
0.0
  0
LINE
  5
23E0
330
A
100
AcDbEntity
  8
本体
  6
Continuous
 62
    84
100
AcDbLine
 10
-103.667551
 20
487.843759457634
 30
0.0
 11
-104.1275509999999
 21
487.3837594576346
 31
0.0
  0
LINE
  5
23E1
330
A
100
AcDbEntity
  8
本体
  6
Continuous
 62
    84
100
AcDbLine
 10
-103.632551
 20
489.6467594576343
 30
0.0
 11
-103.172551
 21
489.1867594576345
 31
0.0
  0
LINE
  5
23E2
330
A
100
AcDbEntity
  8
本体
  6
Continuous
 62
    84
100
AcDbLine
 10
-103.172551
 20
487.3487594576345
 30
0.0
 11
-103.632551
 21
486.8887594576341
 31
0.0
  0
ARC
  5
23E3
330
A
100
AcDbEntity
  8
本体
  6
Continuous
 62
    84
100
AcDbCircle
 10
-104.0925509999997
 20
488.2677594576346
 30
0.0
 40
0.6
100
AcDbArc
 50
315.0674859999988
 51
44.93250999999919
  0
ARC
  5
23E4
330
A
100
AcDbEntity
  8
本体
  6
Continuous
 62
    84
100
AcDbCircle
 10
-102.7485509999999
 20
489.6117594576343
 30
0.0
 40
0.6
100
AcDbArc
 50
225.0674800000019
 51
314.9325130000011
  0
ARC
  5
23E5
330
A
100
AcDbEntity
  8
本体
  6
Continuous
 62
    84
100
AcDbCircle
 10
-101.4045509999996
 20
488.2677594576346
 30
0.0
 40
0.6
100
AcDbArc
 50
135.0674799999995
 51
224.9325099999992
  0
ARC
  5
23E6
330
A
100
AcDbEntity
  8
本体
  6
Continuous
 62
    84
100
AcDbCircle
 10
-102.7485509999999
 20
486.9237594576346
 30
0.0
 40
0.6
100
AcDbArc
 50
45.06748000000192
 51
134.9325100000003
  0
LINE
  5
23E7
330
A
100
AcDbEntity
  8
本体
  6
Continuous
 62
    84
100
AcDbLine
 10
-102.4460509999999
 20
494.7677594576346
 30
0.0
 11
-102.4460509999999
 21
494.2657594576344
 31
0.0
  0
LINE
  5
23E8
330
A
100
AcDbEntity
  8
本体
  6
Continuous
 62
    84
100
AcDbLine
 10
-103.3960509999999
 20
500.5277594576345
 30
0.0
 11
-104.196051
 21
500.5277594576345
 31
0.0
  0
LINE
  5
23E9
330
A
100
AcDbEntity
  8
本体
  6
Continuous
 62
    84
100
AcDbLine
 10
-103.3960509999999
 20
502.5277594576346
 30
0.0
 11
-104.196051
 21
502.5277594576346
 31
0.0
  0
LINE
  5
23EA
330
A
100
AcDbEntity
  8
本体
  6
Continuous
 62
    84
100
AcDbLine
 10
-103.3960509999999
 20
502.5277594576346
 30
0.0
 11
-103.3960509999999
 21
500.5277594576345
 31
0.0
  0
LINE
  5
23EB
330
A
100
AcDbEntity
  8
本体
  6
Continuous
 62
    84
100
AcDbLine
 10
-97.44605100000001
 20
494.7677594576346
 30
0.0
 11
-97.44605100000001
 21
494.2657594576344
 31
0.0
  0
LINE
  5
23EC
330
A
100
AcDbEntity
  8
本体
  6
Continuous
 62
    84
100
AcDbLine
 10
-96.49605099999996
 20
502.5277594576346
 30
0.0
 11
-96.49605099999996
 21
500.5277594576345
 31
0.0
  0
LINE
  5
23ED
330
A
100
AcDbEntity
  8
本体
  6
Continuous
 62
    84
100
AcDbLine
 10
-95.69605100000002
 20
502.5277594576346
 30
0.0
 11
-96.49605099999996
 21
502.5277594576346
 31
0.0
  0
LINE
  5
23EE
330
A
100
AcDbEntity
  8
本体
  6
Continuous
 62
    84
100
AcDbLine
 10
-95.69605100000002
 20
500.5277594576345
 30
0.0
 11
-96.49605099999996
 21
500.5277594576345
 31
0.0
  0
LINE
  5
23EF
330
A
100
AcDbEntity
  8
本体
  6
Continuous
 62
    84
100
AcDbLine
 10
-84.44605100000002
 20
494.7677594576346
 30
0.0
 11
-84.44605100000002
 21
494.2657594576344
 31
0.0
  0
LINE
  5
23F0
330
A
100
AcDbEntity
  8
本体
  6
Continuous
 62
    84
100
AcDbLine
 10
-85.39605100000008
 20
502.5277594576346
 30
0.0
 11
-85.39605100000008
 21
500.5277594576345
 31
0.0
  0
LINE
  5
23F1
330
A
100
AcDbEntity
  8
本体
  6
Continuous
 62
    84
100
AcDbLine
 10
-85.39605100000008
 20
502.5277594576346
 30
0.0
 11
-86.19605100000002
 21
502.5277594576346
 31
0.0
  0
LINE
  5
23F2
330
A
100
AcDbEntity
  8
本体
  6
Continuous
 62
    84
100
AcDbLine
 10
-85.39605100000008
 20
500.5277594576345
 30
0.0
 11
-86.19605100000002
 21
500.5277594576345
 31
0.0
  0
LINE
  5
23F3
330
A
100
AcDbEntity
  8
本体
  6
Continuous
 62
    84
100
AcDbLine
 10
-86.19605100000002
 20
505.7677594576346
 30
0.0
 11
-95.69605100000002
 21
505.7677594576346
 31
0.0
  0
LINE
  5
23F4
330
A
100
AcDbEntity
  8
本体
  6
Continuous
 62
    84
100
AcDbLine
 10
-104.196051
 20
505.7677594576346
 30
0.0
 11
-113.6960509999999
 21
505.7677594576346
 31
0.0
  0
LINE
  5
23F5
330
A
100
AcDbEntity
  8
本体
  6
Continuous
 62
    84
100
AcDbLine
 10
-38.37792100000001
 20
494.3260114576341
 30
0.0
 11
-40.02573100000006
 21
494.4842654576346
 31
0.0
  0
LINE
  5
23F6
330
A
100
AcDbEntity
  8
本体
  6
Continuous
 62
    84
100
AcDbLine
 10
-36.81855099999995
 20
496.0007714576345
 30
0.0
 11
-44.61855100000001
 21
496.0007714576345
 31
0.0
  0
LINE
  5
23F7
330
A
100
AcDbEntity
  8
本体
  6
Continuous
 62
    84
100
AcDbLine
 10
-36.81855099999995
 20
495.5007714576345
 30
0.0
 11
-44.61855100000001
 21
495.5007714576345
 31
0.0
  0
LINE
  5
23F8
330
A
100
AcDbEntity
  8
本体
  6
Continuous
 62
    84
100
AcDbLine
 10
-39.02203700000006
 20
495.2065754576342
 30
0.0
 11
-40.46574299999996
 21
495.0269814576345
 31
0.0
  0
LINE
  5
23F9
330
A
100
AcDbEntity
  8
本体
  6
Continuous
 62
    84
100
AcDbLine
 10
-38.886257
 20
495.4425174576345
 30
0.0
 11
-40.71855300000003
 21
495.1729394576346
 31
0.0
  0
LINE
  5
23FA
330
A
100
AcDbEntity
  8
本体
  6
Continuous
 62
    84
100
AcDbLine
 10
-36.97855100000003
 20
496.0007714576345
 30
0.0
 11
-44.45855100000005
 21
496.0007714576345
 31
0.0
  0
ARC
  5
23FB
330
A
100
AcDbEntity
  8
本体
  6
Continuous
 62
    84
100
AcDbCircle
 10
-40.71855099999992
 20
489.4977714576346
 30
0.0
 40
9.163
100
AcDbArc
 50
65.91053000000101
 51
114.0894600000009
  0
LINE
  5
23FC
330
A
100
AcDbEntity
  8
本体
  6
Continuous
 62
    84
100
AcDbLine
 10
-41.53637300000002
 20
495.0677594576347
 30
0.0
 11
-40.15073100000006
 21
494.2677594576347
 31
0.0
  0
LINE
  5
23FD
330
A
100
AcDbEntity
  8
本体
  6
Continuous
 62
    84
100
AcDbLine
 10
-39.90073100000006
 20
494.7007714576343
 30
0.0
 11
-40.15073100000006
 21
494.2677594576347
 31
0.0
  0
LINE
  5
23FE
330
A
100
AcDbEntity
  8
本体
  6
Continuous
 62
    84
100
AcDbLine
 10
-44.91855300000007
 20
494.3842654576342
 30
0.0
 11
-42.75352899999997
 21
494.5131354576345
 31
0.0
  0
ARC
  5
23FF
330
A
100
AcDbEntity
  8
本体
  6
Continuous
 62
    84
100
AcDbCircle
 10
-43.24396299999989
 20
494.8842654576345
 30
0.0
 40
1.74764
100
AcDbArc
 50
163.375387999998
 51
196.6246120000017
  0
LINE
  5
2400
330
A
100
AcDbEntity
  8
本体
  6
Continuous
 62
    84
100
AcDbLine
 10
-44.91855300000007
 20
494.3842654576342
 30
0.0
 11
-44.91855300000007
 21
494.5910154576345
 31
0.0
  0
LINE
  5
2401
330
A
100
AcDbEntity
  8
本体
  6
Continuous
 62
    84
100
AcDbLine
 10
-42.55084699999996
 20
494.3260114576341
 30
0.0
 11
-40.71855300000003
 21
494.5955894576345
 31
0.0
  0
LINE
  5
2402
330
A
100
AcDbEntity
  8
本体
  6
Continuous
 62
    84
100
AcDbLine
 10
-42.55084699999996
 20
494.3260114576341
 30
0.0
 11
-42.41506700000002
 21
494.5619554576341
 31
0.0
  0
ARC
  5
2403
330
A
100
AcDbEntity
  8
本体
  6
Continuous
 62
    84
100
AcDbCircle
 10
-41.12310499999987
 20
496.0757814576346
 30
0.0
 40
2.25835
100
AcDbArc
 50
202.982511999999
 51
230.786895999999
  0
ARC
  5
2404
330
A
100
AcDbEntity
  8
本体
  6
Continuous
 62
    84
100
AcDbCircle
 10
-40.98009299999989
 20
496.3242914576341
 30
0.0
 40
2.25835
100
AcDbArc
 50
202.9825109999984
 51
230.786895999999
  0
LINE
  5
2405
330
A
100
AcDbEntity
  8
本体
  6
Continuous
 62
    84
100
AcDbLine
 10
-44.61855100000001
 20
496.0007714576345
 30
0.0
 11
-44.61855100000001
 21
495.5007714576345
 31
0.0
  0
LINE
  5
2406
330
A
100
AcDbEntity
  8
本体
  6
Continuous
 62
    84
100
AcDbLine
 10
-42.41506700000002
 20
494.5619554576341
 30
0.0
 11
-40.971361
 21
494.7415494576346
 31
0.0
  0
LINE
  5
2407
330
A
100
AcDbEntity
  8
本体
  6
Continuous
 62
    84
100
AcDbLine
 10
-44.91855300000007
 20
495.3842654576343
 30
0.0
 11
-43.15317900000001
 21
495.2791834576343
 31
0.0
  0
LINE
  5
2408
330
A
100
AcDbEntity
  8
本体
  6
Continuous
 62
    84
100
AcDbLine
 10
-43.05918299999996
 20
495.4425174576345
 30
0.0
 11
-41.41137300000003
 21
495.2842654576341
 31
0.0
  0
LINE
  5
2409
330
A
100
AcDbEntity
  8
本体
  6
Continuous
 62
    84
100
AcDbLine
 10
-43.20219499999995
 20
495.1940074576346
 30
0.0
 11
-43.05918299999996
 21
495.4425174576345
 31
0.0
  0
ARC
  5
240A
330
A
100
AcDbEntity
  8
本体
  6
Continuous
 62
    84
100
AcDbCircle
 10
-43.063975
 20
494.9876394576341
 30
0.0
 40
1.896516
100
AcDbArc
 50
167.928405000001
 51
192.0715949999988
  0
LINE
  5
240B
330
A
100
AcDbEntity
  8
本体
  6
Continuous
 62
    84
100
AcDbLine
 10
-44.91855300000007
 20
494.5910154576345
 30
0.0
 11
-42.92156499999999
 21
494.7098834576345
 31
0.0
  0
LINE
  5
240C
330
A
100
AcDbEntity
  8
本体
  6
Continuous
 62
    84
100
AcDbLine
 10
-41.28637300000002
 20
495.5007714576345
 30
0.0
 11
-41.53637300000002
 21
495.0677594576347
 31
0.0
  0
LINE
  5
240D
330
A
100
AcDbEntity
  8
本体
  6
Continuous
 62
    84
100
AcDbLine
 10
-41.28637300000002
 20
495.5007714576345
 30
0.0
 11
-39.90073100000006
 21
494.7007714576343
 31
0.0
  0
ARC
  5
240E
330
A
100
AcDbEntity
  8
本体
  6
Continuous
 62
    84
100
AcDbCircle
 10
-42.96255099999984
 20
496.9317714576343
 30
0.0
 40
1.761999999999999
100
AcDbArc
 50
148.1049099999995
 51
211.8950860000006
  0
ARC
  5
240F
330
A
100
AcDbEntity
  8
本体
  6
Continuous
 62
    84
100
AcDbCircle
 10
-38.37312899999982
 20
494.7808914576341
 30
0.0
 40
1.896516
100
AcDbArc
 50
347.9284050000011
 51
12.07159499999876
  0
ARC
  5
2410
330
A
100
AcDbEntity
  8
本体
  6
Continuous
 62
    84
100
AcDbCircle
 10
-38.19314099999997
 20
494.8842654576345
 30
0.0
 40
1.74764
100
AcDbArc
 50
343.3753879999981
 51
16.62461200000176
  0
LINE
  5
2411
330
A
100
AcDbEntity
  8
本体
  6
Continuous
 62
    84
100
AcDbLine
 10
-36.51855299999999
 20
495.3842654576343
 30
0.0
 11
-36.51855299999999
 21
495.1775154576343
 31
0.0
  0
LINE
  5
2412
330
A
100
AcDbEntity
  8
本体
  6
Continuous
 62
    84
100
AcDbLine
 10
-38.23283900000001
 20
494.5781194576345
 30
0.0
 11
-38.37792100000001
 21
494.3260114576341
 31
0.0
  0
ARC
  5
2413
330
A
100
AcDbEntity
  8
本体
  6
Continuous
 62
    84
100
AcDbCircle
 10
-40.45701099999996
 20
493.4442394576342
 30
0.0
 40
2.25835
100
AcDbArc
 50
22.98251099999846
 51
50.78689599999929
  0
ARC
  5
2414
330
A
100
AcDbEntity
  8
本体
  6
Continuous
 62
    84
100
AcDbCircle
 10
-40.31399899999995
 20
493.6927494576345
 30
0.0
 40
2.25835
100
AcDbArc
 50
22.98251099999846
 51
50.78689599999929
  0
LINE
  5
2415
330
A
100
AcDbEntity
  8
本体
  6
Continuous
 62
    84
100
AcDbLine
 10
-36.81855099999995
 20
496.0007714576345
 30
0.0
 11
-36.81855099999995
 21
495.5007714576345
 31
0.0
  0
LINE
  5
2416
330
A
100
AcDbEntity
  8
本体
  6
Continuous
 62
    84
100
AcDbLine
 10
-38.886257
 20
495.4425174576345
 30
0.0
 11
-39.02203700000006
 21
495.2065754576342
 31
0.0
  0
LINE
  5
2417
330
A
100
AcDbEntity
  8
本体
  6
Continuous
 62
    84
100
AcDbLine
 10
-36.51855299999999
 20
494.3842654576342
 30
0.0
 11
-38.28392500000006
 21
494.4893474576343
 31
0.0
  0
LINE
  5
2418
330
A
100
AcDbEntity
  8
本体
  6
Continuous
 62
    84
100
AcDbLine
 10
-36.51855299999999
 20
495.1775154576343
 30
0.0
 11
-38.51553899999997
 21
495.0586474576346
 31
0.0
  0
LINE
  5
2419
330
A
100
AcDbEntity
  8
本体
  6
Continuous
 62
    84
100
AcDbLine
 10
-36.51855299999999
 20
495.3842654576343
 30
0.0
 11
-38.68357500000001
 21
495.2553954576343
 31
0.0
  0
ARC
  5
241A
330
A
100
AcDbEntity
  8
本体
  6
Continuous
 62
    84
100
AcDbCircle
 10
-38.47455100000003
 20
496.9317714576343
 30
0.0
 40
1.761999999999999
100
AcDbArc
 50
328.1049099999995
 51
31.89507999999854
  0
LINE
  5
241B
330
A
100
AcDbEntity
  8
本体
  6
Continuous
 62
    84
100
AcDbLine
 10
-22.21855100000003
 20
494.2677594576347
 30
0.0
 11
-22.21855100000003
 21
496.0677594576345
 31
0.0
  0
LINE
  5
241D
330
A
100
AcDbEntity
  8
本体
  6
Continuous
 62
    84
100
AcDbLine
 10
-20.25055099999997
 20
263.7657594576343
 30
0.0
 11
-16.25055099999997
 21
263.7657594576343
 31
0.0
  0
LINE
  5
241E
330
A
100
AcDbEntity
  8
本体
  6
Continuous
 62
    84
100
AcDbLine
 10
-16.25055099999997
 20
269.2657594576343
 30
0.0
 11
-16.25055099999997
 21
263.7657594576343
 31
0.0
  0
LINE
  5
241F
330
A
100
AcDbEntity
  8
本体
  6
Continuous
 62
    84
100
AcDbLine
 10
-20.25055099999997
 20
267.2657594576343
 30
0.0
 11
-20.25055099999997
 21
263.7657594576343
 31
0.0
  0
ARC
  5
2420
330
A
100
AcDbEntity
  8
本体
  6
Continuous
 62
    84
100
AcDbCircle
 10
1.251448999999978
 20
270.2657594576343
 30
0.0
 40
1.0
100
AcDbArc
 50
270.0
 51
0.0
  0
LINE
  5
2421
330
A
100
AcDbEntity
  8
本体
  6
Continuous
 62
    84
100
AcDbLine
 10
-12.21355100000005
 20
519.3430014576343
 30
0.0
 11
-12.21355100000005
 21
498.0677594576345
 31
0.0
  0
LINE
  5
2422
330
A
100
AcDbEntity
  8
本体
  6
Continuous
 62
    84
100
AcDbLine
 10
-15.71355100000005
 20
520.7316914576344
 30
0.0
 11
-15.71355100000005
 21
498.0677594576345
 31
0.0
  0
LINE
  5
2423
330
A
100
AcDbEntity
  8
本体
  6
Continuous
 62
    84
100
AcDbLine
 10
-19.21355100000003
 20
520.8522614576345
 30
0.0
 11
-19.21355100000003
 21
498.0677594576345
 31
0.0
  0
LINE
  5
2427
330
A
100
AcDbEntity
  8
本体
  6
Continuous
 62
    84
100
AcDbLine
 10
-11.218551
 20
498.0677594576345
 30
0.0
 11
-20.21855100000002
 21
498.0677594576345
 31
0.0
  0
LINE
  5
2428
330
A
100
AcDbEntity
  8
本体
  6
Continuous
 62
    84
100
AcDbLine
 10
-9.218551000000042
 20
494.2677594576347
 30
0.0
 11
-9.218551000000042
 21
496.0677594576345
 31
0.0
  0
ARC
  5
2429
330
A
100
AcDbEntity
  8
本体
  6
Continuous
 62
    84
100
AcDbCircle
 10
-11.21855099999992
 20
496.0677594576345
 30
0.0
 40
2.0
100
AcDbArc
 50
0.0
 51
89.99999999999998
  0
LINE
  5
243E
102
{ACAD_REACTORS
330
244B
102
}
330
A
100
AcDbEntity
  8
ear
  6
Continuous
100
AcDbLine
 10
-209.7485509999999
 20
269.2657594576343
 30
0.0
 11
-238.7485509999999
 21
269.2657594576343
 31
0.0
  0
LINE
  5
243F
102
{ACAD_REACTORS
330
244B
102
}
330
A
100
AcDbEntity
  8
ear
  6
Continuous
100
AcDbLine
 10
-209.7485509999999
 20
271.2657594576343
 30
0.0
 11
-238.7485509999999
 21
271.2657594576343
 31
0.0
  0
ARC
  5
2440
102
{ACAD_REACTORS
330
244B
102
}
330
A
100
AcDbEntity
  8
ear
  6
Continuous
100
AcDbCircle
 10
-204.2485510893972
 20
286.2667511079909
 30
0.0
 40
8.0
100
AcDbArc
 50
150.6372914328171
 51
209.3833694328171
  0
LINE
  5
2441
102
{ACAD_REACTORS
330
244B
102
}
330
A
100
AcDbEntity
  8
ear
  6
Continuous
100
AcDbLine
 10
-209.7492033317648
 20
289.8837933988263
 30
0.0
 11
-209.747898668235
 21
282.6477255164421
 31
0.0
  0
LINE
  5
2442
102
{ACAD_REACTORS
330
244B
102
}
330
A
100
AcDbEntity
  8
ear
  6
Continuous
100
AcDbLine
 10
-207.7485509999999
 20
296.2657594576343
 30
0.0
 11
-207.7485509999999
 21
271.2657594576343
 31
0.0
  0
LINE
  5
2443
102
{ACAD_REACTORS
330
244B
102
}
330
A
100
AcDbEntity
  8
ear
  6
Continuous
100
AcDbLine
 10
-209.7485509999999
 20
296.2657594576343
 30
0.0
 11
-209.7485509999999
 21
271.2657594576343
 31
0.0
  0
ARC
  5
2444
102
{ACAD_REACTORS
330
244B
102
}
330
A
100
AcDbEntity
  8
ear
  6
Continuous
100
AcDbCircle
 10
-209.7485509999999
 20
271.2657594576343
 30
0.0
 40
2.0
100
AcDbArc
 50
270.0
 51
0.000000000000007
  0
ARC
  5
2445
102
{ACAD_REACTORS
330
244B
102
}
330
A
100
AcDbEntity
  8
ear
  6
Continuous
100
AcDbCircle
 10
-210.7481002335836
 20
283.7655791982043
 30
0.0
 40
1.5
100
AcDbArc
 50
251.687435432817
 51
311.820645432817
  0
LINE
  5
2446
102
{ACAD_REACTORS
330
244B
102
}
330
A
100
AcDbEntity
  8
ear
  6
Continuous
100
AcDbLine
 10
-207.7485509999999
 20
296.2657594576343
 30
0.0
 11
-209.7485509999999
 21
296.2657594576343
 31
0.0
  0
LINE
  5
2447
102
{ACAD_REACTORS
330
244B
102
}
330
A
100
AcDbEntity
  8
ear
  6
Continuous
100
AcDbLine
 10
-207.7485509999999
 20
294.2657594576343
 30
0.0
 11
-209.7485509999999
 21
294.2657594576343
 31
0.0
  0
ARC
  5
2448
102
{ACAD_REACTORS
330
244B
102
}
330
A
100
AcDbEntity
  8
ear
  6
Continuous
100
AcDbCircle
 10
-210.749001733908
 20
288.7655791169343
 30
0.0
 40
1.5
100
AcDbArc
 50
48.20001543281728
 51
108.3332254328171
  0
LINE
  5
2449
102
{ACAD_REACTORS
330
244B
102
}
330
A
100
AcDbEntity
  8
ear
  6
Continuous
100
AcDbLine
 10
-238.7485509999999
 20
271.2657594576343
 30
0.0
 11
-238.7485509999999
 21
269.2657594576343
 31
0.0
  0
LINE
  5
244A
102
{ACAD_REACTORS
330
244B
102
}
330
A
100
AcDbEntity
  8
ear
  6
Continuous
100
AcDbLine
 10
-236.7485509999999
 20
271.2657594576343
 30
0.0
 11
-236.7485509999999
 21
269.2657594576343
 31
0.0
  0
LINE
  5
26DE
102
{ACAD_REACTORS
330
2720
102
}
330
A
100
AcDbEntity
  8
ear
  6
Continuous
100
AcDbLine
 10
-302.6270233345953
 20
269.2657594576343
 30
0.0
 11
-258.6270233345953
 21
269.2657594576343
 31
0.0
  0
LINE
  5
26DF
102
{ACAD_REACTORS
330
2720
102
}
330
A
100
AcDbEntity
  8
ear
  6
Continuous
100
AcDbLine
 10
-258.6270233345953
 20
269.2657594576343
 30
0.0
 11
-258.6270233345953
 21
294.2657594576343
 31
0.0
  0
LINE
  5
26E0
102
{ACAD_REACTORS
330
2720
102
}
330
A
100
AcDbEntity
  8
ear
  6
Continuous
100
AcDbLine
 10
-260.6270233345953
 20
296.2657594576343
 30
0.0
 11
-300.6270233345953
 21
296.2657594576343
 31
0.0
  0
LINE
  5
26E1
102
{ACAD_REACTORS
330
2720
102
}
330
A
100
AcDbEntity
  8
ear
  6
Continuous
100
AcDbLine
 10
-302.6270233345953
 20
294.2657594576343
 30
0.0
 11
-302.6270233345953
 21
269.2657594576343
 31
0.0
  0
LINE
  5
26E2
102
{ACAD_REACTORS
330
2720
102
}
330
A
100
AcDbEntity
  8
ear
  6
Continuous
100
AcDbLine
 10
-302.6270233345953
 20
271.2657594576343
 30
0.0
 11
-258.6270233345953
 21
271.2657594576343
 31
0.0
  0
LINE
  5
26E3
102
{ACAD_REACTORS
330
2720
102
}
330
A
100
AcDbEntity
  8
ear
  6
Continuous
100
AcDbLine
 10
-300.6270233345953
 20
269.2657594576343
 30
0.0
 11
-300.6270233345953
 21
271.2657594576343
 31
0.0
  0
LINE
  5
26E4
102
{ACAD_REACTORS
330
2720
102
}
330
A
100
AcDbEntity
  8
ear
  6
Continuous
100
AcDbLine
 10
-260.6270233345953
 20
271.2657594576343
 30
0.0
 11
-260.6270233345953
 21
269.2657594576343
 31
0.0
  0
LINE
  5
26E5
102
{ACAD_REACTORS
330
2720
102
}
330
A
100
AcDbEntity
  8
ear
  6
Continuous
100
AcDbLine
 10
-302.6270233345953
 20
294.2657594576343
 30
0.0
 11
-300.6270233345953
 21
296.2657594576343
 31
0.0
  0
LINE
  5
26E6
102
{ACAD_REACTORS
330
2720
102
}
330
A
100
AcDbEntity
  8
ear
  6
Continuous
100
AcDbLine
 10
-260.6270233345953
 20
296.2657594576343
 30
0.0
 11
-258.6270233345953
 21
294.2657594576343
 31
0.0
  0
CIRCLE
  5
26E7
102
{ACAD_REACTORS
330
2720
102
}
330
A
100
AcDbEntity
  8
ear
  6
Continuous
100
AcDbCircle
 10
-294.6270233345953
 20
286.2657594576343
 30
0.0
 40
4.0
  0
CIRCLE
  5
26E8
102
{ACAD_REACTORS
330
2720
102
}
330
A
100
AcDbEntity
  8
ear
  6
Continuous
100
AcDbCircle
 10
-294.6270233345953
 20
286.2657594576343
 30
0.0
 40
3.5
  0
CIRCLE
  5
26E9
102
{ACAD_REACTORS
330
2720
102
}
330
A
100
AcDbEntity
  8
ear
  6
Continuous
100
AcDbCircle
 10
-296.0410233345955
 20
286.2657594576343
 30
0.0
 40
0.3
  0
ARC
  5
26EA
102
{ACAD_REACTORS
330
2720
102
}
330
A
100
AcDbEntity
  8
ear
  6
Continuous
100
AcDbCircle
 10
-293.2830233345956
 20
286.2657594576343
 30
0.0
 40
0.6
100
AcDbArc
 50
135.0674799999995
 51
224.9325100000016
  0
ARC
  5
26EB
102
{ACAD_REACTORS
330
2720
102
}
330
A
100
AcDbEntity
  8
ear
  6
Continuous
100
AcDbCircle
 10
-295.9710233345953
 20
286.2657594576343
 30
0.0
 40
0.6
100
AcDbArc
 50
315.067485999999
 51
44.93251000000161
  0
LINE
  5
26EC
102
{ACAD_REACTORS
330
2720
102
}
330
A
100
AcDbEntity
  8
ear
  6
Continuous
100
AcDbLine
 10
-296.2888653345956
 20
285.0989174576342
 30
0.0
 11
-295.7938653345951
 21
284.6039174576342
 31
0.0
  0
LINE
  5
26ED
102
{ACAD_REACTORS
330
2720
102
}
330
A
100
AcDbEntity
  8
ear
  6
Continuous
100
AcDbLine
 10
-295.5460233345956
 20
285.8417594576343
 30
0.0
 11
-296.2888653345956
 21
285.0989174576342
 31
0.0
  0
LINE
  5
26EE
102
{ACAD_REACTORS
330
2720
102
}
330
A
100
AcDbEntity
  8
ear
  6
Continuous
100
AcDbLine
 10
-295.0510233345957
 20
285.3467594576342
 30
0.0
 11
-295.7938653345951
 21
284.6039174576342
 31
0.0
  0
LINE
  5
26EF
102
{ACAD_REACTORS
330
2720
102
}
330
A
100
AcDbEntity
  8
ear
  6
Continuous
100
AcDbLine
 10
-294.2030233345951
 20
285.3467594576342
 30
0.0
 11
-293.4601813345956
 21
284.6039174576342
 31
0.0
  0
ARC
  5
26F0
102
{ACAD_REACTORS
330
2720
102
}
330
A
100
AcDbEntity
  8
ear
  6
Continuous
100
AcDbCircle
 10
-294.6270233345953
 20
284.9217594576342
 30
0.0
 40
0.6
100
AcDbArc
 50
45.06747999999979
 51
134.9325100000015
  0
LINE
  5
26F1
102
{ACAD_REACTORS
330
2720
102
}
330
A
100
AcDbEntity
  8
ear
  6
Continuous
100
AcDbLine
 10
-292.9651813345953
 20
285.0989174576342
 30
0.0
 11
-293.4601813345956
 21
284.6039174576342
 31
0.0
  0
LINE
  5
26F2
102
{ACAD_REACTORS
330
2720
102
}
330
A
100
AcDbEntity
  8
ear
  6
Continuous
100
AcDbLine
 10
-293.7080233345956
 20
285.8417594576343
 30
0.0
 11
-292.9651813345953
 21
285.0989174576342
 31
0.0
  0
LINE
  5
26F3
102
{ACAD_REACTORS
330
2720
102
}
330
A
100
AcDbEntity
  8
ear
  6
Continuous
100
AcDbLine
 10
-295.7938653345951
 20
287.9276034576344
 30
0.0
 11
-296.2888653345956
 21
287.4326034576342
 31
0.0
  0
LINE
  5
26F4
102
{ACAD_REACTORS
330
2720
102
}
330
A
100
AcDbEntity
  8
ear
  6
Continuous
100
AcDbLine
 10
-296.2888653345956
 20
287.4326034576342
 30
0.0
 11
-295.5460233345956
 21
286.6897594576343
 31
0.0
  0
LINE
  5
26F5
102
{ACAD_REACTORS
330
2720
102
}
330
A
100
AcDbEntity
  8
ear
  6
Continuous
100
AcDbLine
 10
-295.7938653345951
 20
287.9276034576344
 30
0.0
 11
-295.0510233345957
 21
287.1847594576341
 31
0.0
  0
LINE
  5
26F6
102
{ACAD_REACTORS
330
2720
102
}
330
A
100
AcDbEntity
  8
ear
  6
Continuous
100
AcDbLine
 10
-293.4601813345956
 20
287.9276034576344
 30
0.0
 11
-294.2030233345951
 21
287.1847594576341
 31
0.0
  0
ARC
  5
26F7
102
{ACAD_REACTORS
330
2720
102
}
330
A
100
AcDbEntity
  8
ear
  6
Continuous
100
AcDbCircle
 10
-294.6270233345953
 20
287.6097594576343
 30
0.0
 40
0.6
100
AcDbArc
 50
225.0674799999996
 51
314.9325130000011
  0
LINE
  5
26F8
102
{ACAD_REACTORS
330
2720
102
}
330
A
100
AcDbEntity
  8
ear
  6
Continuous
100
AcDbLine
 10
-292.9651813345953
 20
287.4326034576342
 30
0.0
 11
-293.7080233345956
 21
286.6897594576343
 31
0.0
  0
LINE
  5
26F9
102
{ACAD_REACTORS
330
2720
102
}
330
A
100
AcDbEntity
  8
ear
  6
Continuous
100
AcDbLine
 10
-293.4601813345956
 20
287.9276034576344
 30
0.0
 11
-292.9651813345953
 21
287.4326034576342
 31
0.0
  0
LINE
  5
270D
102
{ACAD_REACTORS
330
2720
102
}
330
A
100
AcDbEntity
  8
ear
  6
Continuous
100
AcDbLine
 10
-267.7938653345953
 20
287.9276034576344
 30
0.0
 11
-267.0510233345956
 21
287.1847594576341
 31
0.0
  0
LINE
  5
270E
102
{ACAD_REACTORS
330
2720
102
}
330
A
100
AcDbEntity
  8
ear
  6
Continuous
100
AcDbLine
 10
-268.2888653345957
 20
287.4326034576342
 30
0.0
 11
-267.5460233345956
 21
286.6897594576343
 31
0.0
  0
LINE
  5
270F
102
{ACAD_REACTORS
330
2720
102
}
330
A
100
AcDbEntity
  8
ear
  6
Continuous
100
AcDbLine
 10
-267.0510233345956
 20
285.3467594576342
 30
0.0
 11
-267.7938653345953
 21
284.6039174576342
 31
0.0
  0
LINE
  5
2710
102
{ACAD_REACTORS
330
2720
102
}
330
A
100
AcDbEntity
  8
ear
  6
Continuous
100
AcDbLine
 10
-267.5460233345956
 20
285.8417594576343
 30
0.0
 11
-268.2888653345957
 21
285.0989174576342
 31
0.0
  0
CIRCLE
  5
2711
102
{ACAD_REACTORS
330
2720
102
}
330
A
100
AcDbEntity
  8
ear
  6
Continuous
100
AcDbCircle
 10
-266.6270233345954
 20
286.2657594576343
 30
0.0
 40
3.5
  0
CIRCLE
  5
2712
102
{ACAD_REACTORS
330
2720
102
}
330
A
100
AcDbEntity
  8
ear
  6
Continuous
100
AcDbCircle
 10
-266.6270233345954
 20
286.2657594576343
 30
0.0
 40
4.0
  0
LINE
  5
2713
102
{ACAD_REACTORS
330
2720
102
}
330
A
100
AcDbEntity
  8
ear
  6
Continuous
100
AcDbLine
 10
-268.2888653345957
 20
285.0989174576342
 30
0.0
 11
-267.7938653345953
 21
284.6039174576342
 31
0.0
  0
LINE
  5
2714
102
{ACAD_REACTORS
330
2720
102
}
330
A
100
AcDbEntity
  8
ear
  6
Continuous
100
AcDbLine
 10
-267.7938653345953
 20
287.9276034576344
 30
0.0
 11
-268.2888653345957
 21
287.4326034576342
 31
0.0
  0
CIRCLE
  5
2715
102
{ACAD_REACTORS
330
2720
102
}
330
A
100
AcDbEntity
  8
ear
  6
Continuous
100
AcDbCircle
 10
-268.0410233345954
 20
286.2657594576343
 30
0.0
 40
0.3
  0
LINE
  5
2716
102
{ACAD_REACTORS
330
2720
102
}
330
A
100
AcDbEntity
  8
ear
  6
Continuous
100
AcDbLine
 10
-265.7080233345956
 20
285.8417594576343
 30
0.0
 11
-264.9651813345954
 21
285.0989174576342
 31
0.0
  0
LINE
  5
2717
102
{ACAD_REACTORS
330
2720
102
}
330
A
100
AcDbEntity
  8
ear
  6
Continuous
100
AcDbLine
 10
-264.9651813345954
 20
285.0989174576342
 30
0.0
 11
-265.4601813345956
 21
284.6039174576342
 31
0.0
  0
ARC
  5
2718
102
{ACAD_REACTORS
330
2720
102
}
330
A
100
AcDbEntity
  8
ear
  6
Continuous
100
AcDbCircle
 10
-266.6270233345954
 20
284.9217594576342
 30
0.0
 40
0.6
100
AcDbArc
 50
45.06747999999979
 51
134.9325100000015
  0
LINE
  5
2719
102
{ACAD_REACTORS
330
2720
102
}
330
A
100
AcDbEntity
  8
ear
  6
Continuous
100
AcDbLine
 10
-266.2030233345951
 20
285.3467594576342
 30
0.0
 11
-265.4601813345956
 21
284.6039174576342
 31
0.0
  0
LINE
  5
271A
102
{ACAD_REACTORS
330
2720
102
}
330
A
100
AcDbEntity
  8
ear
  6
Continuous
100
AcDbLine
 10
-265.4601813345956
 20
287.9276034576344
 30
0.0
 11
-264.9651813345954
 21
287.4326034576342
 31
0.0
  0
LINE
  5
271B
102
{ACAD_REACTORS
330
2720
102
}
330
A
100
AcDbEntity
  8
ear
  6
Continuous
100
AcDbLine
 10
-264.9651813345954
 20
287.4326034576342
 30
0.0
 11
-265.7080233345956
 21
286.6897594576343
 31
0.0
  0
ARC
  5
271C
102
{ACAD_REACTORS
330
2720
102
}
330
A
100
AcDbEntity
  8
ear
  6
Continuous
100
AcDbCircle
 10
-266.6270233345954
 20
287.6097594576343
 30
0.0
 40
0.6
100
AcDbArc
 50
225.0674799999996
 51
314.9325130000011
  0
LINE
  5
271D
102
{ACAD_REACTORS
330
2720
102
}
330
A
100
AcDbEntity
  8
ear
  6
Continuous
100
AcDbLine
 10
-265.4601813345956
 20
287.9276034576344
 30
0.0
 11
-266.2030233345951
 21
287.1847594576341
 31
0.0
  0
ARC
  5
271E
102
{ACAD_REACTORS
330
2720
102
}
330
A
100
AcDbEntity
  8
ear
  6
Continuous
100
AcDbCircle
 10
-267.9710233345953
 20
286.2657594576343
 30
0.0
 40
0.6
100
AcDbArc
 50
315.067485999999
 51
44.93251000000161
  0
ARC
  5
271F
102
{ACAD_REACTORS
330
2720
102
}
330
A
100
AcDbEntity
  8
ear
  6
Continuous
100
AcDbCircle
 10
-265.2830233345956
 20
286.2657594576343
 30
0.0
 40
0.6
100
AcDbArc
 50
135.0674799999995
 51
224.9325100000016
  0
LINE
  5
27BD
330
A
100
AcDbEntity
  8
本体
  6
Continuous
 62
    84
100
AcDbLine
 10
-301.4270233345953
 20
493.2657594576341
 30
0.0
 11
-301.4270233345953
 21
295.4657594576342
 31
0.0
  0
LINE
  5
27BE
330
A
100
AcDbEntity
  8
本体
  6
Continuous
 62
    84
100
AcDbLine
 10
-258.6270233345953
 20
294.2657594576343
 30
0.0
 11
-258.6270233345953
 21
494.2637594576342
 31
0.0
  0
SPLINE
  5
27BF
330
A
100
AcDbEntity
  8
本体
  6
Continuous
 62
    84
100
AcDbSpline
210
0.0
220
0.0
230
1.0
 70
     8
 71
     3
 72
    13
 73
     9
 74
     7
 42
0.0000000001
 43
0.0000000001
 44
0.000001
 12
0.7930986738278533
 22
-0.6090931731455381
 32
0.0
 13
0.5819426908718713
 23
-0.8132297981141649
 33
0.0
 40
0.0
 40
0.0
 40
0.0
 40
0.0
 40
0.9876702778398252
 40
1.901016782887688
 40
3.003764958301847
 40
4.056430489540026
 40
5.149088788924442
 40
6.411344846988718
 40
6.411344846988718
 40
6.411344846988718
 40
6.411344846988718
 10
-288.1029485994604
 20
520.4049151536878
 30
0.0
 10
-287.841841936949
 20
520.2043874125041
 30
0.0
 10
-287.326140783781
 20
519.844773286527
 30
0.0
 10
-286.2461189000402
 20
519.6182805518922
 30
0.0
 10
-285.4540919762367
 20
520.3477112025823
 30
0.0
 10
-284.5670690315052
 20
521.1494857929911
 30
0.0
 10
-283.3831105196185
 20
520.5546771656561
 30
0.0
 10
-282.8979508710665
 20
519.9645404840062
 30
0.0
 10
-282.6530973087335
 20
519.6223724042502
 30
0.0
 11
-288.1029485994604
 21
520.4049151536878
 31
0.0
 11
-287.2606784286906
 21
519.8890908924716
 31
0.0
 11
-286.3562013908941
 21
519.7621121809353
 31
0.0
 11
-285.4327040846956
 21
520.3647793391126
 31
0.0
 11
-284.5395842939851
 21
520.9219523274233
 31
0.0
 11
-283.5137388274513
 21
520.545729511839
 31
0.0
 11
-282.6530973087335
 21
519.6223724042502
 31
0.0
  0
LINE
  5
27C0
330
A
100
AcDbEntity
  8
本体
  6
Continuous
 62
    84
100
AcDbLine
 10
-291.0020233345953
 20
499.8457594576342
 30
0.0
 11
-284.1020233345954
 21
499.8457594576342
 31
0.0
  0
LINE
  5
27C1
330
A
100
AcDbEntity
  8
本体
  6
Continuous
 62
    84
100
AcDbLine
 10
-282.7770233345951
 20
505.5657594576342
 30
0.0
 11
-292.2770233345953
 21
505.5657594576342
 31
0.0
  0
LINE
  5
27C2
330
A
100
AcDbEntity
  8
本体
  6
Continuous
 62
    84
100
AcDbLine
 10
-258.6270233345953
 20
494.2657594576342
 30
0.0
 11
-300.4270233345951
 21
494.2657594576344
 31
0.0
  0
LINE
  5
27C3
330
A
100
AcDbEntity
  8
本体
  6
Continuous
 62
    84
100
AcDbLine
 10
-286.0520233345953
 20
519.8870294576343
 30
0.0
 11
-286.0520233345953
 21
505.5657594576342
 31
0.0
  0
LINE
  5
27C4
330
A
100
AcDbEntity
  8
本体
  6
Continuous
 62
    84
100
AcDbLine
 10
-301.4270233345953
 20
493.2657594576341
 30
0.0
 11
-300.4270233345951
 21
494.2657594576344
 31
0.0
  0
LINE
  5
27C5
330
A
100
AcDbEntity
  8
本体
  6
Continuous
 62
    84
100
AcDbLine
 10
-291.5020233345953
 20
499.3457594576343
 30
0.0
 11
-291.5020233345953
 21
494.2657594576344
 31
0.0
  0
LINE
  5
27C6
330
A
100
AcDbEntity
  8
本体
  6
Continuous
 62
    84
100
AcDbLine
 10
-292.2770233345953
 20
505.5657594576342
 30
0.0
 11
-292.2770233345953
 21
494.5657594576342
 31
0.0
  0
ARC
  5
27C7
330
A
100
AcDbEntity
  8
本体
  6
Continuous
 62
    84
100
AcDbCircle
 10
-291.0020233345952
 20
499.3457594576343
 30
0.0
 40
0.5
100
AcDbArc
 50
89.99999999999998
 51
180.0
  0
CIRCLE
  5
27C8
330
A
100
AcDbEntity
  8
本体
  6
Continuous
 62
    84
100
AcDbCircle
 10
-287.5270233345953
 20
501.3257594576344
 30
0.0
 40
1.0
  0
LINE
  5
27C9
330
A
100
AcDbEntity
  8
本体
  6
Continuous
 62
    84
100
AcDbLine
 10
-284.7520233345953
 20
498.5657594576342
 30
0.0
 11
-284.7520233345953
 21
496.2657594576342
 31
0.0
  0
LINE
  5
27CA
330
A
100
AcDbEntity
  8
本体
  6
Continuous
 62
    84
100
AcDbLine
 10
-290.3520233345954
 20
498.5657594576342
 30
0.0
 11
-290.3520233345954
 21
496.2138914576343
 31
0.0
  0
LINE
  5
27CB
330
A
100
AcDbEntity
  8
本体
  6
Continuous
 62
    84
100
AcDbLine
 10
-288.9086493345951
 20
498.5657594576342
 30
0.0
 11
-288.9086493345951
 21
496.2657594576342
 31
0.0
  0
LINE
  5
27CC
330
A
100
AcDbEntity
  8
本体
  6
Continuous
 62
    84
100
AcDbLine
 10
-286.1953993345953
 20
498.5657594576342
 30
0.0
 11
-286.1953993345953
 21
496.2657594576342
 31
0.0
  0
LINE
  5
27CD
330
A
100
AcDbEntity
  8
本体
  6
Continuous
 62
    84
100
AcDbLine
 10
-289.6303373345953
 20
498.6657594576342
 30
0.0
 11
-285.4737113345953
 21
498.6657594576342
 31
0.0
  0
LINE
  5
27CE
330
A
100
AcDbEntity
  8
本体
  6
Continuous
 62
    84
100
AcDbLine
 10
-290.3520233345954
 20
494.6657594576342
 30
0.0
 11
-284.7520233345953
 21
494.6657594576342
 31
0.0
  0
LINE
  5
27CF
330
A
100
AcDbEntity
  8
本体
  6
Continuous
 62
    84
100
AcDbLine
 10
-285.052023334595
 20
494.6657594576342
 30
0.0
 11
-285.052023334595
 21
494.2657594576344
 31
0.0
  0
LINE
  5
27D0
330
A
100
AcDbEntity
  8
本体
  6
Continuous
 62
    84
100
AcDbLine
 10
-290.0520233345951
 20
494.6657594576342
 30
0.0
 11
-290.0520233345951
 21
494.2657594576344
 31
0.0
  0
SPLINE
  5
27D1
330
A
100
AcDbEntity
  8
本体
  6
Continuous
 62
    84
100
AcDbSpline
210
0.0
220
0.0
230
1.0
 70
     8
 71
     3
 72
    11
 73
     7
 74
     5
 42
0.0000000001
 43
0.0000000001
 44
0.000001
 12
-0.9636791783839502
 22
0.2670626165325928
 32
0.0
 13
-0.9636791796767756
 23
-0.2670626118675112
 33
0.0
 40
0.0
 40
0.0
 40
0.0
 40
0.0
 40
0.3648253839950389
 40
0.7302414083238138
 40
1.09565761236561
 40
1.460483175911649
 40
1.460483175911649
 40
1.460483175911649
 40
1.460483175911649
 10
-284.7520243222017
 20
498.5657589238289
 30
0.0
 10
-284.8692158643023
 20
498.5982359977046
 30
0.0
 10
-285.1082655095241
 20
498.6482178173154
 30
0.0
 10
-285.473712021205
 20
498.67453506267
 30
0.0
 10
-285.8391585966305
 20
498.6482178488386
 30
0.0
 10
-286.0782083619719
 20
498.598236013121
 30
0.0
 10
-286.1953999619063
 20
498.5657589238289
 30
0.0
 11
-284.7520243222017
 21
498.5657589238289
 31
0.0
 11
-285.1091992418476
 21
498.6400810748468
 31
0.0
 11
-285.4737119619065
 21
498.6657589238289
 31
0.0
 11
-285.8382248637926
 21
498.6400810985353
 31
0.0
 11
-286.1953999619063
 21
498.5657589238289
 31
0.0
  0
SPLINE
  5
27D2
330
A
100
AcDbEntity
  8
本体
  6
Continuous
 62
    84
100
AcDbSpline
210
0.0
220
0.0
230
1.0
 70
     8
 71
     3
 72
    11
 73
     7
 74
     5
 42
0.0000000001
 43
0.0000000001
 44
0.000001
 12
-0.9893069622196666
 22
0.1458483270514104
 32
0.0
 13
-0.9893069622134353
 23
-0.1458483270936772
 33
0.0
 40
0.0
 40
0.0
 40
0.0
 40
0.0
 40
0.6803988134050295
 40
1.361214874122899
 40
2.042030916266158
 40
2.722429711106364
 40
2.722429711106364
 40
2.722429711106364
 40
2.722429711106364
 10
-286.1953999619063
 20
498.5657589238289
 30
0.0
 10
-286.4197743896355
 20
498.5988372667164
 30
0.0
 10
-286.8712185817869
 20
498.6488383307017
 30
0.0
 10
-287.552024327949
 20
498.6742203139868
 30
0.0
 10
-288.2328300678084
 20
498.6488383289043
 30
0.0
 10
-288.6842742475676
 20
498.5988372658235
 30
0.0
 10
-288.9086486691733
 20
498.5657589238289
 30
0.0
 11
-286.1953999619063
 21
498.5657589238289
 31
0.0
 11
-286.8716749292098
 21
498.6405587001968
 31
0.0
 11
-287.5520243341229
 21
498.6657589238289
 31
0.0
 11
-288.2323737203987
 21
498.640558698848
 31
0.0
 11
-288.9086486691733
 21
498.5657589238289
 31
0.0
  0
SPLINE
  5
27D3
330
A
100
AcDbEntity
  8
本体
  6
Continuous
 62
    84
100
AcDbSpline
210
0.0
220
0.0
230
1.0
 70
     8
 71
     3
 72
    11
 73
     7
 74
     5
 42
0.0000000001
 43
0.0000000001
 44
0.000001
 12
-0.9636791783839502
 22
-0.2670626165325927
 32
0.0
 13
-0.9636791796767756
 23
0.2670626118675115
 33
0.0
 40
0.0
 40
0.0
 40
0.0
 40
0.0
 40
0.3648253839950273
 40
0.7302414083237983
 40
1.095657612365586
 40
1.460483175911626
 40
1.460483175911626
 40
1.460483175911626
 40
1.460483175911626
 10
-284.7520243222017
 20
496.2657589238288
 30
0.0
 10
-284.8692158643023
 20
496.2332818499531
 30
0.0
 10
-285.1082655095241
 20
496.1833000303422
 30
0.0
 10
-285.473712021205
 20
496.1569827849879
 30
0.0
 10
-285.8391585966306
 20
496.1832999988191
 30
0.0
 10
-286.0782083619719
 20
496.2332818345365
 30
0.0
 10
-286.1953999619063
 20
496.2657589238288
 30
0.0
 11
-284.7520243222017
 21
496.2657589238288
 31
0.0
 11
-285.1091992418476
 21
496.1914367728109
 31
0.0
 11
-285.4737119619065
 21
496.1657589238289
 31
0.0
 11
-285.8382248637926
 21
496.1914367491224
 31
0.0
 11
-286.1953999619063
 21
496.2657589238288
 31
0.0
  0
SPLINE
  5
27D4
330
A
100
AcDbEntity
  8
本体
  6
Continuous
 62
    84
100
AcDbSpline
210
0.0
220
0.0
230
1.0
 70
     8
 71
     3
 72
    11
 73
     7
 74
     5
 42
0.0000000001
 43
0.0000000001
 44
0.000001
 12
-0.9893069622196666
 22
-0.1458483270514099
 32
0.0
 13
-0.9893069622134353
 23
0.1458483270936778
 33
0.0
 40
0.0
 40
0.0
 40
0.0
 40
0.0
 40
0.6803988134050233
 40
1.361214874122891
 40
2.042030916266147
 40
2.722429711106347
 40
2.722429711106347
 40
2.722429711106347
 40
2.722429711106347
 10
-286.1953999619063
 20
496.2657589238288
 30
0.0
 10
-286.4197743896355
 20
496.2326805809412
 30
0.0
 10
-286.8712185817869
 20
496.1826795169558
 30
0.0
 10
-287.552024327949
 20
496.157297533671
 30
0.0
 10
-288.2328300678084
 20
496.1826795187533
 30
0.0
 10
-288.6842742475676
 20
496.2326805818341
 30
0.0
 10
-288.9086486691733
 20
496.2657589238288
 30
0.0
 11
-286.1953999619063
 21
496.2657589238288
 31
0.0
 11
-286.8716749292098
 21
496.1909591474609
 31
0.0
 11
-287.5520243341229
 21
496.1657589238289
 31
0.0
 11
-288.2323737203987
 21
496.1909591488097
 31
0.0
 11
-288.9086486691733
 21
496.2657589238288
 31
0.0
  0
SPLINE
  5
27D5
330
A
100
AcDbEntity
  8
本体
  6
Continuous
 62
    84
100
AcDbSpline
210
0.0
220
0.0
230
1.0
 70
     8
 71
     3
 72
    11
 73
     7
 74
     5
 42
0.0000000001
 43
0.0000000001
 44
0.000001
 12
0.9636791793273149
 22
0.2670626131285188
 32
0.0
 13
0.9636791796767756
 23
-0.2670626118675115
 33
0.0
 40
0.0
 40
0.0
 40
0.0
 40
0.0
 40
0.3648253790229776
 40
0.7302413983457999
 40
1.095657602387483
 40
1.460483165933744
 40
1.460483165933744
 40
1.460483165933744
 40
1.460483165933744
 10
-290.352024336407
 20
498.5657589264994
 30
0.0
 10
-290.2348327957887
 20
498.5982359995185
 30
0.0
 10
-289.9957831537174
 20
498.6482178177952
 30
0.0
 10
-289.6303366453726
 20
498.6745350625498
 30
0.0
 10
-289.2648900716145
 20
498.6482178488386
 30
0.0
 10
-289.0258403062736
 20
498.598236013121
 30
0.0
 10
-288.9086487063392
 20
498.5657589238289
 30
0.0
 11
-290.352024336407
 21
498.5657589264994
 31
0.0
 11
-289.9948494214287
 21
498.6400810755423
 31
0.0
 11
-289.6303367063391
 21
498.6657589238289
 31
0.0
 11
-289.2658238044531
 21
498.6400810985353
 31
0.0
 11
-288.9086487063392
 21
498.5657589238289
 31
0.0
  0
SPLINE
  5
27D6
330
A
100
AcDbEntity
  8
本体
  6
Continuous
 62
    84
100
AcDbSpline
210
0.0
220
0.0
230
1.0
 70
     8
 71
     3
 72
    11
 73
     7
 74
     5
 42
0.0000000001
 43
0.0000000001
 44
0.000001
 12
-0.9636791786591322
 22
0.2670626155396151
 32
0.0
 13
-0.9636791794016088
 23
-0.2670626128604337
 33
0.0
 40
0.0
 40
0.0
 40
0.0
 40
0.0
 40
0.3648254222121682
 40
0.7302414847925273
 40
1.095657650582904
 40
1.460483175911751
 40
1.460483175911751
 40
1.460483175911751
 40
1.460483175911751
 10
-284.7520243222017
 20
496.0657589238286
 30
0.0
 10
-284.8692158766121
 20
496.0982360009857
 30
0.0
 10
-285.1082655474012
 20
496.1482178240251
 30
0.0
 10
-285.47371207265
 20
496.1745350626698
 30
0.0
 10
-285.8391586345077
 20
496.1482178421292
 30
0.0
 10
-286.0782083742817
 20
496.0982360098395
 30
0.0
 10
-286.1953999619063
 20
496.0657589238286
 30
0.0
 11
-284.7520243222017
 21
496.0657589238286
 31
0.0
 11
-285.1091992798341
 21
496.1400810798888
 31
0.0
 11
-285.4737120385946
 21
496.1657589238289
 31
0.0
 11
-285.8382249017793
 21
496.1400810934933
 31
0.0
 11
-286.1953999619063
 21
496.0657589238286
 31
0.0
  0
SPLINE
  5
27D7
330
A
100
AcDbEntity
  8
本体
  6
Continuous
 62
    84
100
AcDbSpline
210
0.0
220
0.0
230
1.0
 70
     8
 71
     3
 72
    11
 73
     7
 74
     5
 42
0.0000000001
 43
0.0000000001
 44
0.000001
 12
-0.9893069621941638
 22
0.1458483272243996
 32
0.0
 13
-0.9893069622389379
 23
-0.1458483269206908
 33
0.0
 40
0.0
 40
0.0
 40
0.0
 40
0.0
 40
0.6803987374261506
 40
1.361214722123419
 40
2.042030840287407
 40
2.722429711106386
 40
2.722429711106386
 40
2.722429711106386
 40
2.722429711106386
 10
-286.1953999619063
 20
496.0657589238286
 30
0.0
 10
-286.4197743645742
 20
496.0988372630616
 30
0.0
 10
-286.8712185060083
 20
496.1488383233446
 30
0.0
 10
-287.5520242263755
 20
496.1742203139867
 30
0.0
 10
-288.2328299920299
 20
496.1488383362611
 30
0.0
 10
-288.6842742225064
 20
496.0988372694778
 30
0.0
 10
-288.9086486691733
 20
496.0657589238286
 30
0.0
 11
-286.1953999619063
 21
496.0657589238286
 31
0.0
 11
-286.8716748533781
 21
496.1405586946762
 31
0.0
 11
-287.552024182014
 21
496.1657589238289
 31
0.0
 11
-288.2323736445671
 21
496.1405587043683
 31
0.0
 11
-288.9086486691733
 21
496.0657589238286
 31
0.0
  0
SPLINE
  5
27D8
330
A
100
AcDbEntity
  8
本体
  6
Continuous
 62
    84
100
AcDbSpline
210
0.0
220
0.0
230
1.0
 70
     8
 71
     3
 72
    11
 73
     7
 74
     5
 42
0.0000000001
 43
0.0000000001
 44
0.000001
 12
-0.9636791783839553
 22
-0.2670626165325745
 32
0.0
 13
-0.9636791796767756
 23
0.2670626118675111
 33
0.0
 40
0.0
 40
0.0
 40
0.0
 40
0.0
 40
0.3648253839950157
 40
0.7302414083237827
 40
1.095657612365567
 40
1.460483175911594
 40
1.460483175911594
 40
1.460483175911594
 40
1.460483175911594
 10
-284.7520243222017
 20
495.2657589238286
 30
0.0
 10
-284.8692158643023
 20
495.2332818499529
 30
0.0
 10
-285.1082655095242
 20
495.1833000303423
 30
0.0
 10
-285.473712021205
 20
495.1569827849878
 30
0.0
 10
-285.8391585966305
 20
495.183299998819
 30
0.0
 10
-286.0782083619719
 20
495.2332818345364
 30
0.0
 10
-286.1953999619063
 20
495.2657589238286
 30
0.0
 11
-284.7520243222017
 21
495.2657589238286
 31
0.0
 11
-285.1091992418476
 21
495.1914367728108
 31
0.0
 11
-285.4737119619065
 21
495.1657589238289
 31
0.0
 11
-285.8382248637926
 21
495.1914367491223
 31
0.0
 11
-286.1953999619063
 21
495.2657589238286
 31
0.0
  0
SPLINE
  5
27D9
330
A
100
AcDbEntity
  8
本体
  6
Continuous
 62
    84
100
AcDbSpline
210
0.0
220
0.0
230
1.0
 70
     8
 71
     3
 72
    11
 73
     7
 74
     5
 42
0.0000000001
 43
0.0000000001
 44
0.000001
 12
-0.9893069622196666
 22
-0.1458483270514099
 32
0.0
 13
-0.9893069622134353
 23
0.1458483270936778
 33
0.0
 40
0.0
 40
0.0
 40
0.0
 40
0.0
 40
0.6803988134050108
 40
1.361214874122878
 40
2.042030916266134
 40
2.722429711106322
 40
2.722429711106322
 40
2.722429711106322
 40
2.722429711106322
 10
-286.1953999619063
 20
495.2657589238286
 30
0.0
 10
-286.4197743896355
 20
495.232680580941
 30
0.0
 10
-286.871218581787
 20
495.182679516956
 30
0.0
 10
-287.552024327949
 20
495.1572975336708
 30
0.0
 10
-288.2328300678084
 20
495.1826795187534
 30
0.0
 10
-288.6842742475676
 20
495.232680581834
 30
0.0
 10
-288.9086486691733
 20
495.2657589238286
 30
0.0
 11
-286.1953999619063
 21
495.2657589238286
 31
0.0
 11
-286.8716749292098
 21
495.1909591474609
 31
0.0
 11
-287.5520243341229
 21
495.1657589238289
 31
0.0
 11
-288.2323737203987
 21
495.1909591488096
 31
0.0
 11
-288.9086486691733
 21
495.2657589238286
 31
0.0
  0
SPLINE
  5
27DA
330
A
100
AcDbEntity
  8
本体
  6
Continuous
 62
    84
100
AcDbSpline
210
0.0
220
0.0
230
1.0
 70
     8
 71
     3
 72
    11
 73
     7
 74
     5
 42
0.0000000001
 43
0.0000000001
 44
0.000001
 12
0.9636791783839552
 22
-0.2670626165325749
 32
0.0
 13
0.9636791796767756
 23
0.2670626118675106
 33
0.0
 40
0.0
 40
0.0
 40
0.0
 40
0.0
 40
0.3648253839946261
 40
0.7302414083236766
 40
1.095657612365347
 40
1.460483175911597
 40
1.460483175911597
 40
1.460483175911597
 40
1.460483175911597
 10
-290.3520243460438
 20
495.2657589238286
 30
0.0
 10
-290.2348328039433
 20
495.2332818499529
 30
0.0
 10
-289.9957831587215
 20
495.1833000303423
 30
0.0
 10
-289.6303366470407
 20
495.1569827849878
 30
0.0
 10
-289.264890071615
 20
495.1832999988188
 30
0.0
 10
-289.0258403062736
 20
495.2332818345364
 30
0.0
 10
-288.9086487063392
 20
495.2657589238286
 30
0.0
 11
-290.3520243460438
 21
495.2657589238286
 31
0.0
 11
-289.9948494263983
 21
495.1914367728108
 31
0.0
 11
-289.6303367063391
 21
495.1657589238289
 31
0.0
 11
-289.2658238044531
 21
495.1914367491223
 31
0.0
 11
-288.9086487063392
 21
495.2657589238286
 31
0.0
  0
SPLINE
  5
27DB
330
A
100
AcDbEntity
  8
本体
  6
Continuous
 62
    84
100
AcDbSpline
210
0.0
220
0.0
230
1.0
 70
     8
 71
     3
 72
    11
 73
     7
 74
     5
 42
0.0000000001
 43
0.0000000001
 44
0.000001
 12
0.9636791786591324
 22
0.267062615539615
 32
0.0
 13
0.9636791794016088
 23
-0.267062612860434
 33
0.0
 40
0.0
 40
0.0
 40
0.0
 40
0.0
 40
0.3648254222117787
 40
0.7302414847921377
 40
1.095657650582515
 40
1.460483175911752
 40
1.460483175911752
 40
1.460483175911752
 40
1.460483175911752
 10
-290.3520243460438
 20
496.0657589238286
 30
0.0
 10
-290.2348327916334
 20
496.0982360009857
 30
0.0
 10
-289.9957831208445
 20
496.1482178240251
 30
0.0
 10
-289.6303365955958
 20
496.1745350626698
 30
0.0
 10
-289.264890033738
 20
496.1482178421292
 30
0.0
 10
-289.0258402939638
 20
496.0982360098395
 30
0.0
 10
-288.9086487063392
 20
496.0657589238286
 30
0.0
 11
-290.3520243460438
 21
496.0657589238286
 31
0.0
 11
-289.9948493884118
 21
496.1400810798888
 31
0.0
 11
-289.6303366296513
 21
496.1657589238289
 31
0.0
 11
-289.2658237664666
 21
496.1400810934933
 31
0.0
 11
-288.9086487063392
 21
496.0657589238286
 31
0.0
  0
SPLINE
  5
27DC
330
A
100
AcDbEntity
  8
本体
  6
Continuous
 62
    84
100
AcDbSpline
210
0.0
220
0.0
230
1.0
 70
     8
 71
     3
 72
    11
 73
     7
 74
     5
 42
0.0000000001
 43
0.0000000001
 44
0.000001
 12
-0.9636791783839502
 22
0.2670626165325928
 32
0.0
 13
-0.9636791796767756
 23
-0.2670626118675112
 33
0.0
 40
0.0
 40
0.0
 40
0.0
 40
0.0
 40
0.3648253839950273
 40
0.7302414083238102
 40
1.095657612365598
 40
1.460483175911672
 40
1.460483175911672
 40
1.460483175911672
 40
1.460483175911672
 10
-284.7520243222017
 20
495.0657589238288
 30
0.0
 10
-284.8692158643023
 20
495.0982359977045
 30
0.0
 10
-285.1082655095241
 20
495.1482178173149
 30
0.0
 10
-285.4737120212049
 20
495.17453506267
 30
0.0
 10
-285.8391585966306
 20
495.1482178488388
 30
0.0
 10
-286.0782083619719
 20
495.098236013121
 30
0.0
 10
-286.1953999619063
 20
495.0657589238288
 30
0.0
 11
-284.7520243222017
 21
495.0657589238288
 31
0.0
 11
-285.1091992418476
 21
495.1400810748467
 31
0.0
 11
-285.4737119619065
 21
495.1657589238289
 31
0.0
 11
-285.8382248637926
 21
495.1400810985354
 31
0.0
 11
-286.1953999619063
 21
495.0657589238288
 31
0.0
  0
SPLINE
  5
27DD
330
A
100
AcDbEntity
  8
本体
  6
Continuous
 62
    84
100
AcDbSpline
210
0.0
220
0.0
230
1.0
 70
     8
 71
     3
 72
    11
 73
     7
 74
     5
 42
0.0000000001
 43
0.0000000001
 44
0.000001
 12
-0.9893069621941638
 22
0.1458483272243996
 32
0.0
 13
-0.9893069622389379
 23
-0.1458483269206908
 33
0.0
 40
0.0
 40
0.0
 40
0.0
 40
0.0
 40
0.6803987374261255
 40
1.361214722123396
 40
2.042030840287376
 40
2.722429711106361
 40
2.722429711106361
 40
2.722429711106361
 40
2.722429711106361
 10
-286.1953999619063
 20
495.0657589238288
 30
0.0
 10
-286.4197743645742
 20
495.0988372630618
 30
0.0
 10
-286.8712185060082
 20
495.1488383233441
 30
0.0
 10
-287.5520242263756
 20
495.1742203139868
 30
0.0
 10
-288.2328299920299
 20
495.1488383362614
 30
0.0
 10
-288.6842742225064
 20
495.098837269478
 30
0.0
 10
-288.9086486691733
 20
495.0657589238288
 30
0.0
 11
-286.1953999619063
 21
495.0657589238288
 31
0.0
 11
-286.8716748533781
 21
495.1405586946761
 31
0.0
 11
-287.552024182014
 21
495.1657589238289
 31
0.0
 11
-288.2323736445671
 21
495.1405587043685
 31
0.0
 11
-288.9086486691733
 21
495.0657589238288
 31
0.0
  0
SPLINE
  5
27DE
330
A
100
AcDbEntity
  8
本体
  6
Continuous
 62
    84
100
AcDbSpline
210
0.0
220
0.0
230
1.0
 70
     8
 71
     3
 72
    11
 73
     7
 74
     5
 42
0.0000000001
 43
0.0000000001
 44
0.000001
 12
0.9636791783839502
 22
0.2670626165325926
 32
0.0
 13
0.9636791796767756
 23
-0.2670626118675115
 33
0.0
 40
0.0
 40
0.0
 40
0.0
 40
0.0
 40
0.3648253839946378
 40
0.7302414083237041
 40
1.095657612365379
 40
1.460483175911675
 40
1.460483175911675
 40
1.460483175911675
 40
1.460483175911675
 10
-290.3520243460438
 20
495.0657589238288
 30
0.0
 10
-290.2348328039433
 20
495.0982359977045
 30
0.0
 10
-289.9957831587215
 20
495.1482178173152
 30
0.0
 10
-289.6303366470407
 20
495.1745350626699
 30
0.0
 10
-289.264890071615
 20
495.1482178488388
 30
0.0
 10
-289.0258403062736
 20
495.098236013121
 30
0.0
 10
-288.9086487063392
 20
495.0657589238288
 30
0.0
 11
-290.3520243460438
 21
495.0657589238288
 31
0.0
 11
-289.9948494263983
 21
495.1400810748467
 31
0.0
 11
-289.6303367063391
 21
495.1657589238289
 31
0.0
 11
-289.2658238044531
 21
495.1400810985354
 31
0.0
 11
-288.9086487063392
 21
495.0657589238288
 31
0.0
  0
LINE
  5
27DF
330
A
100
AcDbEntity
  8
本体
  6
Continuous
 62
    84
100
AcDbLine
 10
-286.1953993345953
 20
495.0657594576342
 30
0.0
 11
-286.1953993345953
 21
494.6657594576342
 31
0.0
  0
LINE
  5
27E0
330
A
100
AcDbEntity
  8
本体
  6
Continuous
 62
    84
100
AcDbLine
 10
-286.1953993345953
 20
496.0657594576343
 30
0.0
 11
-286.1953993345953
 21
495.2657594576344
 31
0.0
  0
LINE
  5
27E1
330
A
100
AcDbEntity
  8
本体
  6
Continuous
 62
    84
100
AcDbLine
 10
-288.9086493345951
 20
496.0657594576343
 30
0.0
 11
-288.9086493345951
 21
495.2657594576344
 31
0.0
  0
LINE
  5
27E2
330
A
100
AcDbEntity
  8
本体
  6
Continuous
 62
    84
100
AcDbLine
 10
-288.9086493345951
 20
495.0657594576342
 30
0.0
 11
-288.9086493345951
 21
494.6657594576342
 31
0.0
  0
LINE
  5
27E3
330
A
100
AcDbEntity
  8
本体
  6
Continuous
 62
    84
100
AcDbLine
 10
-284.7520233345953
 20
496.0657594576343
 30
0.0
 11
-284.7520233345953
 21
495.2657594576344
 31
0.0
  0
LINE
  5
27E4
330
A
100
AcDbEntity
  8
本体
  6
Continuous
 62
    84
100
AcDbLine
 10
-284.7520233345953
 20
495.0657594576342
 30
0.0
 11
-284.7520233345953
 21
494.6657594576342
 31
0.0
  0
LINE
  5
27E5
330
A
100
AcDbEntity
  8
本体
  6
Continuous
 62
    84
100
AcDbLine
 10
-290.3520233345954
 20
496.0657594576343
 30
0.0
 11
-290.3520233345954
 21
495.2657594576344
 31
0.0
  0
LINE
  5
27E6
330
A
100
AcDbEntity
  8
本体
  6
Continuous
 62
    84
100
AcDbLine
 10
-290.3520233345954
 20
495.0657594576342
 30
0.0
 11
-290.3520233345954
 21
494.6657594576342
 31
0.0
  0
SPLINE
  5
27E7
330
A
100
AcDbEntity
  8
本体
  6
Continuous
 62
    84
100
AcDbSpline
210
0.0
220
0.0
230
1.0
 70
     8
 71
     3
 72
     9
 73
     5
 74
     3
 42
0.0000000001
 43
0.0000000001
 44
0.000001
 12
0.9636791783839502
 22
-0.2670626165325929
 32
0.0
 13
0.9710515103855845
 23
-0.2388701826889978
 33
0.0
 40
0.0
 40
0.0
 40
0.0
 40
0.0
 40
0.0411140114916031
 40
0.0822535052094574
 40
0.0822535052094574
 40
0.0822535052094574
 40
0.0822535052094574
 10
-290.3520243460438
 20
496.2657589238288
 30
0.0
 10
-290.338817440439
 20
496.2620989186671
 30
0.0
 10
-290.3123419259538
 20
496.2549683953225
 30
0.0
 10
-290.2857653246852
 20
496.248224354074
 30
0.0
 10
-290.2724491355148
 20
496.2449486879473
 30
0.0
 11
-290.3520243460438
 21
496.2657589238288
 31
0.0
 11
-290.3123248755582
 21
496.2550671702638
 31
0.0
 11
-290.2724491355148
 21
496.2449486879473
 31
0.0
  0
SPLINE
  5
27E8
330
A
100
AcDbEntity
  8
本体
  6
Continuous
 62
    84
100
AcDbSpline
210
0.0
220
0.0
230
1.0
 70
     8
 71
     3
 72
    39
 73
    35
 74
    33
 42
0.0000000001
 43
0.0000000001
 44
0.000001
 12
0.9710515103855845
 22
-0.2388701826889978
 32
0.0
 13
0.9636791796767756
 23
0.2670626118675111
 33
0.0
 40
0.0
 40
0.0
 40
0.0
 40
0.0
 40
0.040458964426473
 40
0.0809373024815413
 40
0.1214323589294103
 40
0.1619417744073799
 40
0.2024633290859308
 40
0.2429949544585183
 40
0.2835347429248344
 40
0.3240809571582345
 40
0.3646320394760482
 40
0.4051866212569373
 40
0.4457435324120787
 40
0.486301810912905
 40
0.5268607123694573
 40
0.5674197196498661
 40
0.6079785525363933
 40
0.6485371774025534
 40
0.6942536046428531
 40
0.7399703034614712
 40
0.7856871577102602
 40
0.8314036571358178
 40
0.8771189149850762
 40
0.9228316855538723
 40
0.9685403816507635
 40
1.014243091960289
 40
1.059937598290274
 40
1.105621392696328
 40
1.151291694482319
 40
1.196945467084447
 40
1.242579434904094
 40
1.288190100375
 40
1.333773763872105
 40
1.379326408734824
 40
1.379326408734824
 40
1.379326408734824
 40
1.379326408734824
 10
-290.2724491355148
 20
496.2449486879473
 30
0.0
 10
-290.2593532226765
 20
496.2417272078726
 30
0.0
 10
-290.2331080568551
 20
496.2354723943938
 30
0.0
 10
-290.1936012735022
 20
496.2266550012337
 30
0.0
 10
-290.1539540263049
 20
496.2184088436804
 30
0.0
 10
-290.1141766904514
 20
496.2107385986777
 30
0.0
 10
-290.0742791793161
 20
496.2036500512655
 30
0.0
 10
-290.0342715175321
 20
496.1971486868907
 30
0.0
 10
-289.9941637004953
 20
496.1912400718067
 30
0.0
 10
-289.953965731603
 20
496.1859297510288
 30
0.0
 10
-289.9136876121855
 20
496.1812232756933
 30
0.0
 10
-289.873339344224
 20
496.1771261957291
 30
0.0
 10
-289.8329309295198
 20
496.1736440618381
 30
0.0
 10
-289.7924723703376
 20
496.1707824249759
 30
0.0
 10
-289.7519736677459
 20
496.1685468365163
 30
0.0
 10
-289.7114448277156
 20
496.1669428481614
 30
0.0
 10
-289.6708958385027
 20
496.1659760122122
 30
0.0
 10
-289.6286174762852
 20
496.1656381408547
 30
0.0
 10
-289.5846195965316
 20
496.1660344609786
 30
0.0
 10
-289.5389170297623
 20
496.1672619384442
 30
0.0
 10
-289.4932433027158
 20
496.1692971313431
 30
0.0
 10
-289.4476127631605
 20
496.1721320869275
 30
0.0
 10
-289.4020397260949
 20
496.1757588528873
 30
0.0
 10
-289.3565385150263
 20
496.1801694777931
 30
0.0
 10
-289.3111234509776
 20
496.1853560109743
 30
0.0
 10
-289.2658088554204
 20
496.1913105023951
 30
0.0
 10
-289.2206090497494
 20
496.1980250031356
 30
0.0
 10
-289.1755383546367
 20
496.2054915634377
 30
0.0
 10
-289.1306110932521
 20
496.2137022398862
 30
0.0
 10
-289.085841579048
 20
496.2226490685322
 30
0.0
 10
-289.0412441610297
 20
496.2323241650993
 30
0.0
 10
-288.9968330528722
 20
496.2427193516385
 30
0.0
 10
-288.9526230064338
 20
496.2538275394034
 30
0.0
 10
-288.9232814181503
 20
496.2617037877239
 30
0.0
 10
-288.9086487063392
 20
496.2657589238288
 30
0.0
 11
-290.2724491355148
 21
496.2449486879473
 31
0.0
 11
-290.2330926906685
 21
496.2355673071223
 31
0.0
 11
-290.1935861332082
 21
496.2267509776629
 31
0.0
 11
-290.1539394706377
 21
496.2185052462923
 31
0.0
 11
-290.1141627104606
 21
496.2108356597343
 31
0.0
 11
-290.0742658601808
 21
496.2037477647124
 31
0.0
 11
-290.0342589273016
 21
496.1972471079501
 31
0.0
 11
-289.9941519193266
 21
496.1913392361719
 31
0.0
 11
-289.9539548437596
 21
496.1860296961003
 31
0.0
 11
-289.9136777081041
 21
496.1813240344602
 31
0.0
 11
-289.8733305198636
 21
496.1772277979743
 31
0.0
 11
-289.8329232865417
 21
496.1737465333664
 31
0.0
 11
-289.7924660156423
 21
496.1708857873607
 31
0.0
 11
-289.7519687146687
 21
496.1686511066802
 31
0.0
 11
-289.7114413911247
 21
496.1670480380488
 31
0.0
 11
-289.6708940525136
 21
496.1660821281906
 31
0.0
 11
-289.6303367063391
 21
496.1657589238289
 31
0.0
 11
-289.5846221114656
 21
496.1661694044899
 31
0.0
 11
-289.5389218481731
 21
496.1673955569674
 31
0.0
 11
-289.4932502481203
 21
496.169429437853
 31
0.0
 11
-289.4476216429639
 21
496.1722631037392
 31
0.0
 11
-289.4020503643614
 21
496.1758886112169
 31
0.0
 11
-289.3565507439705
 21
496.1802980168791
 31
0.0
 11
-289.3111371134486
 21
496.185483377317
 31
0.0
 11
-289.2658238044531
 21
496.1914367491224
 31
0.0
 11
-289.2206251486415
 21
496.1981501888874
 31
0.0
 11
-289.1755554776716
 21
496.2056157532039
 31
0.0
 11
-289.1306291232003
 21
496.2138254986639
 31
0.0
 11
-289.0858604168854
 21
496.2227714818588
 31
0.0
 11
-289.0412636903842
 21
496.2324457593811
 31
0.0
 11
-288.9968532753546
 21
496.2428403878223
 31
0.0
 11
-288.9526435034539
 21
496.2539474237741
 31
0.0
 11
-288.9086487063392
 21
496.2657589238288
 31
0.0
  0
LINE
  5
27E9
330
A
100
AcDbEntity
  8
本体
  6
Continuous
 62
    84
100
AcDbLine
 10
-289.6303373345953
 20
496.1657594576343
 30
0.0
 11
-287.5520233345951
 21
496.1657594576343
 31
0.0
  0
LINE
  5
27EA
330
A
100
AcDbEntity
  8
本体
  6
Continuous
 62
    84
100
AcDbLine
 10
-287.5520233345951
 20
496.1657594576343
 30
0.0
 11
-285.4737113345953
 21
496.1657594576343
 31
0.0
  0
LINE
  5
27EB
330
A
100
AcDbEntity
  8
本体
  6
Continuous
 62
    84
100
AcDbLine
 10
-287.5520233345951
 20
495.1657594576341
 30
0.0
 11
-285.4737113345953
 21
495.1657594576341
 31
0.0
  0
LINE
  5
27EC
330
A
100
AcDbEntity
  8
本体
  6
Continuous
 62
    84
100
AcDbLine
 10
-287.5520233345951
 20
495.1657594576341
 30
0.0
 11
-289.6303373345953
 21
495.1657594576341
 31
0.0
  0
LINE
  5
27ED
330
A
100
AcDbEntity
  8
本体
  6
Continuous
 62
    84
100
AcDbLine
 10
-294.0270233345953
 20
494.5657594576342
 30
0.0
 11
-294.0270233345953
 21
494.2657594576344
 31
0.0
  0
LINE
  5
27EE
330
A
100
AcDbEntity
  8
本体
  6
Continuous
 62
    84
100
AcDbLine
 10
-294.0270233345953
 20
494.5657594576342
 30
0.0
 11
-291.5020233345953
 21
494.5657594576342
 31
0.0
  0
LINE
  5
27EF
330
A
100
AcDbEntity
  8
本体
  6
Continuous
 62
    84
100
AcDbLine
 10
-283.7520233345953
 20
520.7125974576341
 30
0.0
 11
-283.7520233345953
 21
505.5657594576342
 31
0.0
  0
LINE
  5
27F0
330
A
100
AcDbEntity
  8
本体
  6
Continuous
 62
    84
100
AcDbLine
 10
-265.7770233345952
 20
505.5657594576342
 30
0.0
 11
-275.2770233345953
 21
505.5657594576342
 31
0.0
  0
LINE
  5
27F1
330
A
100
AcDbEntity
  8
本体
  6
Continuous
 62
    84
100
AcDbLine
 10
-277.0270233345953
 20
494.5657594576342
 30
0.0
 11
-264.0270233345952
 21
494.5657594576342
 31
0.0
  0
LINE
  5
27F2
330
A
100
AcDbEntity
  8
本体
  6
Continuous
 62
    84
100
AcDbLine
 10
-283.6020233345954
 20
499.3457594576343
 30
0.0
 11
-283.6020233345954
 21
494.2657594576344
 31
0.0
  0
LINE
  5
27F3
330
A
100
AcDbEntity
  8
本体
  6
Continuous
 62
    84
100
AcDbLine
 10
-275.2770233345953
 20
505.5657594576342
 30
0.0
 11
-275.2770233345953
 21
494.5657594576342
 31
0.0
  0
LINE
  5
27F4
330
A
100
AcDbEntity
  8
本体
  6
Continuous
 62
    84
100
AcDbLine
 10
-282.7770233345951
 20
505.5657594576342
 30
0.0
 11
-282.7770233345951
 21
494.5657594576342
 31
0.0
  0
ARC
  5
27F5
330
A
100
AcDbEntity
  8
本体
  6
Continuous
 62
    84
100
AcDbCircle
 10
-284.1020233345954
 20
499.3457594576343
 30
0.0
 40
0.5
100
AcDbArc
 50
0.0
 51
89.99999999999998
  0
ARC
  5
27F6
330
A
100
AcDbEntity
  8
本体
  6
Continuous
 62
    84
100
AcDbCircle
 10
-282.3770233345952
 20
495.1657594576341
 30
0.0
 40
1.0
100
AcDbArc
 50
28.07994699999733
 51
89.99999999999998
  0
LINE
  5
27F7
330
A
100
AcDbEntity
  8
本体
  6
Continuous
 62
    84
100
AcDbLine
 10
-282.3770233345953
 20
496.1657594576343
 30
0.0
 11
-282.7770233345951
 21
496.1657594576343
 31
0.0
  0
LINE
  5
27F8
330
A
100
AcDbEntity
  8
本体
  6
Continuous
 62
    84
100
AcDbLine
 10
-277.0270233345953
 20
494.5657594576342
 30
0.0
 11
-277.0270233345953
 21
494.2657594576344
 31
0.0
  0
LINE
  5
27F9
330
A
100
AcDbEntity
  8
本体
  6
Continuous
 62
    84
100
AcDbLine
 10
-281.0270233345951
 20
494.5657594576342
 30
0.0
 11
-281.0270233345951
 21
494.2657594576344
 31
0.0
  0
ARC
  5
27FA
330
A
100
AcDbEntity
  8
本体
  6
Continuous
 62
    84
100
AcDbCircle
 10
-277.7020233345953
 20
494.9657594576343
 30
0.0
 40
1.324999999999999
100
AcDbArc
 50
342.4290360000018
 51
47.54423899999916
  0
LINE
  5
27FB
330
A
100
AcDbEntity
  8
本体
  6
Continuous
 62
    84
100
AcDbLine
 10
-283.6020233345954
 20
494.5657594576342
 30
0.0
 11
-281.0270233345951
 21
494.5657594576342
 31
0.0
  0
ARC
  5
27FC
330
A
100
AcDbEntity
  8
本体
  6
Continuous
 62
    84
100
AcDbCircle
 10
-280.3520233345953
 20
494.9657594576343
 30
0.0
 40
1.324999999999999
100
AcDbArc
 50
132.4557610000007
 51
197.570963999998
  0
ARC
  5
27FD
330
A
100
AcDbEntity
  8
本体
  6
Continuous
 62
    84
100
AcDbCircle
 10
-279.0270233345953
 20
488.4657594576341
 30
0.0
 40
7.799999999999998
100
AcDbArc
 50
73.46871899999981
 51
106.5312809999999
  0
LINE
  5
27FE
330
A
100
AcDbEntity
  8
本体
  6
Continuous
 62
    84
100
AcDbLine
 10
-265.7770233345952
 20
505.5657594576342
 30
0.0
 11
-265.7770233345952
 21
494.5657594576342
 31
0.0
  0
CIRCLE
  5
27FF
330
A
100
AcDbEntity
  8
本体
  6
Continuous
 62
    84
100
AcDbCircle
 10
-270.5270233345951
 20
501.3257594576344
 30
0.0
 40
1.0
  0
LINE
  5
2800
330
A
100
AcDbEntity
  8
本体
  6
Continuous
 62
    84
100
AcDbLine
 10
-264.0270233345952
 20
494.5657594576342
 30
0.0
 11
-264.0270233345952
 21
494.2657594576342
 31
0.0
  0
CIRCLE
  5
2806
330
A
100
AcDbEntity
  8
本体
  6
Continuous
 62
    84
100
AcDbCircle
 10
-280.6270233345951
 20
479.2657594576342
 30
0.0
 40
2.85
  0
LINE
  5
2807
330
A
100
AcDbEntity
  8
本体
  6
Continuous
 62
    84
100
AcDbLine
 10
-279.2480233345953
 20
478.3817594576341
 30
0.0
 11
-279.7430233345953
 21
477.8867594576341
 31
0.0
  0
LINE
  5
2808
330
A
100
AcDbEntity
  8
本体
  6
Continuous
 62
    84
100
AcDbLine
 10
-281.5110233345953
 20
480.6447594576343
 30
0.0
 11
-282.0060233345953
 21
480.1497594576342
 31
0.0
  0
LINE
  5
2809
330
A
100
AcDbEntity
  8
本体
  6
Continuous
 62
    84
100
AcDbLine
 10
-282.0060233345953
 20
478.3817594576341
 30
0.0
 11
-281.5110233345953
 21
477.8867594576341
 31
0.0
  0
LINE
  5
280A
330
A
100
AcDbEntity
  8
本体
  6
Continuous
 62
    84
100
AcDbLine
 10
-279.7430233345953
 20
480.6447594576343
 30
0.0
 11
-279.2480233345953
 21
480.1497594576342
 31
0.0
  0
CIRCLE
  5
280B
330
A
100
AcDbEntity
  8
本体
  6
Continuous
 62
    84
100
AcDbCircle
 10
-279.2130233345953
 20
479.2657594576342
 30
0.0
 40
0.3
  0
LINE
  5
280C
330
A
100
AcDbEntity
  8
本体
  6
Continuous
 62
    84
100
AcDbLine
 10
-279.2480233345953
 20
480.1497594576342
 30
0.0
 11
-279.7080233345953
 21
479.6897594576343
 31
0.0
  0
LINE
  5
280D
330
A
100
AcDbEntity
  8
本体
  6
Continuous
 62
    84
100
AcDbLine
 10
-281.0510233345953
 20
478.3467594576342
 30
0.0
 11
-281.5110233345953
 21
477.8867594576341
 31
0.0
  0
LINE
  5
280E
330
A
100
AcDbEntity
  8
本体
  6
Continuous
 62
    84
100
AcDbLine
 10
-281.5110233345953
 20
480.6447594576343
 30
0.0
 11
-281.0510233345953
 21
480.1847594576343
 31
0.0
  0
LINE
  5
280F
330
A
100
AcDbEntity
  8
本体
  6
Continuous
 62
    84
100
AcDbLine
 10
-279.7080233345953
 20
478.8417594576342
 30
0.0
 11
-279.2480233345953
 21
478.3817594576341
 31
0.0
  0
LINE
  5
2810
330
A
100
AcDbEntity
  8
本体
  6
Continuous
 62
    84
100
AcDbLine
 10
-279.7430233345953
 20
480.6447594576343
 30
0.0
 11
-280.2030233345954
 21
480.1847594576343
 31
0.0
  0
LINE
  5
2811
330
A
100
AcDbEntity
  8
本体
  6
Continuous
 62
    84
100
AcDbLine
 10
-282.0060233345953
 20
480.1497594576342
 30
0.0
 11
-281.5460233345953
 21
479.6897594576343
 31
0.0
  0
LINE
  5
2812
330
A
100
AcDbEntity
  8
本体
  6
Continuous
 62
    84
100
AcDbLine
 10
-280.2030233345954
 20
478.3467594576342
 30
0.0
 11
-279.7430233345953
 21
477.8867594576341
 31
0.0
  0
ARC
  5
2813
330
A
100
AcDbEntity
  8
本体
  6
Continuous
 62
    84
100
AcDbCircle
 10
-279.283023334595
 20
479.2657594576342
 30
0.0
 40
0.6
100
AcDbArc
 50
135.0674900000007
 51
224.932514000001
  0
ARC
  5
2814
330
A
100
AcDbEntity
  8
本体
  6
Continuous
 62
    84
100
AcDbCircle
 10
-280.6270233345951
 20
480.6097594576342
 30
0.0
 40
0.6
100
AcDbArc
 50
225.0674869999988
 51
314.932519999998
  0
ARC
  5
2815
330
A
100
AcDbEntity
  8
本体
  6
Continuous
 62
    84
100
AcDbCircle
 10
-281.9710233345953
 20
479.2657594576342
 30
0.0
 40
0.6
100
AcDbArc
 50
315.0674900000008
 51
44.93252000000032
  0
ARC
  5
2816
330
A
100
AcDbEntity
  8
本体
  6
Continuous
 62
    84
100
AcDbCircle
 10
-280.6270233345951
 20
477.9217594576341
 30
0.0
 40
0.6
100
AcDbArc
 50
45.06748999999846
 51
134.932519999998
  0
LINE
  5
2817
330
A
100
AcDbEntity
  8
本体
  6
Continuous
 62
    84
100
AcDbLine
 10
-281.5460233345953
 20
478.8417594576342
 30
0.0
 11
-282.0060233345953
 21
478.3817594576341
 31
0.0
  0
CIRCLE
  5
2818
330
A
100
AcDbEntity
  8
本体
  6
Continuous
 62
    84
100
AcDbCircle
 10
-280.6270233345951
 20
479.2657594576342
 30
0.0
 40
3.049999999999998
  0
LINE
  5
281B
330
A
100
AcDbEntity
  8
本体
  6
Continuous
 62
    84
100
AcDbLine
 10
-281.1270233345954
 20
264.7657594576343
 30
0.0
 11
-287.1270233345953
 21
264.7657594576343
 31
0.0
  0
LINE
  5
281C
330
A
100
AcDbEntity
  8
本体
  6
Continuous
 62
    84
100
AcDbLine
 10
-290.7770233345953
 20
268.167759457634
 30
0.0
 11
-281.8895813345955
 21
268.167759457634
 31
0.0
  0
LINE
  5
2836
330
A
100
AcDbEntity
  8
本体
  6
Continuous
 62
    84
100
AcDbLine
 10
-296.1270233345953
 20
268.2657594576343
 30
0.0
 11
-287.1270233345953
 21
264.7657594576343
 31
0.0
  0
LINE
  5
2837
330
A
100
AcDbEntity
  8
本体
  6
Continuous
 62
    84
100
AcDbLine
 10
-296.1270233345953
 20
269.2657594576343
 30
0.0
 11
-296.1270233345953
 21
268.2657594576343
 31
0.0
  0
LINE
  5
2838
330
A
100
AcDbEntity
  8
本体
  6
Continuous
 62
    84
100
AcDbLine
 10
-291.2099633345951
 20
269.2657594576343
 30
0.0
 11
-291.1893953345952
 21
268.580129457634
 31
0.0
  0
LINE
  5
2839
330
A
100
AcDbEntity
  8
本体
  6
Continuous
 62
    84
100
AcDbLine
 10
-291.1893953345952
 20
268.580129457634
 30
0.0
 11
-290.7770233345953
 21
268.167759457634
 31
0.0
  0
LINE
  5
284F
330
A
100
AcDbEntity
  8
本体
  6
Continuous
 62
    84
100
AcDbLine
 10
-272.1270233345953
 20
268.2657594576343
 30
0.0
 11
-281.1270233345954
 21
264.7657594576343
 31
0.0
  0
LINE
  5
2850
330
A
100
AcDbEntity
  8
本体
  6
Continuous
 62
    84
100
AcDbLine
 10
-281.4440833345954
 20
269.2657594576343
 30
0.0
 11
-281.465029334595
 21
268.5675794576342
 31
0.0
  0
LINE
  5
2851
330
A
100
AcDbEntity
  8
本体
  6
Continuous
 62
    84
100
AcDbLine
 10
-281.465029334595
 20
268.5675794576342
 30
0.0
 11
-281.8895813345955
 21
268.167759457634
 31
0.0
  0
LINE
  5
2852
330
A
100
AcDbEntity
  8
本体
  6
Continuous
 62
    84
100
AcDbLine
 10
-272.1270233345953
 20
269.2657594576343
 30
0.0
 11
-272.1270233345953
 21
268.2657594576343
 31
0.0
  0
SPLINE
  5
2868
330
A
100
AcDbEntity
  8
本体
  6
Continuous
 62
    84
100
AcDbSpline
210
0.0
220
0.0
230
1.0
 70
     8
 71
     3
 72
    13
 73
     9
 74
     7
 42
0.0000000001
 43
0.0000000001
 44
0.000001
 12
-0.7930986738278533
 22
-0.6090931731455381
 32
0.0
 13
-0.5819426908718713
 23
-0.8132297981141652
 33
0.0
 40
0.0
 40
0.0
 40
0.0
 40
0.0
 40
0.9876702778398252
 40
1.901016782887688
 40
3.003764958301942
 40
4.056430489540025
 40
5.149088788924441
 40
6.411344846988717
 40
6.411344846988717
 40
6.411344846988717
 40
6.411344846988717
 10
292.6058465994604
 20
520.4049151536878
 30
0.0
 10
292.344739936949
 20
520.2043874125041
 30
0.0
 10
291.829038783781
 20
519.844773286527
 30
0.0
 10
290.7490169000402
 20
519.6182805518922
 30
0.0
 10
289.9569899762366
 20
520.3477112025821
 30
0.0
 10
289.0699670315052
 20
521.1494857929909
 30
0.0
 10
287.8860085196186
 20
520.5546771656562
 30
0.0
 10
287.4008488710666
 20
519.9645404840062
 30
0.0
 10
287.1559953087335
 20
519.6223724042502
 30
0.0
 11
292.6058465994604
 21
520.4049151536878
 31
0.0
 11
291.7635764286906
 21
519.8890908924716
 31
0.0
 11
290.8590993908941
 21
519.7621121809353
 31
0.0
 11
289.9356020846955
 21
520.3647793391126
 31
0.0
 11
289.0424822939851
 21
520.9219523274233
 31
0.0
 11
288.0166368274513
 21
520.545729511839
 31
0.0
 11
287.1559953087335
 21
519.6223724042502
 31
0.0
  0
LINE
  5
2869
330
A
100
AcDbEntity
  8
本体
  6
Continuous
 62
    84
100
AcDbLine
 10
305.9299213345953
 20
493.2657594576341
 30
0.0
 11
305.9299213345953
 21
295.4657594576342
 31
0.0
  0
LINE
  5
286A
330
A
100
AcDbEntity
  8
本体
  6
Continuous
 62
    84
100
AcDbLine
 10
263.129921334595
 20
294.2657594576343
 30
0.0
 11
263.129921334595
 21
494.2637594576342
 31
0.0
  0
LINE
  5
286B
102
{ACAD_REACTORS
330
28E8
102
}
330
A
100
AcDbEntity
  8
ear
  6
Continuous
100
AcDbLine
 10
265.129921334595
 20
296.2657594576343
 30
0.0
 11
305.1299213345951
 21
296.2657594576343
 31
0.0
  0
LINE
  5
286C
102
{ACAD_REACTORS
330
28E8
102
}
330
A
100
AcDbEntity
  8
ear
  6
Continuous
100
AcDbLine
 10
307.1299213345951
 20
271.2657594576343
 30
0.0
 11
263.129921334595
 21
271.2657594576343
 31
0.0
  0
LINE
  5
286D
102
{ACAD_REACTORS
330
28E8
102
}
330
A
100
AcDbEntity
  8
ear
  6
Continuous
100
AcDbLine
 10
307.1299213345951
 20
269.2657594576343
 30
0.0
 11
263.129921334595
 21
269.2657594576343
 31
0.0
  0
LINE
  5
286E
330
A
100
AcDbEntity
  8
本体
  6
Continuous
 62
    84
100
AcDbLine
 10
276.6299213345951
 20
268.2657594576343
 30
0.0
 11
285.6299213345952
 21
264.7657594576343
 31
0.0
  0
ARC
  5
286F
102
{ACAD_REACTORS
330
28E8
102
}
330
A
100
AcDbEntity
  8
ear
  6
Continuous
100
AcDbCircle
 10
300.473921334595
 20
286.2657594576343
 30
0.0
 40
0.6
100
AcDbArc
 50
135.0674899999984
 51
224.932514000001
  0
ARC
  5
2870
102
{ACAD_REACTORS
330
28E8
102
}
330
A
100
AcDbEntity
  8
ear
  6
Continuous
100
AcDbCircle
 10
297.7859213345956
 20
286.2657594576343
 30
0.0
 40
0.6
100
AcDbArc
 50
315.0674899999983
 51
44.93252000000049
  0
CIRCLE
  5
2871
102
{ACAD_REACTORS
330
28E8
102
}
330
A
100
AcDbEntity
  8
ear
  6
Continuous
100
AcDbCircle
 10
300.5439213345953
 20
286.2657594576343
 30
0.0
 40
0.3
  0
LINE
  5
2872
102
{ACAD_REACTORS
330
28E8
102
}
330
A
100
AcDbEntity
  8
ear
  6
Continuous
100
AcDbLine
 10
307.1299213345951
 20
294.2657594576343
 30
0.0
 11
307.1299213345951
 21
269.2657594576343
 31
0.0
  0
CIRCLE
  5
2873
102
{ACAD_REACTORS
330
28E8
102
}
330
A
100
AcDbEntity
  8
ear
  6
Continuous
100
AcDbCircle
 10
299.1299213345953
 20
286.2657594576343
 30
0.0
 40
3.5
  0
CIRCLE
  5
2874
102
{ACAD_REACTORS
330
28E8
102
}
330
A
100
AcDbEntity
  8
ear
  6
Continuous
100
AcDbCircle
 10
299.1299213345953
 20
286.2657594576343
 30
0.0
 40
4.0
  0
LINE
  5
2875
330
A
100
AcDbEntity
  8
本体
  6
Continuous
 62
    84
100
AcDbLine
 10
300.629921334595
 20
268.2657594576343
 30
0.0
 11
291.6299213345951
 21
264.7657594576343
 31
0.0
  0
LINE
  5
2876
102
{ACAD_REACTORS
330
28E8
102
}
330
A
100
AcDbEntity
  8
ear
  6
Continuous
100
AcDbLine
 10
305.1299213345951
 20
269.2657594576343
 30
0.0
 11
305.1299213345951
 21
271.2657594576343
 31
0.0
  0
LINE
  5
2877
330
A
100
AcDbEntity
  8
本体
  6
Continuous
 62
    84
100
AcDbLine
 10
300.629921334595
 20
269.2657594576343
 30
0.0
 11
300.629921334595
 21
268.2657594576343
 31
0.0
  0
LINE
  5
2878
102
{ACAD_REACTORS
330
28E8
102
}
330
A
100
AcDbEntity
  8
ear
  6
Continuous
100
AcDbLine
 10
298.2109213345956
 20
285.8417594576343
 30
0.0
 11
297.4680793345953
 21
285.0989174576342
 31
0.0
  0
LINE
  5
2879
102
{ACAD_REACTORS
330
28E8
102
}
330
A
100
AcDbEntity
  8
ear
  6
Continuous
100
AcDbLine
 10
297.4680793345953
 20
285.0989174576342
 30
0.0
 11
297.9630793345953
 21
284.6039174576342
 31
0.0
  0
ARC
  5
287A
102
{ACAD_REACTORS
330
28E8
102
}
330
A
100
AcDbEntity
  8
ear
  6
Continuous
100
AcDbCircle
 10
299.1299213345953
 20
284.9217594576342
 30
0.0
 40
0.6
100
AcDbArc
 50
45.06748999999849
 51
134.9325200000002
  0
LINE
  5
287B
102
{ACAD_REACTORS
330
28E8
102
}
330
A
100
AcDbEntity
  8
ear
  6
Continuous
100
AcDbLine
 10
298.7059213345953
 20
285.3467594576342
 30
0.0
 11
297.9630793345953
 21
284.6039174576342
 31
0.0
  0
LINE
  5
287C
102
{ACAD_REACTORS
330
28E8
102
}
330
A
100
AcDbEntity
  8
ear
  6
Continuous
100
AcDbLine
 10
300.7917633345956
 20
285.0989174576342
 30
0.0
 11
300.2967633345953
 21
284.6039174576342
 31
0.0
  0
LINE
  5
287D
102
{ACAD_REACTORS
330
28E8
102
}
330
A
100
AcDbEntity
  8
ear
  6
Continuous
100
AcDbLine
 10
299.5539213345956
 20
285.3467594576342
 30
0.0
 11
300.2967633345953
 21
284.6039174576342
 31
0.0
  0
LINE
  5
287E
102
{ACAD_REACTORS
330
28E8
102
}
330
A
100
AcDbEntity
  8
ear
  6
Continuous
100
AcDbLine
 10
300.0489213345955
 20
285.8417594576343
 30
0.0
 11
300.7917633345956
 21
285.0989174576342
 31
0.0
  0
LINE
  5
287F
330
A
100
AcDbEntity
  8
本体
  6
Continuous
 62
    84
100
AcDbLine
 10
285.6299213345952
 20
264.7657594576343
 30
0.0
 11
291.6299213345951
 21
264.7657594576343
 31
0.0
  0
LINE
  5
2880
330
A
100
AcDbEntity
  8
本体
  6
Continuous
 62
    84
100
AcDbLine
 10
295.2799213345953
 20
268.167759457634
 30
0.0
 11
286.3924793345951
 21
268.167759457634
 31
0.0
  0
LINE
  5
2881
330
A
100
AcDbEntity
  8
本体
  6
Continuous
 62
    84
100
AcDbLine
 10
295.6922933345953
 20
268.580129457634
 30
0.0
 11
295.2799213345953
 21
268.167759457634
 31
0.0
  0
LINE
  5
2882
330
A
100
AcDbEntity
  8
本体
  6
Continuous
 62
    84
100
AcDbLine
 10
295.7128613345953
 20
269.2657594576343
 30
0.0
 11
295.6922933345953
 21
268.580129457634
 31
0.0
  0
LINE
  5
2883
330
A
100
AcDbEntity
  8
本体
  6
Continuous
 62
    84
100
AcDbLine
 10
285.9679273345951
 20
268.5675794576342
 30
0.0
 11
286.3924793345951
 21
268.167759457634
 31
0.0
  0
LINE
  5
2884
330
A
100
AcDbEntity
  8
本体
  6
Continuous
 62
    84
100
AcDbLine
 10
285.9469813345953
 20
269.2657594576343
 30
0.0
 11
285.9679273345951
 21
268.5675794576342
 31
0.0
  0
LINE
  5
2885
102
{ACAD_REACTORS
330
28E8
102
}
330
A
100
AcDbEntity
  8
ear
  6
Continuous
100
AcDbLine
 10
307.1299213345951
 20
294.2657594576343
 30
0.0
 11
305.1299213345951
 21
296.2657594576343
 31
0.0
  0
LINE
  5
2886
102
{ACAD_REACTORS
330
28E8
102
}
330
A
100
AcDbEntity
  8
ear
  6
Continuous
100
AcDbLine
 10
297.9630793345953
 20
287.9276034576344
 30
0.0
 11
297.4680793345953
 21
287.4326034576342
 31
0.0
  0
LINE
  5
2887
102
{ACAD_REACTORS
330
28E8
102
}
330
A
100
AcDbEntity
  8
ear
  6
Continuous
100
AcDbLine
 10
297.4680793345953
 20
287.4326034576342
 30
0.0
 11
298.2109213345956
 21
286.6897594576343
 31
0.0
  0
ARC
  5
2888
102
{ACAD_REACTORS
330
28E8
102
}
330
A
100
AcDbEntity
  8
ear
  6
Continuous
100
AcDbCircle
 10
299.1299213345953
 20
287.6097594576343
 30
0.0
 40
0.6
100
AcDbArc
 50
225.0674869999989
 51
314.9325200000004
  0
LINE
  5
2889
102
{ACAD_REACTORS
330
28E8
102
}
330
A
100
AcDbEntity
  8
ear
  6
Continuous
100
AcDbLine
 10
297.9630793345953
 20
287.9276034576344
 30
0.0
 11
298.7059213345953
 21
287.1847594576341
 31
0.0
  0
LINE
  5
288A
102
{ACAD_REACTORS
330
28E8
102
}
330
A
100
AcDbEntity
  8
ear
  6
Continuous
100
AcDbLine
 10
300.2967633345953
 20
287.9276034576344
 30
0.0
 11
300.7917633345956
 21
287.4326034576342
 31
0.0
  0
LINE
  5
288B
102
{ACAD_REACTORS
330
28E8
102
}
330
A
100
AcDbEntity
  8
ear
  6
Continuous
100
AcDbLine
 10
300.2967633345953
 20
287.9276034576344
 30
0.0
 11
299.5539213345956
 21
287.1847594576341
 31
0.0
  0
LINE
  5
288C
102
{ACAD_REACTORS
330
28E8
102
}
330
A
100
AcDbEntity
  8
ear
  6
Continuous
100
AcDbLine
 10
300.7917633345956
 20
287.4326034576342
 30
0.0
 11
300.0489213345955
 21
286.6897594576343
 31
0.0
  0
LINE
  5
288D
102
{ACAD_REACTORS
330
28E8
102
}
330
A
100
AcDbEntity
  8
ear
  6
Continuous
100
AcDbLine
 10
263.129921334595
 20
269.2657594576343
 30
0.0
 11
263.129921334595
 21
294.2657594576343
 31
0.0
  0
ARC
  5
288E
102
{ACAD_REACTORS
330
28E8
102
}
330
A
100
AcDbEntity
  8
ear
  6
Continuous
100
AcDbCircle
 10
269.7859213345956
 20
286.2657594576343
 30
0.0
 40
0.6
100
AcDbArc
 50
315.0674899999983
 51
44.93252000000049
  0
ARC
  5
288F
102
{ACAD_REACTORS
330
28E8
102
}
330
A
100
AcDbEntity
  8
ear
  6
Continuous
100
AcDbCircle
 10
272.4739213345951
 20
286.2657594576343
 30
0.0
 40
0.6
100
AcDbArc
 50
135.0674899999984
 51
224.932514000001
  0
CIRCLE
  5
2890
102
{ACAD_REACTORS
330
28E8
102
}
330
A
100
AcDbEntity
  8
ear
  6
Continuous
100
AcDbCircle
 10
272.5439213345954
 20
286.2657594576343
 30
0.0
 40
0.3
  0
CIRCLE
  5
2891
102
{ACAD_REACTORS
330
28E8
102
}
330
A
100
AcDbEntity
  8
ear
  6
Continuous
100
AcDbCircle
 10
271.1299213345951
 20
286.2657594576343
 30
0.0
 40
4.0
  0
CIRCLE
  5
2892
102
{ACAD_REACTORS
330
28E8
102
}
330
A
100
AcDbEntity
  8
ear
  6
Continuous
100
AcDbCircle
 10
271.1299213345951
 20
286.2657594576343
 30
0.0
 40
3.5
  0
LINE
  5
2893
102
{ACAD_REACTORS
330
28E8
102
}
330
A
100
AcDbEntity
  8
ear
  6
Continuous
100
AcDbLine
 10
271.5539213345956
 20
285.3467594576342
 30
0.0
 11
272.2967633345954
 21
284.6039174576342
 31
0.0
  0
LINE
  5
2894
330
A
100
AcDbEntity
  8
本体
  6
Continuous
 62
    84
100
AcDbLine
 10
276.6299213345951
 20
269.2657594576343
 30
0.0
 11
276.6299213345951
 21
268.2657594576343
 31
0.0
  0
LINE
  5
2895
102
{ACAD_REACTORS
330
28E8
102
}
330
A
100
AcDbEntity
  8
ear
  6
Continuous
100
AcDbLine
 10
272.0489213345956
 20
285.8417594576343
 30
0.0
 11
272.7917633345956
 21
285.0989174576342
 31
0.0
  0
LINE
  5
2896
102
{ACAD_REACTORS
330
28E8
102
}
330
A
100
AcDbEntity
  8
ear
  6
Continuous
100
AcDbLine
 10
272.7917633345956
 20
285.0989174576342
 30
0.0
 11
272.2967633345954
 21
284.6039174576342
 31
0.0
  0
LINE
  5
2897
102
{ACAD_REACTORS
330
28E8
102
}
330
A
100
AcDbEntity
  8
ear
  6
Continuous
100
AcDbLine
 10
265.129921334595
 20
271.2657594576343
 30
0.0
 11
265.129921334595
 21
269.2657594576343
 31
0.0
  0
LINE
  5
2898
102
{ACAD_REACTORS
330
28E8
102
}
330
A
100
AcDbEntity
  8
ear
  6
Continuous
100
AcDbLine
 10
270.2109213345954
 20
285.8417594576343
 30
0.0
 11
269.4680793345954
 21
285.0989174576342
 31
0.0
  0
LINE
  5
2899
102
{ACAD_REACTORS
330
28E8
102
}
330
A
100
AcDbEntity
  8
ear
  6
Continuous
100
AcDbLine
 10
270.7059213345953
 20
285.3467594576342
 30
0.0
 11
269.9630793345956
 21
284.6039174576342
 31
0.0
  0
ARC
  5
289A
102
{ACAD_REACTORS
330
28E8
102
}
330
A
100
AcDbEntity
  8
ear
  6
Continuous
100
AcDbCircle
 10
271.1299213345951
 20
284.9217594576342
 30
0.0
 40
0.6
100
AcDbArc
 50
45.06748999999849
 51
134.9325200000002
  0
LINE
  5
289B
102
{ACAD_REACTORS
330
28E8
102
}
330
A
100
AcDbEntity
  8
ear
  6
Continuous
100
AcDbLine
 10
269.4680793345954
 20
285.0989174576342
 30
0.0
 11
269.9630793345956
 21
284.6039174576342
 31
0.0
  0
LINE
  5
289C
102
{ACAD_REACTORS
330
28E8
102
}
330
A
100
AcDbEntity
  8
ear
  6
Continuous
100
AcDbLine
 10
272.2967633345954
 20
287.9276034576344
 30
0.0
 11
271.5539213345956
 21
287.1847594576341
 31
0.0
  0
LINE
  5
289D
102
{ACAD_REACTORS
330
28E8
102
}
330
A
100
AcDbEntity
  8
ear
  6
Continuous
100
AcDbLine
 10
272.2967633345954
 20
287.9276034576344
 30
0.0
 11
272.7917633345956
 21
287.4326034576342
 31
0.0
  0
LINE
  5
289E
102
{ACAD_REACTORS
330
28E8
102
}
330
A
100
AcDbEntity
  8
ear
  6
Continuous
100
AcDbLine
 10
272.7917633345956
 20
287.4326034576342
 30
0.0
 11
272.0489213345956
 21
286.6897594576343
 31
0.0
  0
LINE
  5
289F
102
{ACAD_REACTORS
330
28E8
102
}
330
A
100
AcDbEntity
  8
ear
  6
Continuous
100
AcDbLine
 10
269.9630793345956
 20
287.9276034576344
 30
0.0
 11
270.7059213345953
 21
287.1847594576341
 31
0.0
  0
ARC
  5
28A0
102
{ACAD_REACTORS
330
28E8
102
}
330
A
100
AcDbEntity
  8
ear
  6
Continuous
100
AcDbCircle
 10
271.1299213345951
 20
287.6097594576343
 30
0.0
 40
0.6
100
AcDbArc
 50
225.0674869999989
 51
314.9325200000004
  0
LINE
  5
28A1
102
{ACAD_REACTORS
330
28E8
102
}
330
A
100
AcDbEntity
  8
ear
  6
Continuous
100
AcDbLine
 10
269.4680793345954
 20
287.4326034576342
 30
0.0
 11
270.2109213345954
 21
286.6897594576343
 31
0.0
  0
LINE
  5
28A2
102
{ACAD_REACTORS
330
28E8
102
}
330
A
100
AcDbEntity
  8
ear
  6
Continuous
100
AcDbLine
 10
269.9630793345956
 20
287.9276034576344
 30
0.0
 11
269.4680793345954
 21
287.4326034576342
 31
0.0
  0
LINE
  5
28A3
102
{ACAD_REACTORS
330
28E8
102
}
330
A
100
AcDbEntity
  8
ear
  6
Continuous
100
AcDbLine
 10
265.129921334595
 20
296.2657594576343
 30
0.0
 11
263.129921334595
 21
294.2657594576343
 31
0.0
  0
ARC
  5
28A4
330
A
100
AcDbEntity
  8
本体
  6
Continuous
 62
    84
100
AcDbCircle
 10
283.5299213345953
 20
488.4657594576341
 30
0.0
 40
7.799999999999998
100
AcDbArc
 50
98.1072000091963
 51
106.5312809999999
  0
LINE
  5
28A5
330
A
100
AcDbEntity
  8
本体
  6
Continuous
 62
    84
100
AcDbLine
 10
263.129921334595
 20
494.2657594576342
 30
0.0
 11
304.9299213345951
 21
494.2657594576344
 31
0.0
  0
CIRCLE
  5
28A6
330
A
100
AcDbEntity
  8
本体
  6
Continuous
 62
    84
100
AcDbCircle
 10
285.1299213345951
 20
479.2657594576342
 30
0.0
 40
3.049999999999998
  0
CIRCLE
  5
28A7
330
A
100
AcDbEntity
  8
本体
  6
Continuous
 62
    84
100
AcDbCircle
 10
285.1299213345951
 20
479.2657594576342
 30
0.0
 40
2.85
  0
ARC
  5
28A8
330
A
100
AcDbEntity
  8
本体
  6
Continuous
 62
    84
100
AcDbCircle
 10
283.7859213345952
 20
479.2657594576342
 30
0.0
 40
0.6
100
AcDbArc
 50
315.0674859999988
 51
44.93250999999925
  0
LINE
  5
28A9
330
A
100
AcDbEntity
  8
本体
  6
Continuous
 62
    84
100
AcDbLine
 10
284.7059213345953
 20
478.3467594576342
 30
0.0
 11
284.2459213345953
 21
477.8867594576341
 31
0.0
  0
LINE
  5
28AA
330
A
100
AcDbEntity
  8
本体
  6
Continuous
 62
    84
100
AcDbLine
 10
284.2459213345953
 20
480.6447594576343
 30
0.0
 11
284.7059213345953
 21
480.1847594576343
 31
0.0
  0
ARC
  5
28AB
330
A
100
AcDbEntity
  8
本体
  6
Continuous
 62
    84
100
AcDbCircle
 10
285.1299213345951
 20
477.9217594576341
 30
0.0
 40
0.6
100
AcDbArc
 50
45.06748000000192
 51
134.9325100000015
  0
ARC
  5
28AC
330
A
100
AcDbEntity
  8
本体
  6
Continuous
 62
    84
100
AcDbCircle
 10
286.4739213345951
 20
479.2657594576342
 30
0.0
 40
0.6
100
AcDbArc
 50
135.0674799999995
 51
224.9325099999992
  0
ARC
  5
28AD
330
A
100
AcDbEntity
  8
本体
  6
Continuous
 62
    84
100
AcDbCircle
 10
285.1299213345951
 20
480.6097594576342
 30
0.0
 40
0.6
100
AcDbArc
 50
225.0674800000019
 51
314.9325130000011
  0
LINE
  5
28AE
330
A
100
AcDbEntity
  8
本体
  6
Continuous
 62
    84
100
AcDbLine
 10
286.0139213345953
 20
480.6447594576343
 30
0.0
 11
285.5539213345953
 21
480.1847594576343
 31
0.0
  0
LINE
  5
28AF
330
A
100
AcDbEntity
  8
本体
  6
Continuous
 62
    84
100
AcDbLine
 10
285.5539213345953
 20
478.3467594576342
 30
0.0
 11
286.0139213345953
 21
477.8867594576341
 31
0.0
  0
LINE
  5
28B0
330
A
100
AcDbEntity
  8
本体
  6
Continuous
 62
    84
100
AcDbLine
 10
286.0489213345953
 20
478.8417594576342
 30
0.0
 11
286.5089213345953
 21
478.3817594576341
 31
0.0
  0
LINE
  5
28B1
330
A
100
AcDbEntity
  8
本体
  6
Continuous
 62
    84
100
AcDbLine
 10
286.5089213345953
 20
480.1497594576342
 30
0.0
 11
286.0489213345953
 21
479.6897594576343
 31
0.0
  0
LINE
  5
28B2
330
A
100
AcDbEntity
  8
本体
  6
Continuous
 62
    84
100
AcDbLine
 10
286.5089213345953
 20
478.3817594576341
 30
0.0
 11
286.0139213345953
 21
477.8867594576341
 31
0.0
  0
LINE
  5
28B3
330
A
100
AcDbEntity
  8
本体
  6
Continuous
 62
    84
100
AcDbLine
 10
286.0139213345953
 20
480.6447594576343
 30
0.0
 11
286.5089213345953
 21
480.1497594576342
 31
0.0
  0
LINE
  5
28B4
330
A
100
AcDbEntity
  8
本体
  6
Continuous
 62
    84
100
AcDbLine
 10
288.2549213345953
 20
520.7125974576341
 30
0.0
 11
288.2549213345953
 21
498.065759457634
 31
0.0
  0
LINE
  5
28B5
330
A
100
AcDbEntity
  8
本体
  6
Continuous
 62
    84
100
AcDbLine
 10
290.5549213345953
 20
519.8870294576343
 30
0.0
 11
290.5549213345953
 21
498.065759457634
 31
0.0
  0
LINE
  5
28B7
330
A
100
AcDbEntity
  8
本体
  6
Continuous
 62
    84
100
AcDbLine
 10
305.9299213345953
 20
493.2657594576341
 30
0.0
 11
304.9299213345951
 21
494.2657594576344
 31
0.0
  0
LINE
  5
28B8
330
A
100
AcDbEntity
  8
本体
  6
Continuous
 62
    84
100
AcDbLine
 10
298.5299213345953
 20
494.5657594576342
 30
0.0
 11
298.5299213345953
 21
494.2657594576344
 31
0.0
  0
LINE
  5
28B9
330
A
100
AcDbEntity
  8
本体
  6
Continuous
 62
    84
100
AcDbLine
 10
296.7799213345953
 20
505.5657594576342
 30
0.0
 11
296.7799213345953
 21
494.5657594576342
 31
0.0
  0
LINE
  5
28BA
330
A
100
AcDbEntity
  8
本体
  6
Continuous
 62
    84
100
AcDbLine
 10
287.2799213345953
 20
505.5657594576342
 30
0.0
 11
287.2799213345953
 21
498.065759457634
 31
0.0
  0
CIRCLE
  5
28BB
330
A
100
AcDbEntity
  8
本体
  6
Continuous
 62
    84
100
AcDbCircle
 10
292.0299213345953
 20
501.3257594576344
 30
0.0
 40
1.0
  0
LINE
  5
28CF
330
A
100
AcDbEntity
  8
本体
  6
Continuous
 62
    84
100
AcDbLine
 10
298.5299213345953
 20
494.5657594576342
 30
0.0
 11
295.4299213345951
 21
494.5657594576342
 31
0.0
  0
LINE
  5
28DA
330
A
100
AcDbEntity
  8
本体
  6
Continuous
 62
    84
100
AcDbLine
 10
287.2799213345953
 20
505.5657594576342
 30
0.0
 11
288.2549213345953
 21
505.5657594576342
 31
0.0
  0
LINE
  5
28DB
330
A
100
AcDbEntity
  8
本体
  6
Continuous
 62
    84
100
AcDbLine
 10
284.2109213345953
 20
478.8417594576342
 30
0.0
 11
283.7509213345953
 21
478.3817594576341
 31
0.0
  0
LINE
  5
28DC
330
A
100
AcDbEntity
  8
本体
  6
Continuous
 62
    84
100
AcDbLine
 10
283.7509213345953
 20
480.1497594576342
 30
0.0
 11
284.2109213345953
 21
479.6897594576343
 31
0.0
  0
CIRCLE
  5
28DD
330
A
100
AcDbEntity
  8
本体
  6
Continuous
 62
    84
100
AcDbCircle
 10
283.7159213345951
 20
479.2657594576342
 30
0.0
 40
0.3
  0
LINE
  5
28DE
330
A
100
AcDbEntity
  8
本体
  6
Continuous
 62
    84
100
AcDbLine
 10
284.2459213345953
 20
480.6447594576343
 30
0.0
 11
283.7509213345953
 21
480.1497594576342
 31
0.0
  0
LINE
  5
28DF
330
A
100
AcDbEntity
  8
本体
  6
Continuous
 62
    84
100
AcDbLine
 10
283.7509213345953
 20
478.3817594576341
 30
0.0
 11
284.2459213345953
 21
477.8867594576341
 31
0.0
  0
LINE
  5
28E0
330
A
100
AcDbEntity
  8
本体
  6
Continuous
 62
    84
100
AcDbLine
 10
281.5299213345953
 20
494.5657594576342
 30
0.0
 11
268.5299213345953
 21
494.5657594576342
 31
0.0
  0
LINE
  5
28E1
330
A
100
AcDbEntity
  8
本体
  6
Continuous
 62
    84
100
AcDbLine
 10
270.2799213345953
 20
505.5657594576342
 30
0.0
 11
279.7799213345953
 21
505.5657594576342
 31
0.0
  0
LINE
  5
28E2
330
A
100
AcDbEntity
  8
本体
  6
Continuous
 62
    84
100
AcDbLine
 10
279.7799213345953
 20
505.5657594576342
 30
0.0
 11
279.7799213345953
 21
494.5657594576342
 31
0.0
  0
CIRCLE
  5
28E3
330
A
100
AcDbEntity
  8
本体
  6
Continuous
 62
    84
100
AcDbCircle
 10
275.0299213345953
 20
501.3257594576344
 30
0.0
 40
1.0
  0
LINE
  5
28E4
330
A
100
AcDbEntity
  8
本体
  6
Continuous
 62
    84
100
AcDbLine
 10
281.5299213345953
 20
494.5657594576342
 30
0.0
 11
281.5299213345953
 21
494.2657594576344
 31
0.0
  0
ARC
  5
28E5
330
A
100
AcDbEntity
  8
本体
  6
Continuous
 62
    84
100
AcDbCircle
 10
282.2049213345952
 20
494.9657594576343
 30
0.0
 40
1.324999999999999
100
AcDbArc
 50
132.4557610000008
 51
197.570963999998
  0
LINE
  5
28E6
330
A
100
AcDbEntity
  8
本体
  6
Continuous
 62
    84
100
AcDbLine
 10
270.2799213345953
 20
505.5657594576342
 30
0.0
 11
270.2799213345953
 21
494.5657594576342
 31
0.0
  0
LINE
  5
28E7
330
A
100
AcDbEntity
  8
本体
  6
Continuous
 62
    84
100
AcDbLine
 10
268.5299213345953
 20
494.5657594576342
 30
0.0
 11
268.5299213345953
 21
494.2657594576342
 31
0.0
  0
LINE
  5
28EC
330
A
100
AcDbEntity
  8
本体
  6
Continuous
 62
    84
100
AcDbLine
 10
282.4299213345951
 20
494.2657594576344
 30
0.0
 11
295.4299213345953
 21
494.2657594576344
 31
0.0
  0
LINE
  5
28ED
330
A
100
AcDbEntity
  8
本体
  6
Continuous
 62
    84
100
AcDbLine
 10
293.4299213345953
 20
498.065759457634
 30
0.0
 11
284.4299213345951
 21
498.065759457634
 31
0.0
  0
ARC
  5
28F0
330
A
100
AcDbEntity
  8
本体
  6
Continuous
 62
    84
100
AcDbCircle
 10
284.4299213345951
 20
496.0657594576343
 30
0.0
 40
2.0
100
AcDbArc
 50
89.99999999999998
 51
180.0
  0
LINE
  5
28F1
330
A
100
AcDbEntity
  8
本体
  6
Continuous
 62
    84
100
AcDbLine
 10
282.4299213345951
 20
494.2657594576344
 30
0.0
 11
282.4299213345951
 21
496.0657594576343
 31
0.0
  0
ARC
  5
28F3
330
A
100
AcDbEntity
  8
本体
  6
Continuous
 62
    84
100
AcDbCircle
 10
293.4299213345953
 20
496.0657594576343
 30
0.0
 40
2.0
100
AcDbArc
 50
0.0
 51
89.99999999999998
  0
LINE
  5
28F4
330
A
100
AcDbEntity
  8
本体
  6
Continuous
 62
    84
100
AcDbLine
 10
295.4299213345953
 20
494.2657594576344
 30
0.0
 11
295.4299213345953
 21
496.0657594576343
 31
0.0
  0
LINE
  5
28F5
330
A
100
AcDbEntity
  8
本体
  6
Continuous
 62
    84
100
AcDbLine
 10
290.5549213345953
 20
505.5657594576342
 30
0.0
 11
296.7799213345953
 21
505.5657594576342
 31
0.0
  0
LINE
  5
2A46
102
{ACAD_REACTORS
330
2AA6
102
}
330
A
100
AcDbEntity
  8
ear
  6
CENTER
 48
0.5
100
AcDbLine
 10
235.2514489999998
 20
639.7258207631206
 30
0.0
 11
235.2514489999998
 21
598.9758207631206
 31
0.0
  0
LINE
  5
2A47
102
{ACAD_REACTORS
330
2AA6
102
}
330
A
100
AcDbEntity
  8
ear
  6
Continuous
100
AcDbLine
 10
2.251448999999979
 20
641.3508207631206
 30
0.0
 11
241.2514489999998
 21
641.3508207631206
 31
0.0
  0
LINE
  5
2A48
102
{ACAD_REACTORS
330
2AA6
102
}
330
A
100
AcDbEntity
  8
ear
  6
Continuous
100
AcDbLine
 10
2.251448999999979
 20
597.3508207631207
 30
0.0
 11
241.2514489999998
 21
597.3508207631207
 31
0.0
  0
ARC
  5
2A49
102
{ACAD_REACTORS
330
2AA6
102
}
330
A
100
AcDbEntity
  8
ear
  6
Continuous
100
AcDbCircle
 10
-1.248551000000132
 20
606.3508207631206
 30
0.0
 40
8.0
100
AcDbArc
 50
330.6269609999989
 51
29.37303900000097
  0
ARC
  5
2A4A
102
{ACAD_REACTORS
330
2AA6
102
}
330
A
100
AcDbEntity
  8
ear
  6
Continuous
100
AcDbCircle
 10
5.251448999999978
 20
603.8508207631206
 30
0.0
 40
1.5
100
AcDbArc
 50
228.1896850000005
 51
288.3228949999987
  0
LINE
  5
2A4B
102
{ACAD_REACTORS
330
2AA6
102
}
330
A
100
AcDbEntity
  8
ear
  6
Continuous
100
AcDbLine
 10
4.251448999999977
 20
597.3508207631207
 30
0.0
 11
4.251448999999977
 21
641.3508207631206
 31
0.0
  0
LINE
  5
2A4C
102
{ACAD_REACTORS
330
2AA6
102
}
330
A
100
AcDbEntity
  8
ear
  6
Continuous
100
AcDbLine
 10
2.251448999999979
 20
641.3508207631206
 30
0.0
 11
2.251448999999979
 21
597.3508207631207
 31
0.0
  0
LINE
  5
2A4D
102
{ACAD_REACTORS
330
2AA6
102
}
330
A
100
AcDbEntity
  8
ear
  6
Continuous
100
AcDbLine
 10
4.251448999999977
 20
599.3508207631207
 30
0.0
 11
2.251448999999979
 21
599.3508207631207
 31
0.0
  0
LINE
  5
2A4E
102
{ACAD_REACTORS
330
2AA6
102
}
330
A
100
AcDbEntity
  8
ear
  6
Continuous
100
AcDbLine
 10
4.251162274128886
 20
628.6570607094247
 30
0.0
 11
4.251162274128886
 21
635.8931287094248
 31
0.0
  0
ARC
  5
2A4F
102
{ACAD_REACTORS
330
2AA6
102
}
330
A
100
AcDbEntity
  8
ear
  6
Continuous
100
AcDbCircle
 10
-1.248837725870997
 20
632.2750947094247
 30
0.0
 40
8.0
100
AcDbArc
 50
330.6269609999989
 51
29.37303900000097
  0
LINE
  5
2A50
102
{ACAD_REACTORS
330
2AA6
102
}
330
A
100
AcDbEntity
  8
ear
  6
Continuous
100
AcDbLine
 10
4.251448999999977
 20
602.7327867631206
 30
0.0
 11
4.251448999999977
 21
609.9688547631203
 31
0.0
  0
ARC
  5
2A51
102
{ACAD_REACTORS
330
2AA6
102
}
330
A
100
AcDbEntity
  8
ear
  6
Continuous
100
AcDbCircle
 10
5.251448999999978
 20
608.8508207631206
 30
0.0
 40
1.5
100
AcDbArc
 50
71.67710500000123
 51
131.8103149999994
  0
ARC
  5
2A52
102
{ACAD_REACTORS
330
2AA6
102
}
330
A
100
AcDbEntity
  8
ear
  6
Continuous
100
AcDbCircle
 10
5.251162274129001
 20
629.7750947094246
 30
0.0
 40
1.5
100
AcDbArc
 50
228.1896850000005
 51
288.3228949999987
  0
ARC
  5
2A53
102
{ACAD_REACTORS
330
2AA6
102
}
330
A
100
AcDbEntity
  8
ear
  6
Continuous
100
AcDbCircle
 10
5.251162274129001
 20
634.7750947094246
 30
0.0
 40
1.5
100
AcDbArc
 50
71.67710500000123
 51
131.8103149999994
  0
LINE
  5
2A54
102
{ACAD_REACTORS
330
2AA6
102
}
330
A
100
AcDbEntity
  8
ear
  6
Continuous
100
AcDbLine
 10
4.251448999999977
 20
639.3508207631207
 30
0.0
 11
2.251448999999979
 21
639.3508207631207
 31
0.0
  0
ARC
  5
2A55
102
{ACAD_REACTORS
330
2AA6
102
}
330
A
100
AcDbEntity
  8
ear
  6
Continuous
100
AcDbCircle
 10
237.2514489999998
 20
603.4758207631206
 30
0.0
 40
3.5
100
AcDbArc
 50
270.0
 51
90.0
  0
ARC
  5
2A56
102
{ACAD_REACTORS
330
2AA6
102
}
330
A
100
AcDbEntity
  8
ear
  6
Continuous
100
AcDbCircle
 10
233.2514489999998
 20
603.4758207631206
 30
0.0
 40
3.5
100
AcDbArc
 50
90.0
 51
270.0
  0
LINE
  5
2A57
102
{ACAD_REACTORS
330
2AA6
102
}
330
A
100
AcDbEntity
  8
ear
  6
Continuous
100
AcDbLine
 10
243.2514489999998
 20
639.3508207631206
 30
0.0
 11
243.2514489999998
 21
599.3508207631207
 31
0.0
  0
LINE
  5
2A58
102
{ACAD_REACTORS
330
2AA6
102
}
330
A
100
AcDbEntity
  8
ear
  6
Continuous
100
AcDbLine
 10
233.2514489999998
 20
599.9758207631206
 30
0.0
 11
237.2514489999998
 21
599.9758207631206
 31
0.0
  0
LINE
  5
2A59
102
{ACAD_REACTORS
330
2AA6
102
}
330
A
100
AcDbEntity
  8
ear
  6
Continuous
100
AcDbLine
 10
243.2514489999998
 20
599.3508207631207
 30
0.0
 11
241.2514489999998
 21
597.3508207631207
 31
0.0
  0
ARC
  5
2A5A
102
{ACAD_REACTORS
330
2AA6
102
}
330
A
100
AcDbEntity
  8
ear
  6
Continuous
100
AcDbCircle
 10
237.2514489999998
 20
635.2258207631206
 30
0.0
 40
3.5
100
AcDbArc
 50
270.0
 51
90.0
  0
ARC
  5
2A5B
102
{ACAD_REACTORS
330
2AA6
102
}
330
A
100
AcDbEntity
  8
ear
  6
Continuous
100
AcDbCircle
 10
233.2514489999998
 20
635.2258207631206
 30
0.0
 40
3.5
100
AcDbArc
 50
90.0
 51
270.0
  0
LINE
  5
2A5C
102
{ACAD_REACTORS
330
2AA6
102
}
330
A
100
AcDbEntity
  8
ear
  6
CENTER
 48
0.2
100
AcDbLine
 10
241.7514489999998
 20
635.2258207631206
 30
0.0
 11
228.7514489999998
 21
635.2258207631206
 31
0.0
  0
LINE
  5
2A5D
102
{ACAD_REACTORS
330
2AA6
102
}
330
A
100
AcDbEntity
  8
ear
  6
CENTER
 48
0.2
100
AcDbLine
 10
241.7514489999998
 20
603.4758207631206
 30
0.0
 11
228.7514489999998
 21
603.4758207631206
 31
0.0
  0
LINE
  5
2A5E
102
{ACAD_REACTORS
330
2AA6
102
}
330
A
100
AcDbEntity
  8
ear
  6
Continuous
100
AcDbLine
 10
233.2514489999998
 20
606.9758207631206
 30
0.0
 11
237.2514489999998
 21
606.9758207631206
 31
0.0
  0
LINE
  5
2A5F
102
{ACAD_REACTORS
330
2AA6
102
}
330
A
100
AcDbEntity
  8
ear
  6
Continuous
100
AcDbLine
 10
233.2514489999998
 20
631.7258207631207
 30
0.0
 11
237.2514489999998
 21
631.7258207631207
 31
0.0
  0
LINE
  5
2A60
102
{ACAD_REACTORS
330
2AA6
102
}
330
A
100
AcDbEntity
  8
ear
  6
Continuous
100
AcDbLine
 10
233.2514489999998
 20
638.7258207631206
 30
0.0
 11
237.2514489999998
 21
638.7258207631206
 31
0.0
  0
LINE
  5
2A61
102
{ACAD_REACTORS
330
2AA6
102
}
330
A
100
AcDbEntity
  8
ear
  6
Continuous
100
AcDbLine
 10
241.2514489999998
 20
641.3508207631206
 30
0.0
 11
243.2514489999998
 21
639.3508207631206
 31
0.0
  0
LINE
  5
2A62
102
{ACAD_REACTORS
330
2AA7
102
}
330
A
100
AcDbEntity
  8
ear
  6
Continuous
100
AcDbLine
 10
4.251448999999865
 20
271.2657594576346
 30
0.0
 11
243.2514489999998
 21
271.2657594576346
 31
0.0
  0
LINE
  5
2A63
102
{ACAD_REACTORS
330
2AA7
102
}
330
A
100
AcDbEntity
  8
ear
  6
Continuous
100
AcDbLine
 10
4.251448999999865
 20
269.2657594576346
 30
0.0
 11
243.2514489999998
 21
269.2657594576346
 31
0.0
  0
ARC
  5
2A64
102
{ACAD_REACTORS
330
2AA7
102
}
330
A
100
AcDbEntity
  8
ear
  6
Continuous
100
AcDbCircle
 10
-1.24855091060283
 20
286.2667511079911
 30
0.0
 40
8.0
100
AcDbArc
 50
330.6166305671823
 51
29.36270856718326
  0
LINE
  5
2A65
102
{ACAD_REACTORS
330
2AA7
102
}
330
A
100
AcDbEntity
  8
ear
  6
Continuous
100
AcDbLine
 10
4.251448999999865
 20
296.2657594576345
 30
0.0
 11
4.251448999999865
 21
271.2657594576346
 31
0.0
  0
LINE
  5
2A66
102
{ACAD_REACTORS
330
2AA7
102
}
330
A
100
AcDbEntity
  8
ear
  6
Continuous
100
AcDbLine
 10
2.251448999999865
 20
296.2657594576345
 30
0.0
 11
2.251448999999865
 21
271.2657594576346
 31
0.0
  0
ARC
  5
2A67
102
{ACAD_REACTORS
330
2AA7
102
}
330
A
100
AcDbEntity
  8
ear
  6
Continuous
100
AcDbCircle
 10
4.251448999999865
 20
271.2657594576346
 30
0.0
 40
2.0
100
AcDbArc
 50
180.0
 51
270.0
  0
ARC
  5
2A68
102
{ACAD_REACTORS
330
2AA7
102
}
330
A
100
AcDbEntity
  8
ear
  6
Continuous
100
AcDbCircle
 10
5.251899733907862
 20
288.7655791169346
 30
0.0
 40
1.5
100
AcDbArc
 50
71.66677456718097
 51
131.799984567183
  0
LINE
  5
2A69
102
{ACAD_REACTORS
330
2AA7
102
}
330
A
100
AcDbEntity
  8
ear
  6
Continuous
100
AcDbLine
 10
2.251448999999865
 20
294.2657594576346
 30
0.0
 11
4.251448999999865
 21
294.2657594576346
 31
0.0
  0
LINE
  5
2A6A
102
{ACAD_REACTORS
330
2AA7
102
}
330
A
100
AcDbEntity
  8
ear
  6
Continuous
100
AcDbLine
 10
2.251448999999865
 20
296.2657594576345
 30
0.0
 11
4.251448999999865
 21
296.2657594576345
 31
0.0
  0
ARC
  5
2A6B
102
{ACAD_REACTORS
330
2AA7
102
}
330
A
100
AcDbEntity
  8
ear
  6
Continuous
100
AcDbCircle
 10
5.250998233583572
 20
283.7655791982043
 30
0.0
 40
1.5
100
AcDbArc
 50
228.1793545671841
 51
288.3125645671806
  0
LINE
  5
2A6C
102
{ACAD_REACTORS
330
2AA7
102
}
330
A
100
AcDbEntity
  8
ear
  6
Continuous
100
AcDbLine
 10
4.252101331764492
 20
289.8837933988263
 30
0.0
 11
4.250796668235125
 21
282.6477255164423
 31
0.0
  0
LINE
  5
2A6D
102
{ACAD_REACTORS
330
2AA7
102
}
330
A
100
AcDbEntity
  8
ear
  6
Continuous
100
AcDbLine
 10
241.2514489999998
 20
271.2657594576346
 30
0.0
 11
241.2514489999998
 21
269.2657594576346
 31
0.0
  0
LINE
  5
2A6E
102
{ACAD_REACTORS
330
2AA7
102
}
330
A
100
AcDbEntity
  8
ear
  6
Continuous
100
AcDbLine
 10
243.2514489999998
 20
271.2657594576346
 30
0.0
 11
243.2514489999998
 21
269.2657594576346
 31
0.0
  0
LINE
  5
2A6F
102
{ACAD_REACTORS
330
2AA8
102
}
330
A
100
AcDbEntity
  8
ear
  6
Continuous
100
AcDbLine
 10
2.251448999999865
 20
228.2632674483007
 30
0.0
 11
241.2514489999998
 21
228.2632674483007
 31
0.0
  0
LINE
  5
2A70
102
{ACAD_REACTORS
330
2AA8
102
}
330
A
100
AcDbEntity
  8
ear
  6
Continuous
100
AcDbLine
 10
2.251448999999865
 20
184.2632674483009
 30
0.0
 11
241.2514489999998
 21
184.2632674483009
 31
0.0
  0
LINE
  5
2A71
102
{ACAD_REACTORS
330
2AA8
102
}
330
A
100
AcDbEntity
  8
ear
  6
Continuous
100
AcDbLine
 10
2.251448999999865
 20
228.2632674483007
 30
0.0
 11
2.251448999999865
 21
184.2632674483009
 31
0.0
  0
DIMENSION
  5
2A72
102
{ACAD_REACTORS
330
2AA8
102
}
330
A
100
AcDbEntity
  8
寸法
  6
Continuous
100
AcDbDimension
  2
*D18
 10
234.6569087191464
 20
192.7373865876871
 30
0.0
 11
286.5808841052611
 21
165.676809505189
 31
0.0
 70
   163
  1
4-10×<>(長丸)
 71
     5
 42
7.000000000000142
  3
ARTICS
100
AcDbDiametricDimension
 15
239.8459892808527
 25
188.0391483089144
 35
0.0
 40
0.0
1001
ACAD
1000
DSTYLE
1002
{
1070
   141
1040
0.0
1070
   172
1070
     0
1002
}
  0
LINE
  5
2A73
102
{ACAD_REACTORS
330
2AA8
102
}
330
A
100
AcDbEntity
  8
ear
  6
CENTER
 48
0.5
100
AcDbLine
 10
235.2514489999998
 20
226.6382674483009
 30
0.0
 11
235.2514489999998
 21
185.8882674483006
 31
0.0
  0
LINE
  5
2A74
102
{ACAD_REACTORS
330
2AA8
102
}
330
A
100
AcDbEntity
  8
ear
  6
Continuous
100
AcDbLine
 10
243.2514489999998
 20
226.2632674483007
 30
0.0
 11
243.2514489999998
 21
186.2632674483008
 31
0.0
  0
LINE
  5
2A75
102
{ACAD_REACTORS
330
2AA8
102
}
330
A
100
AcDbEntity
  8
ear
  6
CENTER
 48
0.2
100
AcDbLine
 10
241.7514489999998
 20
190.3882674483008
 30
0.0
 11
228.7514489999998
 21
190.3882674483008
 31
0.0
  0
ARC
  5
2A76
102
{ACAD_REACTORS
330
2AA8
102
}
330
A
100
AcDbEntity
  8
ear
  6
Continuous
100
AcDbCircle
 10
233.2514489999998
 20
190.3882674483008
 30
0.0
 40
3.5
100
AcDbArc
 50
90.0
 51
270.0
  0
ARC
  5
2A77
102
{ACAD_REACTORS
330
2AA8
102
}
330
A
100
AcDbEntity
  8
ear
  6
Continuous
100
AcDbCircle
 10
237.2514489999998
 20
190.3882674483008
 30
0.0
 40
3.5
100
AcDbArc
 50
270.0
 51
90.0
  0
LINE
  5
2A78
102
{ACAD_REACTORS
330
2AA8
102
}
330
A
100
AcDbEntity
  8
ear
  6
Continuous
100
AcDbLine
 10
233.2514489999998
 20
186.8882674483007
 30
0.0
 11
237.2514489999998
 21
186.8882674483007
 31
0.0
  0
LINE
  5
2A79
102
{ACAD_REACTORS
330
2AA8
102
}
330
A
100
AcDbEntity
  8
ear
  6
Continuous
100
AcDbLine
 10
243.2514489999998
 20
186.2632674483008
 30
0.0
 11
241.2514489999998
 21
184.2632674483009
 31
0.0
  0
LINE
  5
2A7A
102
{ACAD_REACTORS
330
2AA8
102
}
330
A
100
AcDbEntity
  8
ear
  6
Continuous
100
AcDbLine
 10
233.2514489999998
 20
193.8882674483008
 30
0.0
 11
237.2514489999998
 21
193.8882674483008
 31
0.0
  0
LINE
  5
2A7B
102
{ACAD_REACTORS
330
2AA8
102
}
330
A
100
AcDbEntity
  8
ear
  6
CENTER
 48
0.2
100
AcDbLine
 10
241.7514489999998
 20
222.1382674483009
 30
0.0
 11
228.7514489999998
 21
222.1382674483009
 31
0.0
  0
ARC
  5
2A7C
102
{ACAD_REACTORS
330
2AA8
102
}
330
A
100
AcDbEntity
  8
ear
  6
Continuous
100
AcDbCircle
 10
233.2514489999998
 20
222.1382674483009
 30
0.0
 40
3.5
100
AcDbArc
 50
90.0
 51
270.0
  0
ARC
  5
2A7D
102
{ACAD_REACTORS
330
2AA8
102
}
330
A
100
AcDbEntity
  8
ear
  6
Continuous
100
AcDbCircle
 10
237.2514489999998
 20
222.1382674483009
 30
0.0
 40
3.5
100
AcDbArc
 50
270.0
 51
90.0
  0
LINE
  5
2A7E
102
{ACAD_REACTORS
330
2AA8
102
}
330
A
100
AcDbEntity
  8
ear
  6
Continuous
100
AcDbLine
 10
233.2514489999998
 20
218.6382674483008
 30
0.0
 11
237.2514489999998
 21
218.6382674483008
 31
0.0
  0
LINE
  5
2A7F
102
{ACAD_REACTORS
330
2AA8
102
}
330
A
100
AcDbEntity
  8
ear
  6
Continuous
100
AcDbLine
 10
233.2514489999998
 20
225.6382674483007
 30
0.0
 11
237.2514489999998
 21
225.6382674483007
 31
0.0
  0
LINE
  5
2A80
102
{ACAD_REACTORS
330
2AA8
102
}
330
A
100
AcDbEntity
  8
ear
  6
Continuous
100
AcDbLine
 10
241.2514489999998
 20
228.2632674483007
 30
0.0
 11
243.2514489999998
 21
226.2632674483007
 31
0.0
  0
DIMENSION
  5
2A81
330
A
100
AcDbEntity
  8
寸法
  6
Continuous
100
AcDbDimension
  2
*D19
 10
243.2514489999999
 20
164.7895167399098
 30
0.0
 11
121.1661191555454
 21
171.5327178736951
 31
0.0
 70
   160
  1
<>
 71
     5
 42
241.0002867258707
  3
ARTICS
100
AcDbAlignedDimension
 13
2.25116227412917
 23
184.3389935019969
 33
0.0
 14
243.2514489999999
 24
184.2632674483009
 34
0.0
100
AcDbRotatedDimension
1001
ACAD
1000
DSTYLE
1002
{
1070
   140
1040
8.0
1070
   279
1070
     2
1070
   340
1005
3E4
1002
}
  0
LINE
  5
2AE6
330
A
100
AcDbEntity
  8
本体
  6
Continuous
 62
    84
100
AcDbLine
 10
2.251448999999922
 20
622.3508207631207
 30
0.0
 11
2.251448999999922
 21
616.3508207631207
 31
0.0
  0
ARC
  5
2AE7
330
A
100
AcDbEntity
  8
本体
  6
Continuous
 62
    84
100
AcDbCircle
 10
-3.548551000000088
 20
619.3508207631207
 30
0.0
 40
7.799999999999998
100
AcDbArc
 50
337.3801400000006
 51
22.6198700000005
  0
ARC
  5
2AE8
330
A
100
AcDbEntity
  8
本体
  6
Continuous
 62
    84
100
AcDbCircle
 10
2.951448999999911
 20
617.4758207631207
 30
0.0
 40
1.324999999999999
100
AcDbArc
 50
238.1092089999989
 51
301.8908000000013
  0
ARC
  5
2AE9
330
A
100
AcDbEntity
  8
本体
  6
Continuous
 62
    84
100
AcDbCircle
 10
2.951448999999911
 20
621.2258207631207
 30
0.0
 40
1.324999999999999
100
AcDbArc
 50
58.10921000000099
 51
121.8908000000013
  0
ARC
  5
2AEA
330
A
100
AcDbEntity
  8
本体
  6
Continuous
 62
    84
100
AcDbCircle
 10
-3.548551000000088
 20
479.2657594576346
 30
0.0
 40
7.799999999999998
100
AcDbArc
 50
337.3801299999995
 51
22.61986400000017
  0
LINE
  5
2AEB
330
A
100
AcDbEntity
  8
本体
  6
Continuous
 62
    84
100
AcDbLine
 10
2.251448999999922
 20
476.2657594576346
 30
0.0
 11
2.251448999999922
 21
482.2657594576346
 31
0.0
  0
ARC
  5
2AEC
330
A
100
AcDbEntity
  8
本体
  6
Continuous
 62
    84
100
AcDbCircle
 10
2.951448999999911
 20
477.3907594576346
 30
0.0
 40
1.324999999999999
100
AcDbArc
 50
238.1091999999986
 51
301.8907899999991
  0
ARC
  5
2AED
330
A
100
AcDbEntity
  8
本体
  6
Continuous
 62
    84
100
AcDbCircle
 10
2.951448999999911
 20
481.1407594576346
 30
0.0
 40
1.324999999999999
100
AcDbArc
 50
58.1092079999993
 51
121.8907899999992
  0
VIEWPORT
  5
EDA
330
ED3
100
AcDbEntity
 67
     1
  8
0
  6
Continuous
100
AcDbViewport
 10
363.1258730412413
 20
115.5143422221747
 30
0.0
 40
1418.994434598837
 41
548.3692419779696
 68
     1
 69
     1
 12
363.1258730412413
 22
115.5143422221747
 13
0.0
 23
0.0
 14
10.0
 24
10.0
 15
10.0
 25
10.0
 16
0.0
 26
0.0
 36
1.0
 17
0.0
 27
0.0
 37
0.0
 42
50.0
 43
0.0
 44
0.0
 45
548.3692419779696
 50
0.0
 51
0.0
 72
   100
 90
    32800
  1

281
     0
 71
     1
 74
     0
110
0.0
120
0.0
130
0.0
111
1.0
121
0.0
131
0.0
112
0.0
122
1.0
132
0.0
 79
     0
146
0.0
  0
VIEWPORT
  5
EDC
330
ED3
100
AcDbEntity
 67
     1
  8
DEFPOINTS
  6
Continuous
100
AcDbViewport
 10
204.3821684669572
 20
309.1239178220781
 30
0.0
 40
408.319122392205
 41
525.3404735971537
 68
     2
 69
     2
 12
7.060577855718094
 22
534.5742866737407
 13
0.0
 23
0.0
 14
1.0
 24
1.0
 15
0.0
 25
0.0
 16
0.0
 26
0.0
 36
1.0
 17
0.0
 27
0.0
 37
0.0
 42
50.0
 43
0.0
 44
0.0
 45
1050.680947291257
 50
0.0
 51
0.0
 72
   100
 90
    32800
  1

281
     0
 71
     1
 74
     0
110
0.0
120
0.0
130
0.0
111
1.0
121
0.0
131
0.0
112
0.0
122
1.0
132
0.0
 79
     0
146
0.0
  0
INSERT
  5
F88
330
ED3
100
AcDbEntity
 67
     1
  8
0
  6
Continuous
100
AcDbBlockReference
  2
A2zuwaku_tate_ban
 10
5.30156102616138
 20
9.885471471594199
 30
0.0
  0
MTEXT
  5
F94
330
ED3
100
AcDbEntity
 67
     1
  8
0
  6
Continuous
 62
     4
100
AcDbMText
 10
317.6849902910776
 20
26.41140757375671
 30
0.0
 40
3.0
 41
86.17259999999998
 71
     1
 72
     5
  1
ＫＢＸ－２３１ １台ラック取付外観図（ＥＩＡ）
 73
     1
 44
1.0
  0
MTEXT
  5
F95
330
ED3
100
AcDbEntity
 67
     1
  8
0
  6
Continuous
 62
     4
100
AcDbMText
 10
236.1768066833501
 20
28.97142084054678
 30
0.0
 40
2.5
 41
19.7255
 71
     1
 72
     5
  1
2011.02.09
 73
     1
 44
1.0
  0
MTEXT
  5
F97
330
ED3
100
AcDbEntity
 67
     1
  8
0
  6
Continuous
 62
     4
100
AcDbMText
 10
298.8347240240845
 20
34.10356774183002
 30
0.0
 40
4.1656
 41
13.0798
 71
     1
 72
     5
  1
１／２
 73
     1
 44
1.0
  0
ENDSEC
  0
SECTION
  2
OBJECTS
  0
DICTIONARY
  5
19
330
0
100
AcDbDictionary
281
     1
  3
ACAD_GROUP
350
1A
  3
ACAD_LAYOUT
350
3E7
  3
ACAD_MLINESTYLE
350
1B
  3
ACAD_PLOTSETTINGS
350
3E8
  3
ACAD_PLOTSTYLENAME
350
3E5
  3
AcadDim
350
CFA
  0
DICTIONARY
  5
1A
102
{ACAD_REACTORS
330
19
102
}
330
19
100
AcDbDictionary
281
     1
  3
*A1
350
243D
  3
*A2
350
244B
  3
*A3
350
2720
  3
*A4
350
28E8
  3
*A5
350
297E
  3
*A6
350
297F
  3
*A7
350
2980
  3
*A8
350
29D4
  3
*A9
350
2AA6
  3
*A10
350
2AA7
  3
*A11
350
2AA8
  0
DICTIONARY
  5
3E7
102
{ACAD_REACTORS
330
19
102
}
330
19
100
AcDbDictionary
281
     1
  3
Model
350
3E9
  3
ラック取付外観図
350
ED4
  0
DICTIONARY
  5
1B
102
{ACAD_REACTORS
330
19
102
}
330
19
100
AcDbDictionary
281
     1
  3
STANDARD
350
1C
  0
DICTIONARY
  5
3E8
102
{ACAD_REACTORS
330
19
102
}
330
19
100
AcDbDictionary
281
     1
  0
ACDBDICTIONARYWDFLT
  5
3E5
102
{ACAD_REACTORS
330
19
102
}
330
19
100
AcDbDictionary
281
     1
  3
Normal
350
3E6
100
AcDbDictionaryWithDefault
340
3E6
  0
XRECORD
  5
CFA
102
{ACAD_REACTORS
330
19
102
}
330
19
100
AcDbXrecord
280
     1
 90
   990106
  3

 60
     0
 61
     0
 62
     1
 63
     3
 64
     1
 65
     0
 66
     0
 67
     3
 68
     1
 69
     0
 70
     0
 71
     0
 72
     0
 40
0.0
170
     2
340
1927
  0
GROUP
  5
243D
102
{ACAD_REACTORS
330
1A
102
}
330
1A
100
AcDbGroup
300

 70
     1
 71
     1
  0
GROUP
  5
244B
102
{ACAD_REACTORS
330
1A
102
}
330
1A
100
AcDbGroup
300

 70
     1
 71
     1
340
243E
340
243F
340
2442
340
2443
340
2444
340
2440
340
2441
340
2445
340
2448
340
2446
340
2447
340
2449
340
244A
  0
GROUP
  5
2720
102
{ACAD_REACTORS
330
1A
102
}
330
1A
100
AcDbGroup
300

 70
     1
 71
     1
340
26E0
340
26E2
340
26DE
340
26E1
340
26E3
340
26F5
340
26F4
340
26EE
340
26ED
340
26E8
340
26E7
340
26EC
340
26E5
340
26F3
340
26E9
340
26F2
340
26F1
340
26F0
340
26EF
340
26F9
340
26F8
340
26F7
340
26F6
340
26EB
340
26EA
340
26DF
340
26E4
340
2712
340
2716
340
2711
340
2710
340
2719
340
2718
340
2717
340
2713
340
270F
340
271F
340
271E
340
271D
340
271C
340
271B
340
271A
340
2715
340
2714
340
270E
340
270D
340
26E6
  0
GROUP
  5
28E8
102
{ACAD_REACTORS
330
1A
102
}
330
1A
100
AcDbGroup
300

 70
     1
 71
     1
340
286B
340
286C
340
286D
340
2872
340
2876
340
288B
340
288C
340
287D
340
287E
340
2873
340
2874
340
287C
340
2885
340
288A
340
2871
340
2878
340
2879
340
287A
340
287B
340
2886
340
2887
340
2888
340
2889
340
286F
340
2870
340
288D
340
2897
340
2891
340
2898
340
2892
340
2895
340
2899
340
289A
340
289B
340
2896
340
2893
340
288E
340
288F
340
289F
340
28A0
340
28A1
340
28A2
340
2890
340
289D
340
289E
340
289C
340
28A3
  0
GROUP
  5
297E
102
{ACAD_REACTORS
330
1A
102
}
330
1A
100
AcDbGroup
300

 70
     1
 71
     1
  0
GROUP
  5
297F
102
{ACAD_REACTORS
330
1A
102
}
330
1A
100
AcDbGroup
300

 70
     1
 71
     1
  0
GROUP
  5
2980
102
{ACAD_REACTORS
330
1A
102
}
330
1A
100
AcDbGroup
300

 70
     1
 71
     1
  0
GROUP
  5
29D4
102
{ACAD_REACTORS
330
1A
102
}
330
1A
100
AcDbGroup
300

 70
     1
 71
     1
  0
GROUP
  5
2AA6
102
{ACAD_REACTORS
330
1A
102
}
330
1A
100
AcDbGroup
300

 70
     1
 71
     1
340
2A48
340
2A47
340
2A4C
340
2A4B
340
2A51
340
2A50
340
2A4D
340
2A4A
340
2A49
340
2A54
340
2A53
340
2A52
340
2A4F
340
2A4E
340
2A57
340
2A46
340
2A5E
340
2A5D
340
2A58
340
2A56
340
2A55
340
2A59
340
2A5F
340
2A5C
340
2A60
340
2A5B
340
2A5A
340
2A61
  0
GROUP
  5
2AA7
102
{ACAD_REACTORS
330
1A
102
}
330
1A
100
AcDbGroup
300

 70
     1
 71
     1
340
2A63
340
2A62
340
2A66
340
2A65
340
2A67
340
2A6C
340
2A6B
340
2A68
340
2A64
340
2A6A
340
2A69
340
2A6E
340
2A6D
  0
GROUP
  5
2AA8
102
{ACAD_REACTORS
330
1A
102
}
330
1A
100
AcDbGroup
300

 70
     1
 71
     1
340
2A70
340
2A6F
340
2A71
340
2A72
340
2A74
340
2A73
340
2A7A
340
2A78
340
2A75
340
2A76
340
2A77
340
2A79
340
2A7F
340
2A7E
340
2A7B
340
2A7C
340
2A7D
340
2A80
  0
LAYOUT
  5
3E9
102
{ACAD_REACTORS
330
3E7
102
}
330
3E7
100
AcDbPlotSettings
  1

  2
NEC MULTINA ALPHA3520/2520/1820
  4

  6

 40
0.0
 41
0.0
 42
0.0
 43
0.0
 44
0.0
 45
0.0
 46
0.0
 47
0.0
 48
0.0
 49
0.0
140
0.0
141
0.0
142
1.0
143
1.0
 70
 11952
 72
     0
 73
     1
 74
     0
  7

 75
     0
147
1.0
148
4772.442760125988
149
9398.724200973246
100
AcDbLayout
  1
Model
 70
     1
 71
     0
 10
0.0
 20
0.0
 11
12.0
 21
9.0
 12
0.0
 22
0.0
 32
0.0
 14
0.0
 24
0.0
 34
0.0
 15
0.0
 25
0.0
 35
0.0
146
0.0
 13
0.0
 23
0.0
 33
0.0
 16
1.0
 26
0.0
 36
0.0
 17
0.0
 27
1.0
 37
0.0
 76
     0
330
A
  0
LAYOUT
  5
ED4
102
{ACAD_REACTORS
330
3E7
102
}
330
3E7
100
AcDbPlotSettings
  1

  2
Acrobat Distiller.pc3
  4
User66
  6

 40
3.174999952316281
 41
3.174999952316281
 42
3.17498779296875
 43
3.17498779296875
 44
420.0
 45
594.0
 46
0.0
 47
0.0
 48
0.0
 49
0.0
140
0.0
141
0.0
142
1.0
143
1.0
 70
   688
 72
     1
 73
     0
 74
     5
  7
black.ctb
 75
    16
147
1.0
148
0.0
149
0.0
100
AcDbLayout
  1
ラック取付外観図
 70
     1
 71
     1
 10
-3.174999952316281
 20
-3.174999952316281
 11
416.8250000476836
 21
590.8250000476837
 12
0.0
 22
0.0
 32
0.0
 14
0.2226072708546951
 24
5.709621471594195
 34
0.0
 15
412.7015610261612
 25
571.794154620655
 35
0.0
146
0.0
 13
0.0
 23
0.0
 33
0.0
 16
1.0
 26
0.0
 36
0.0
 17
0.0
 27
1.0
 37
0.0
 76
     0
330
ED3
331
EDA
  0
MLINESTYLE
  5
1C
102
{ACAD_REACTORS
330
1B
102
}
330
1B
100
AcDbMlineStyle
  2
STANDARD
 70
     0
  3

 62
     0
 51
90.0
 52
90.0
 71
     2
 49
0.5
 62
   256
  6
BYLAYER
 49
-0.5
 62
   256
  6
BYLAYER
  0
ACDBPLACEHOLDER
  5
3E6
102
{ACAD_REACTORS
330
3E5
102
}
330
3E5
  0
ENDSEC
  0
EOF
